osu file format v14

[General]
AudioFilename: audio.mp3
AudioLeadIn: 0
PreviewTime: 103035
Countdown: 0
SampleSet: Soft
StackLeniency: 0.2
Mode: 0
LetterboxInBreaks: 0
WidescreenStoryboard: 0

[Editor]
Bookmarks: 459,15228,29997,44766,72459,74305,89074,103843,131535,133382,146305,149997,177689,179535,186920,207459,208612
DistanceSpacing: 1.3
BeatDivisor: 4
GridSize: 8
TimelineZoom: 1.6

[Metadata]
Title:Russian Roulette
TitleUnicode:러시안 룰렛
Artist:Red Velvet
ArtistUnicode:레드벨벳
Creator:Natsu
Version:Insane
Source:
Tags:Red Velvet The 3rd Mini Album KT MUSIC 아이린 IRENE 슬기 SEULGI 웬디 WENDY 조이 JOY 예리 YERI kpop k-pop Euny
BeatmapID:1089041
BeatmapSetID:510568

[Difficulty]
HPDrainRate:5
CircleSize:4.2
OverallDifficulty:7.5
ApproachRate:8
SliderMultiplier:1.7
SliderTickRate:1

[Events]
//Background and Video events
0,0,"bgito.jpg",0,0
Video,0,"Red Velvet.avi"
//Break Periods
2,133558,145532
//Storyboard Layer 0 (Background)
//Storyboard Layer 1 (Fail)
//Storyboard Layer 2 (Pass)
//Storyboard Layer 3 (Foreground)
//Storyboard Sound Samples

[TimingPoints]
436,461.538461538462,4,3,1,50,1,0
436,-125,4,3,1,50,0,0
6205,-125,4,3,1,60,0,0
6897,-125,4,3,1,50,0,0
7820,-125,4,3,1,50,0,0
15205,-100,4,2,1,60,0,0
41051,-100,4,2,1,70,0,0
42897,-200,4,2,1,50,0,0
44743,-83.3333333333333,4,2,1,85,0,1
59397,-83.3333333333333,4,2,1,85,0,0
59512,-83.3333333333333,4,2,1,85,0,1
72436,-200,4,2,1,85,0,0
73589,-100,4,2,1,60,0,0
100128,-100,4,2,1,70,0,0
101974,-200,4,2,1,50,0,0
103820,-83.3333333333333,4,2,1,85,0,1
118474,-83.3333333333333,4,2,1,85,0,0
118589,-83.3333333333333,4,2,1,85,0,1
131512,-100,4,2,1,85,0,0
131743,-200,4,2,1,40,0,0
131974,-200,4,2,1,5,0,0
132205,-200,4,2,1,25,0,0
132262,-200,4,2,1,15,0,0
133359,-200,4,2,1,30,0,0
149282,-200,4,2,1,50,0,0
149974,-83.3333333333333,4,2,1,85,0,1
164628,-100,4,2,1,85,0,0
164743,-83.3333333333333,4,2,1,85,0,1
177666,-133.333333333333,4,2,1,85,0,0
178705,-100,4,2,1,60,0,0
186897,-83.3333333333333,4,2,1,85,0,1
190589,-100,4,2,1,65,0,0
194282,-83.3333333333333,4,2,1,85,0,1
201551,-83.3333333333333,4,2,1,85,0,0
201666,-83.3333333333333,4,2,1,85,0,1
207436,-142.857142857143,4,2,1,40,0,0

[Colours]
Combo1 : 255,0,77
Combo2 : 255,240,136

[HitObjects]
19,36,436,6,0,P|80:60|141:34,1,136,2|0,0:0|0:0,0:0:0:0:
205,125,1128,2,0,P|196:158|205:191,1,68,2|0,0:0|0:0,0:0:0:0:
306,191,1589,2,0,P|315:158|306:125,1,68,2|0,0:0|0:0,0:0:0:0:
256,46,2051,2,0,L|182:34,1,68,2|0,0:0|0:0,0:0:0:0:
29,232,2743,5,2,0:0:0:0:
108,260,2974,2,0,P|119:291|114:325,1,68,2|0,0:0|0:0,0:0:0:0:
147,193,3436,2,0,P|172:214|185:245,1,68,2|0,0:0|0:0,0:0:0:0:
146,114,3897,2,0,P|179:119|205:140,1,68,2|0,0:0|0:0,0:0:0:0:
263,194,4243,5,2,0:0:0:0:
263,194,4359,2,0,L|303:193,3,34,2|0|2|0,0:0|0:0|0:0|0:0,0:0:0:0:
356,236,4820,2,0,P|350:269|357:301,1,68,2|0,0:0|0:0,0:0:0:0:
247,365,5282,2,0,L|177:365,1,68,2|0,0:0|0:0,0:0:0:0:
76,291,5743,2,0,P|82:257|75:225,1,68,2|0,0:0|0:0,0:0:0:0:
14,85,6205,5,0,2:0:0:0:
2,200,6436,1,0,2:0:0:0:
107,152,6666,1,0,2:0:0:0:
115,160,7128,1,2,0:0:0:0:
217,102,7359,2,0,P|234:149|224:198,1,102,2|0,0:0|0:0,0:0:0:0:
171,247,7820,6,0,P|216:271|264:260,1,102,4|0,0:0|0:0,0:0:0:0:
310,203,8282,1,8,0:2:0:0:
428,107,8512,2,0,P|462:99|495:105,1,68,2|8,0:0|0:2,0:0:0:0:
354,142,8974,2,0,P|346:108|352:75,1,68,0|8,0:0|0:2,0:0:0:0:
464,179,9436,2,0,P|472:213|466:246,1,68,2|8,0:0|0:2,0:0:0:0:
351,325,9897,6,0,L|338:356,2,34,2|2|10,0:0|0:0|0:2,0:0:0:0:
257,267,10359,2,0,P|224:277|192:269,1,68,2|8,0:0|0:2,0:0:0:0:
72,205,10820,2,0,P|104:194|136:202,1,68,2|8,0:0|0:2,0:0:0:0:
257,267,11282,2,0,L|324:267,1,68,6|8,0:0|0:2,0:0:0:0:
391,228,11628,5,0,0:0:0:0:
412,190,11743,1,2,0:0:0:0:
414,146,11858,1,0,0:0:0:0:
394,108,11974,2,0,L|316:108,1,68,10|2,0:2|0:0,0:0:0:0:
225,80,12436,2,0,P|219:112|229:144,1,68,8|2,0:3|0:0,0:0:0:0:
152,213,12897,2,0,P|174:238|205:249,1,68,8|2,0:2|0:0,0:0:0:0:
317,227,13359,1,8,0:2:0:0:
399,154,13589,5,2,0:0:0:0:
416,182,13704,1,0,0:0:0:0:
425,215,13819,1,10,0:2:0:0:
424,249,13935,1,0,0:0:0:0:
414,281,14051,2,0,L|375:307,3,34,6|0|10|0,0:0|0:0|0:2|0:0,0:0:0:0:
319,331,14512,5,6,2:0:0:0:
256,216,14743,1,10,2:0:0:0:
193,331,14974,1,2,2:0:0:0:
327,254,15205,6,0,P|368:242|409:251,1,85,4|0,0:0|0:0,0:0:0:0:
491,365,15666,1,8,0:0:0:0:
373,319,15897,1,0,0:0:0:0:
501,281,16128,2,0,P|505:240|490:201,1,85,2|2,0:0|1:0,0:0:0:0:
346,126,16589,5,8,0:0:0:0:
421,251,16820,1,6,1:0:0:0:
278,171,17051,2,0,P|306:140|346:126,1,85,2|0,0:0|0:0,0:0:0:0:
421,251,17512,2,0,P|393:282|353:296,1,85,8|2,0:0|0:0,0:0:0:0:
65,242,18205,5,2,1:0:0:0:
127,321,18436,1,8,0:0:0:0:
192,166,18666,1,6,1:0:0:0:
253,244,18897,2,0,P|294:255|334:241,1,85,2|0,0:0|0:0,0:0:0:0:
446,136,19359,5,8,0:0:0:0:
512,213,19589,1,0,0:0:0:0:
412,235,19820,2,0,L|401:327,1,85,2|2,0:0|1:0,0:0:0:0:
512,213,20282,5,8,0:0:0:0:
342,159,20512,1,6,1:0:0:0:
446,136,20743,2,0,L|457:44,1,85,2|0,0:0|0:0,0:0:0:0:
342,159,21205,1,8,0:0:0:0:
512,213,21436,1,6,1:0:0:0:
256,357,21897,5,6,1:0:0:0:
320,278,22128,1,8,0:0:0:0:
191,213,22359,2,0,P|161:137|201:65,1,170,4|0,0:0|3:0,0:0:0:0:
308,25,23051,1,8,0:0:0:0:
308,25,23512,2,0,P|347:37|387:25,1,85,2|2,0:0|1:0,0:0:0:0:
203,25,23974,2,0,P|163:12|123:24,1,85,8|6,0:0|1:0,0:0:0:0:
22,42,24436,5,2,0:0:0:0:
10,143,24666,1,0,0:0:0:0:
103,187,24897,1,8,0:0:0:0:
172,112,25128,1,2,0:0:0:0:
88,105,25589,5,2,1:0:0:0:
177,186,25820,1,8,0:0:0:0:
256,45,26051,1,6,1:0:0:0:
345,126,26282,2,0,P|383:135|430:122,1,85,2|0,0:0|0:0,0:0:0:0:
256,45,26743,6,0,L|245:135,1,85,8|0,0:0|0:0,0:0:0:0:
287,277,27205,2,0,L|298:187,1,85,2|2,0:0|1:0,0:0:0:0:
207,308,27666,1,8,0:0:0:0:
375,260,27897,1,6,1:0:0:0:
386,267,28359,5,8,0:0:0:0:
218,315,28590,1,8,0:0:0:0:
268,138,28820,6,0,L|279:228,1,85,6|0,1:0|3:0,0:0:0:0:
160,85,29282,1,2,1:0:0:0:
328,37,29513,1,8,0:0:0:0:
268,138,29743,1,0,0:0:0:0:
425,101,29974,6,0,B|449:179|381:179|419:265,1,170,6|8,0:0|0:0,0:0:0:0:
347,337,30666,1,0,0:0:0:0:
257,287,30897,2,0,P|215:278|174:289,2,85,2|2|8,0:0|1:0|0:0,0:0:0:0:
426,340,31589,5,2,1:0:0:0:
493,263,31820,2,0,P|502:221|490:181,1,85,2|0,0:0|0:0,0:0:0:0:
421,105,32282,1,8,0:0:0:0:
366,191,32512,1,2,0:0:0:0:
366,191,32974,2,0,P|325:202|279:190,2,85,2|8|2,1:0|0:0|1:0,0:0:0:0:
486,38,33666,6,0,L|501:130,1,85,2|0,0:0|0:0,0:0:0:0:
366,191,34128,2,0,L|351:99,1,85,8|0,0:0|0:0,0:0:0:0:
412,23,34589,1,2,0:0:0:0:
255,74,34820,1,2,1:0:0:0:
366,191,35051,1,8,0:0:0:0:
156,214,35282,6,0,P|214:156|297:161,1,170,6|0,0:0|3:0,0:0:0:0:
350,283,35974,2,0,P|339:323|350:364,2,85,8|2|2,0:0|1:0|0:0,0:0:0:0:
426,192,36666,5,2,1:0:0:0:
418,323,36897,1,8,0:0:0:0:
503,260,37128,1,0,0:0:0:0:
350,283,37359,2,0,B|283:282|247:326|247:326|247:259,1,170,6|8,0:0|0:0,0:0:0:0:
253,169,38051,1,0,0:0:0:0:
166,222,38282,2,0,P|126:235|85:226,2,85,2|2|8,0:0|1:0|0:0,0:0:0:0:
335,108,38974,5,2,1:0:0:0:
253,169,39205,2,0,L|259:260,1,85,2|0,0:0|0:0,0:0:0:0:
153,149,39666,1,8,0:0:0:0:
71,210,39897,2,0,B|78:320|78:320|27:273,1,170,2|2,0:0|1:0,0:0:0:0:
7,146,40589,2,0,L|0:61,1,85,8|2,0:0|1:0,0:0:0:0:
179,83,41051,5,12,0:0:0:0:
219,232,41282,1,2,1:0:0:0:
365,115,41512,5,12,0:0:0:0:
216,155,41743,1,2,1:0:0:0:
333,301,41974,5,12,0:0:0:0:
293,152,42205,1,2,1:0:0:0:
147,269,42436,5,12,0:0:0:0:
296,229,42667,1,2,1:0:0:0:
170,86,42897,6,0,P|224:149|219:232,1,170,6|0,0:0|3:0,0:0:0:0:
147,269,44051,6,0,L|87:272,2,42.5,2|2|2,3:0|3:0|3:0,0:0:0:0:
256,363,44743,6,0,L|357:356,1,101.999996887207,6|0,0:0|0:0,0:0:0:0:
490,371,45205,1,8,0:0:0:0:
388,285,45436,1,0,0:0:0:0:
474,185,45666,2,0,P|489:232|477:281,1,101.999996887207,2|0,1:0|0:0,0:0:0:0:
375,166,46128,2,0,P|359:118|371:69,1,101.999996887207,8|0,0:0|0:0,0:0:0:0:
212,24,46589,5,2,1:0:0:0:
100,95,46820,1,0,0:0:0:0:
93,99,46936,1,0,0:0:0:0:
87,104,47051,2,0,P|72:147|87:205,2,101.999996887207,8|2|2,0:0|0:0|1:0,0:0:0:0:
212,24,47743,5,0,0:0:0:0:
256,149,47974,1,8,0:0:0:0:
345,51,48205,1,0,0:0:0:0:
345,51,48320,1,0,0:0:0:0:
345,51,48436,2,0,L|456:51,1,101.999996887207,2|0,1:0|0:0,0:0:0:0:
288,140,48897,5,8,0:0:0:0:
243,12,49128,1,0,0:0:0:0:
117,57,49359,1,2,1:0:0:0:
162,184,49590,1,0,0:0:0:0:
342,88,49820,6,0,P|362:135|348:183,1,101.999996887207,8|0,0:0|0:0,0:0:0:0:
260,307,50282,2,0,P|240:260|254:212,1,101.999996887207,2|0,1:0|0:0,0:0:0:0:
348,315,50743,1,8,0:0:0:0:
189,343,50974,2,0,B|84:343,1,101.999996887207,2|2,0:0|1:0,0:0:0:0:
74,195,51436,5,2,1:0:0:0:
12,365,51666,1,8,0:0:0:0:
115,265,51897,1,0,0:0:0:0:
0,162,52128,6,0,P|-6:209|27:258,1,101.999996887207,12|0,0:0|0:0,0:0:0:0:
196,300,52589,1,8,0:0:0:0:
74,195,52820,1,0,0:0:0:0:
239,125,53051,1,8,0:0:0:0:
134,247,53282,1,0,0:0:0:0:
64,84,53512,1,8,0:0:0:0:
186,189,53743,1,0,0:0:0:0:
265,54,53974,6,0,P|215:51|175:82,1,101.999996887207,8|0,0:0|0:0,0:0:0:0:
134,247,54436,1,8,0:0:0:0:
239,125,54667,1,0,0:0:0:0:
257,322,54897,1,8,0:0:0:0:
297,166,55128,1,0,0:0:0:0:
400,346,55359,1,8,0:0:0:0:
367,188,55590,1,0,0:0:0:0:
507,290,55820,6,0,P|457:294|419:262,1,101.999996887207,8|0,0:0|0:0,0:0:0:0:
482,218,56282,1,8,0:0:0:0:
377,96,56513,1,0,0:0:0:0:
333,281,56743,1,8,0:0:0:0:
482,218,56974,1,0,0:0:0:0:
270,132,57205,1,8,0:0:0:0:
333,281,57436,2,0,P|366:242|363:173,1,101.999996887207,2|2,0:0|1:0,0:0:0:0:
345,56,57897,6,0,B|428:46|428:46|417:60,1,101.999996887207,2|8,0:0|0:0,0:0:0:0:
270,132,58359,2,0,B|187:142|187:142|197:127,1,101.999996887207,2|2,0:0|1:0,0:0:0:0:
272,21,58820,1,2,1:0:0:0:
348,135,59051,2,0,L|368:185,3,50.9999984436036,10|0|2|0,0:0|0:0|0:0|0:0,0:0:0:0:
402,247,59512,6,0,P|449:231|497:247,2,101.999996887207,6|0|8,0:0|0:0|0:0,0:0:0:0:
271,275,60205,2,0,L|157:275,1,101.999996887207,2|2,0:0|1:0,0:0:0:0:
40,240,60666,2,0,P|30:290|51:335,1,101.999996887207,2|8,0:0|0:0,0:0:0:0:
169,275,61128,2,0,P|178:225|157:180,2,101.999996887207,2|2|0,0:0|1:0|0:0,0:0:0:0:
75,163,61820,5,12,0:0:0:0:
197,112,62051,1,0,0:0:0:0:
107,13,62282,2,0,P|97:62|122:105,1,101.999996887207,2|0,1:0|0:0,0:0:0:0:
255,192,62743,1,8,0:0:0:0:
348,98,62974,2,0,P|395:82|444:97,1,101.999996887207,2|2,0:0|1:0,0:0:0:0:
495,159,63320,5,0,0:0:0:0:
495,159,63436,2,0,L|495:226,3,50.9999984436036,2|0|10|0,0:0|0:0|0:0|0:0,0:0:0:0:
444,265,63897,2,0,P|395:279|347:264,1,101.999996887207,2|2,0:0|1:0,0:0:0:0:
269,372,64359,2,0,P|232:337|221:288,1,101.999996887207,2|8,0:0|0:0,0:0:0:0:
91,262,64820,2,0,P|102:213|139:179,1,101.999996887207,2|2,0:0|1:0,0:0:0:0:
311,160,65282,5,0,0:0:0:0:
213,70,65512,1,8,0:0:0:0:
341,36,65743,2,0,L|381:6,2,50.9999984436036,0|0|2,0:0|0:0|1:0,0:0:0:0:
247,131,66205,5,6,1:0:0:0:
345,221,66435,1,8,0:0:0:0:
217,255,66666,1,0,0:0:0:0:
398,168,66897,6,0,P|420:212|409:261,1,101.999996887207,6|0,1:0|0:0,0:0:0:0:
256,360,67358,1,8,0:0:0:0:
345,221,67589,1,0,0:0:0:0:
184,346,67820,1,8,0:0:0:0:
339,291,68051,1,0,0:0:0:0:
145,282,68282,1,8,0:0:0:0:
292,348,68513,1,0,0:0:0:0:
153,207,68743,6,0,P|143:158|163:110,1,101.999996887207,8|0,0:0|0:0,0:0:0:0:
256,29,69205,1,8,0:0:0:0:
95,67,69435,1,0,0:0:0:0:
131,213,69666,1,8,0:0:0:0:
169,52,69896,1,0,0:0:0:0:
307,181,70128,1,8,0:0:0:0:
146,143,70358,1,0,0:0:0:0:
224,284,70589,6,0,P|243:237|232:188,1,101.999996887207,8|0,0:0|0:0,0:0:0:0:
72,103,71051,1,8,0:0:0:0:
166,227,71282,1,0,0:0:0:0:
7,322,71512,1,8,1:0:0:0:
55,174,71743,1,0,0:0:0:0:
141,381,71974,1,8,0:0:0:0:
93,233,72205,2,0,P|75:273|96:335,1,101.999996887207,0|2,0:0|1:0,0:0:0:0:
440,366,73589,6,0,L|496:374,2,42.5,0|0|8,0:0|0:0|0:0,0:0:0:0:
332,339,74051,1,2,1:0:0:0:
412,263,74282,6,0,P|426:222|420:181,1,85,6|0,1:0|0:0,0:0:0:0:
340,75,74743,1,8,0:0:0:0:
458,121,74974,1,0,0:0:0:0:
276,121,75205,2,0,P|262:80|268:39,1,85,2|2,0:0|1:0,0:0:0:0:
357,168,75666,5,8,0:0:0:0:
211,178,75897,1,6,1:0:0:0:
300,285,76128,2,0,P|305:243|288:204,1,85,2|0,0:0|0:0,0:0:0:0:
198,97,76589,2,0,P|193:138|210:177,1,85,8|2,0:0|0:0,0:0:0:0:
459,272,77282,5,2,1:0:0:0:
359,353,77513,1,8,0:0:0:0:
392,206,77743,1,6,1:0:0:0:
292,289,77974,2,0,P|251:300|211:286,1,85,2|0,0:0|0:0,0:0:0:0:
90,210,78436,5,8,0:0:0:0:
40,121,78666,1,0,0:0:0:0:
141,133,78897,2,0,L|238:119,1,85,2|2,0:0|1:0,0:0:0:0:
324,14,79359,5,8,0:0:0:0:
306,191,79589,1,6,1:0:0:0:
403,95,79820,2,0,L|318:107,1,85,2|0,0:0|0:0,0:0:0:0:
478,13,80282,1,8,0:0:0:0:
460,190,80512,1,6,1:0:0:0:
468,195,80974,5,2,1:0:0:0:
486,18,81204,1,8,0:0:0:0:
395,141,81436,2,0,P|319:171|247:131,1,170,6|0,0:0|3:0,0:0:0:0:
150,33,82128,1,8,0:0:0:0:
150,33,82589,2,0,L|123:128,1,85,2|2,0:0|1:0,0:0:0:0:
79,268,83051,2,0,L|102:186,1,85,8|6,0:0|1:0,0:0:0:0:
252,275,83512,5,2,0:0:0:0:
212,371,83743,1,0,0:0:0:0:
112,364,83974,1,8,0:0:0:0:
79,268,84205,1,2,0:0:0:0:
87,276,84666,5,2,1:0:0:0:
120,372,84897,1,8,0:0:0:0:
260,283,85128,1,6,1:0:0:0:
220,379,85359,2,0,P|191:344|183:303,1,85,2|0,0:0|0:0,0:0:0:0:
204,138,85820,6,0,L|193:228,1,85,8|0,0:0|0:0,0:0:0:0:
308,246,86282,2,0,L|319:156,1,85,2|2,0:0|1:0,0:0:0:0:
409,283,86743,1,8,0:0:0:0:
241,331,86974,1,6,0:0:0:0:
245,335,87436,5,0,3:0:0:0:
413,287,87667,1,8,0:0:0:0:
307,176,87897,6,0,P|300:217|314:257,1,85,6|0,1:0|0:0,0:0:0:0:
491,349,88359,1,2,1:0:0:0:
381,214,88590,1,8,0:0:0:0:
374,333,88820,1,0,0:0:0:0:
495,190,89051,6,0,B|519:112|451:112|489:26,1,170,6|8,0:0|0:0,0:0:0:0:
390,52,89743,1,0,0:0:0:0:
300,102,89974,2,0,P|258:111|217:100,2,85,2|2|8,0:0|1:0|0:0,0:0:0:0:
452,126,90666,5,6,1:0:0:0:
385,203,90897,2,0,P|376:245|388:285,1,85,2|0,0:0|0:0,0:0:0:0:
457,361,91359,1,8,0:0:0:0:
512,275,91589,1,2,0:0:0:0:
512,275,92051,2,0,P|521:233|509:193,2,85,2|8|2,1:0|0:0|1:0,0:0:0:0:
376,336,92743,6,0,P|335:324|294:333,1,85,2|0,0:0|0:0,0:0:0:0:
135,336,93205,2,0,P|175:347|216:338,1,85,8|0,0:0|0:0,0:0:0:0:
340,165,93666,1,2,0:0:0:0:
183,216,93897,1,2,1:0:0:0:
294,333,94128,1,8,0:0:0:0:
231,155,94359,6,0,P|151:145|106:212,1,170,6|0,0:0|0:0,0:0:0:0:
90,353,95051,2,0,P|50:367|10:357,2,85,8|2|2,0:0|1:0|0:0,0:0:0:0:
208,257,95743,5,2,1:0:0:0:
309,355,95974,1,8,0:0:0:0:
304,257,96205,1,0,0:0:0:0:
203,355,96436,2,0,B|122:389|123:310|37:357,1,170,6|8,0:0|0:0,0:0:0:0:
51,253,97128,1,0,0:0:0:0:
123,181,97359,2,0,P|136:141|127:100,2,85,2|2|8,0:0|1:0|0:0,0:0:0:0:
206,274,98051,5,6,1:0:0:0:
210,278,98282,2,0,L|298:278,1,85,2|0,0:0|0:0,0:0:0:0:
441,354,98743,1,8,0:0:0:0:
376,261,98974,2,0,P|339:188|368:111,1,170,2|2,0:0|1:0,0:0:0:0:
376,261,99666,2,0,L|279:272,1,85,8|2,0:0|1:0,0:0:0:0:
78,222,100128,5,12,0:0:0:0:
118,371,100359,1,2,1:0:0:0:
115,156,100589,5,12,0:0:0:0:
155,305,100820,1,2,1:0:0:0:
153,89,101051,5,12,0:0:0:0:
193,238,101282,1,2,1:0:0:0:
191,23,101512,5,12,0:0:0:0:
231,172,101743,1,2,1:0:0:0:
385,88,101974,6,0,P|311:55|228:98,1,170,6|0,0:0|3:0,0:0:0:0:
192,159,103128,6,0,L|181:206,2,42.5,2|2|2,3:0|3:0|3:0,0:0:0:0:
358,192,103820,6,0,L|331:296,1,101.999996887207,6|0,0:0|0:0,0:0:0:0:
217,357,104282,1,8,0:0:0:0:
349,367,104513,1,0,0:0:0:0:
244,286,104743,2,0,L|218:187,1,101.999996887207,2|0,1:0|0:0,0:0:0:0:
171,62,105205,2,0,P|123:78|74:66,1,101.999996887207,8|0,0:0|0:0,0:0:0:0:
256,10,105666,5,2,1:0:0:0:
369,78,105897,1,0,0:0:0:0:
376,82,106013,1,0,0:0:0:0:
382,87,106128,2,0,P|397:130|382:188,2,101.999996887207,8|2|2,0:0|0:0|1:0,0:0:0:0:
235,137,106820,5,0,0:0:0:0:
191,262,107051,1,8,0:0:0:0:
102,164,107282,1,0,0:0:0:0:
102,164,107397,1,0,0:0:0:0:
102,164,107513,2,0,L|-9:164,1,101.999996887207,2|0,1:0|0:0,0:0:0:0:
145,80,107974,5,8,0:0:0:0:
190,208,108205,1,0,0:0:0:0:
316,163,108436,1,2,1:0:0:0:
271,36,108667,1,0,0:0:0:0:
190,208,108897,6,0,P|170:255|184:303,1,101.999996887207,12|0,0:0|0:0,0:0:0:0:
339,266,109359,2,0,P|292:246|244:260,1,101.999996887207,2|0,1:0|0:0,0:0:0:0:
365,348,109820,1,8,0:0:0:0:
404,221,110051,2,0,B|404:114,1,101.999996887207,2|2,0:0|1:0,0:0:0:0:
205,20,110513,5,2,1:0:0:0:
328,135,110743,1,8,0:0:0:0:
199,153,110974,1,0,0:0:0:0:
377,197,111205,6,0,P|404:154|399:105,1,101.999996887207,12|0,0:0|0:0,0:0:0:0:
205,20,111666,1,8,0:0:0:0:
359,45,111897,1,0,0:0:0:0:
125,65,112128,1,8,0:0:0:0:
279,90,112359,1,0,0:0:0:0:
45,108,112589,1,8,0:0:0:0:
199,133,112820,1,0,0:0:0:0:
41,203,113051,6,0,P|27:155|45:108,1,101.999996887207,8|0,0:0|0:0,0:0:0:0:
226,45,113512,1,8,0:0:0:0:
105,159,113744,1,0,0:0:0:0:
340,166,113974,1,8,0:0:0:0:
226,45,114205,1,0,0:0:0:0:
219,280,114436,1,8,0:0:0:0:
340,166,114667,1,0,0:0:0:0:
105,159,114897,6,0,L|-4:159,1,101.999996887207,8|0,0:0|0:0,0:0:0:0:
113,264,115359,1,8,0:0:0:0:
182,91,115590,1,0,0:0:0:0:
251,339,115820,1,8,0:0:0:0:
182,166,116051,1,0,0:0:0:0:
172,380,116282,1,8,0:0:0:0:
240,207,116512,2,0,P|289:192|338:204,1,101.999996887207,0|2,0:0|1:0,0:0:0:0:
409,319,116974,6,0,B|414:209,1,101.999996887207,2|8,0:0|1:0,0:0:0:0:
285,371,117436,2,0,B|290:261,1,101.999996887207,2|2,0:0|1:0,0:0:0:0:
311,138,117897,1,2,1:0:0:0:
413,217,118128,2,0,L|473:225,3,50.9999984436036,10|0|2|0,0:0|0:0|0:0|0:0,0:0:0:0:
500,159,118589,6,0,P|484:112|500:64,2,101.999996887207,6|0|8,0:0|0:0|0:0,0:0:0:0:
468,304,119282,2,0,L|351:290,1,101.999996887207,2|2,0:0|1:0,0:0:0:0:
242,242,119743,2,0,P|232:292|253:337,1,101.999996887207,2|8,0:0|0:0,0:0:0:0:
121,358,120205,2,0,L|4:344,2,101.999996887207,2|2|0,0:0|1:0|0:0,0:0:0:0:
252,336,120897,5,12,0:0:0:0:
374,285,121128,1,0,0:0:0:0:
284,186,121359,2,0,P|274:235|299:278,1,101.999996887207,2|0,1:0|0:0,0:0:0:0:
359,140,121820,1,8,0:0:0:0:
196,199,122051,2,0,P|149:215|100:200,1,101.999996887207,2|2,0:0|1:0,0:0:0:0:
46,150,122397,5,0,0:0:0:0:
46,150,122513,2,0,L|46:83,3,50.9999984436036,2|0|10|0,0:0|0:0|0:0|0:0,0:0:0:0:
97,44,122974,2,0,P|146:30|194:45,1,101.999996887207,2|2,0:0|1:0,0:0:0:0:
285,141,123436,2,0,L|285:259,1,101.999996887207,2|8,0:0|0:0,0:0:0:0:
193,339,123897,2,0,P|145:354|97:340,1,101.999996887207,2|2,0:0|1:0,0:0:0:0:
15,234,124359,5,0,0:0:0:0:
134,176,124589,1,8,0:0:0:0:
27,97,124820,2,0,L|7:43,2,50.9999984436036,0|0|2,0:0|0:0|1:0,0:0:0:0:
94,308,125282,5,6,1:0:0:0:
192,218,125512,1,8,0:0:0:0:
64,184,125743,1,0,0:0:0:0:
192,303,125974,6,0,P|236:325|285:314,1,101.999996887207,12|0,1:0|0:0,0:0:0:0:
430,222,126435,1,8,0:0:0:0:
245,247,126666,1,0,0:0:0:0:
340,66,126897,1,8,0:0:0:0:
245,247,127128,1,0,0:0:0:0:
137,35,127359,1,8,0:0:0:0:
245,247,127590,1,0,0:0:0:0:
68,186,127820,6,0,P|104:151|154:149,1,101.999996887207,8|0,0:0|0:0,0:0:0:0:
243,343,128282,1,8,0:0:0:0:
133,218,128512,1,0,0:0:0:0:
359,305,128743,1,8,0:0:0:0:
195,274,128973,1,0,0:0:0:0:
433,200,129205,1,8,0:0:0:0:
284,276,129435,1,0,0:0:0:0:
324,107,129666,6,0,P|343:154|332:203,1,101.999996887207,8|0,0:0|0:0,0:0:0:0:
150,286,130128,1,8,0:0:0:0:
260,161,130358,1,0,0:0:0:0:
24,131,130589,1,8,0:0:0:0:
128,262,130819,1,0,0:0:0:0:
227,95,131051,1,8,0:0:0:0:
123,226,131282,2,0,P|105:170|126:128,1,101.999996887207,0|2,0:0|1:0,0:0:0:0:
227,95,131743,6,0,L|286:91,1,42.5,2|0,3:0|3:0,0:0:0:0:
347,141,132205,2,0,P|325:220|406:182,1,212.5,2|2,3:0|3:0,0:0:0:0:
256,192,146282,12,0,149051,3:0:0:0:
60,64,149282,6,0,L|45:20,2,42.5,2|2|2,3:0|3:0|3:0,0:0:0:0:
103,229,149974,6,0,P|151:246|198:229,1,101.999996887207,6|0,0:0|0:0,0:0:0:0:
256,109,150436,1,8,0:0:0:0:
299,233,150666,1,0,0:0:0:0:
407,157,150897,2,0,P|359:140|312:157,1,101.999996887207,2|0,1:0|0:0,0:0:0:0:
198,229,151359,2,0,P|151:246|103:229,1,101.999996887207,8|0,0:0|0:0,0:0:0:0:
25,123,151820,5,2,1:0:0:0:
137,52,152051,1,0,0:0:0:0:
144,56,152167,1,0,0:0:0:0:
150,61,152282,2,0,P|165:104|150:162,2,101.999996887207,8|2|2,0:0|0:0|1:0,0:0:0:0:
80,199,152974,5,0,0:0:0:0:
124,324,153205,1,8,0:0:0:0:
213,226,153436,1,0,0:0:0:0:
213,226,153551,1,0,0:0:0:0:
213,226,153667,2,0,L|324:226,1,101.999996887207,2|0,1:0|0:0,0:0:0:0:
486,309,154128,5,8,0:0:0:0:
360,354,154359,1,0,0:0:0:0:
315,226,154590,1,2,1:0:0:0:
441,182,154821,1,0,0:0:0:0:
360,354,155051,6,0,P|313:374|265:360,1,101.999996887207,8|0,0:0|0:0,0:0:0:0:
168,269,155513,2,0,L|142:372,1,101.999996887207,2|0,1:0|0:0,0:0:0:0:
91,245,155974,1,8,0:0:0:0:
215,201,156205,2,0,P|265:189|314:200,1,101.999996887207,2|2,0:0|1:0,0:0:0:0:
505,256,156667,5,6,1:0:0:0:
382,141,156897,1,8,0:0:0:0:
376,274,157128,1,0,0:0:0:0:
480,157,157359,6,0,P|495:111|476:59,1,101.999996887207,12|0,0:0|0:0,0:0:0:0:
263,84,157820,1,8,0:0:0:0:
417,109,158051,1,0,0:0:0:0:
174,127,158282,1,8,0:0:0:0:
328,152,158513,1,0,0:0:0:0:
87,173,158743,1,8,0:0:0:0:
241,198,158974,1,0,0:0:0:0:
175,33,159205,6,0,P|157:79|174:127,1,101.999996887207,8|0,0:0|0:0,0:0:0:0:
360,189,159667,1,8,0:0:0:0:
238,84,159898,1,0,0:0:0:0:
319,247,160128,1,8,0:0:0:0:
115,206,160359,1,0,0:0:0:0:
314,319,160589,1,8,0:0:0:0:
88,368,160821,1,0,0:0:0:0:
211,184,161051,6,0,L|198:294,1,101.999996887207,8|0,0:0|0:0,0:0:0:0:
298,130,161513,1,8,0:0:0:0:
108,206,161744,1,0,0:0:0:0:
310,157,161974,1,8,0:0:0:0:
83,172,162205,1,0,0:0:0:0:
310,199,162436,1,8,0:0:0:0:
71,125,162666,2,0,P|59:75|75:30,1,101.999996887207,0|2,0:0|1:0,0:0:0:0:
180,193,163128,6,0,P|192:243|176:288,1,101.999996887207,2|8,0:0|0:0,0:0:0:0:
336,289,163589,2,0,P|319:241|332:193,1,101.999996887207,2|2,0:0|1:0,0:0:0:0:
256,83,164051,1,2,1:0:0:0:
180,193,164282,2,0,L|112:204,3,50.9999984436036,10|0|2|0,0:0|0:0|0:0|0:0,0:0:0:0:
55,185,164743,6,0,P|68:137|43:88,2,101.999996887207,6|0|8,0:0|0:0|0:0,0:0:0:0:
87,314,165436,2,0,P|135:298|185:308,1,101.999996887207,2|2,0:0|1:0,0:0:0:0:
326,308,165897,2,0,P|376:298|424:314,1,101.999996887207,2|8,0:0|0:0,0:0:0:0:
457,185,166359,2,0,P|444:137|469:88,2,101.999996887207,2|2|0,0:0|1:0|0:0,0:0:0:0:
332,230,167051,5,8,0:0:0:0:
210,281,167282,1,0,0:0:0:0:
300,380,167513,2,0,P|310:331|285:288,1,101.999996887207,2|0,1:0|0:0,0:0:0:0:
133,235,167974,1,8,0:0:0:0:
285,288,168205,2,0,P|334:298|382:285,1,101.999996887207,2|2,0:0|1:0,0:0:0:0:
434,234,168551,5,0,0:0:0:0:
434,234,168667,2,0,L|434:167,3,50.9999984436036,2|0|10|0,0:0|0:0|0:0|0:0,0:0:0:0:
494,143,169128,2,0,L|494:41,1,101.999996887207,2|2,0:0|1:0,0:0:0:0:
386,128,169590,2,0,P|339:146|292:131,1,101.999996887207,2|8,0:0|0:0,0:0:0:0:
126,110,170051,2,0,P|172:91|219:106,1,101.999996887207,2|2,0:0|1:0,0:0:0:0:
300,235,170513,5,2,0:0:0:0:
300,235,170628,1,0,0:0:0:0:
300,235,170743,2,0,L|317:291,3,50.9999984436036,10|0|2|0,0:0|0:0|0:0|0:0,0:0:0:0:
281,346,171205,1,2,1:0:0:0:
442,317,171436,5,6,1:0:0:0:
314,283,171666,1,8,0:0:0:0:
412,193,171897,1,0,0:0:0:0:
281,346,172128,6,0,P|237:368|188:357,1,101.999996887207,12|0,0:0|0:0,0:0:0:0:
138,157,172589,1,8,0:0:0:0:
227,296,172820,1,0,0:0:0:0:
270,93,173051,1,8,0:0:0:0:
181,232,173282,1,0,0:0:0:0:
137,28,173512,1,8,0:0:0:0:
226,167,173743,1,0,0:0:0:0:
44,130,173974,6,0,P|90:110|139:120,1,101.999996887207,8|0,0:0|0:0,0:0:0:0:
261,239,174436,1,8,0:0:0:0:
100,201,174666,1,0,0:0:0:0:
186,361,174897,1,8,0:0:0:0:
106,215,175127,1,0,0:0:0:0:
58,384,175359,1,8,0:0:0:0:
112,226,175589,1,0,0:0:0:0:
215,358,175820,6,0,P|264:368|310:349,1,101.999996887207,8|0,0:0|0:0,0:0:0:0:
384,194,176282,1,8,0:0:0:0:
481,335,176513,1,0,0:0:0:0:
310,348,176743,1,8,0:0:0:0:
291,151,176974,1,0,0:0:0:0:
388,292,177205,1,8,0:0:0:0:
217,305,177436,2,0,P|164:289|132:251,1,101.999996887207,0|2,0:0|1:0,0:0:0:0:
52,56,178705,6,0,L|41:23,12,21.25,2|0|0|0|0|0|2|0|0|0|0|0|0,3:0|3:0|3:0|3:0|3:0|3:0|3:0|3:0|3:0|3:0|3:0|0:0|0:0,0:0:0:0:
123,33,179512,6,0,P|162:50|204:43,1,85,6|0,1:0|0:0,0:0:0:0:
389,33,179974,2,0,P|350:16|308:23,1,85,8|0,0:0|0:0,0:0:0:0:
236,132,180436,1,2,1:0:0:0:
336,177,180666,2,0,P|351:137|341:96,1,85,2|8,0:0|0:0,0:0:0:0:
187,63,181128,5,2,0:0:0:0:
187,63,181243,1,0,0:0:0:0:
187,63,181359,2,0,L|130:73,3,42.5,2|0|2|0,1:0|3:0|0:0|3:0,0:0:0:0:
80,33,181820,1,8,0:0:0:0:
74,143,182051,1,2,0:0:0:0:
181,169,182282,2,0,L|222:161,3,42.5,2|0|2|0,1:0|3:0|0:0|0:0,0:0:0:0:
257,224,182743,2,0,L|366:204,1,85,8|2,0:0|0:0,0:0:0:0:
508,147,183205,5,2,1:0:0:0:
409,296,183436,1,2,0:0:0:0:
401,116,183666,1,8,0:0:0:0:
512,257,183897,1,2,0:0:0:0:
340,208,184128,1,2,1:0:0:0:
508,147,184359,2,0,P|513:105|494:68,1,85,2|8,0:0|0:0,0:0:0:0:
340,208,184820,6,0,L|348:297,1,85,2|2,0:0|1:0,0:0:0:0:
172,176,185282,2,0,L|164:87,1,85,2|8,0:0|0:0,0:0:0:0:
240,221,185743,1,2,0:0:0:0:
211,249,185859,1,0,0:0:0:0:
172,259,185974,1,2,1:0:0:0:
38,174,186205,2,0,L|29:77,2,85,2|8|2,1:0|0:0|0:0,0:0:0:0:
172,259,186897,6,0,P|187:306|175:355,1,101.999996887207,6|0,0:0|0:0,0:0:0:0:
0,374,187359,1,8,0:0:0:0:
113,308,187590,1,0,0:0:0:0:
34,201,187820,2,0,P|18:248|30:297,1,101.999996887207,2|0,1:0|0:0,0:0:0:0:
163,192,188282,2,0,P|178:144|166:95,1,101.999996887207,8|0,0:0|0:0,0:0:0:0:
355,23,188743,5,2,1:0:0:0:
256,111,188974,1,0,0:0:0:0:
380,156,189204,1,8,0:0:0:0:
279,243,189436,2,0,P|265:284|279:340,2,101.999996887207,2|2|0,0:0|1:0|0:0,0:0:0:0:
380,156,190128,1,8,0:0:0:0:
499,288,190359,5,0,0:0:0:0:
499,288,190474,1,0,0:0:0:0:
498,288,190589,2,0,P|423:324|347:293,1,170,2|8,1:0|0:0,0:0:0:0:
276,207,191282,1,0,0:0:0:0:
276,207,191397,1,0,0:0:0:0:
276,207,191512,1,2,1:0:0:0:
165,292,191743,2,0,P|156:334|167:375,1,85,0|8,0:0|0:0,0:0:0:0:
345,375,192205,2,0,P|355:334|347:292,1,85,2|2,0:0|1:0,0:0:0:0:
193,192,192666,6,0,L|132:203,2,42.5,0|0|8,0:0|0:0|0:0,0:0:0:0:
319,192,193128,2,0,L|380:181,2,42.5,0|0|2,0:0|0:0|1:0,0:0:0:0:
255,282,193590,1,2,2:0:0:0:
193,192,193820,2,0,P|178:155|189:110,1,85,8|0,0:0|0:0,0:0:0:0:
383,112,194282,6,0,B|288:76|288:162|187:112,1,203.999993774414,6|8,0:0|0:0,0:0:0:0:
58,29,194974,2,0,B|47:134,1,101.999996887207,2|8,0:0|0:0,0:0:0:0:
29,306,195436,2,0,B|40:201,1,101.999996887207,2|0,1:0|0:0,0:0:0:0:
163,157,195897,2,0,P|210:173|257:158,1,101.999996887207,2|2,0:0|1:0,0:0:0:0:
385,80,196359,5,2,0:0:0:0:
385,80,196474,1,0,0:0:0:0:
385,80,196589,1,8,0:0:0:0:
475,177,196820,2,0,P|489:225|478:274,2,101.999996887207,2|2|0,0:0|1:0|0:0,0:0:0:0:
353,231,197512,1,0,0:0:0:0:
255,139,197743,2,0,P|207:127|158:142,1,101.999996887207,2|2,0:0|1:0,0:0:0:0:
106,191,198089,5,0,0:0:0:0:
106,191,198205,2,0,L|97:249,3,50.9999984436036,2|0|10|0,0:0|0:0|0:0|0:0,0:0:0:0:
30,266,198666,2,0,L|9:376,1,101.999996887207,2|2,0:0|1:0,0:0:0:0:
141,339,199128,2,0,P|189:323|237:337,1,101.999996887207,2|8,0:0|0:0,0:0:0:0:
364,374,199589,2,0,P|348:325|362:277,1,101.999996887207,2|2,0:0|1:0,0:0:0:0:
480,200,200051,5,8,0:0:0:0:
436,325,200282,1,8,0:0:0:0:
397,198,200512,1,8,0:0:0:0:
301,289,200743,1,2,0:0:0:0:
266,310,200858,1,0,0:0:0:0:
226,316,200973,1,2,0:0:0:0:
187,306,201089,1,0,0:0:0:0:
155,281,201205,2,0,L|126:204,3,50.9999984436036,10|0|2|0,0:0|0:0|0:0|0:0,0:0:0:0:
204,208,201666,6,0,L|163:95,1,101.999996887207,6|0,0:0|0:0,0:0:0:0:
296,72,202128,1,8,0:0:0:0:
167,40,202359,1,0,0:0:0:0:
255,136,202589,2,0,P|304:148|349:125,1,101.999996887207,2|0,1:0|0:0,0:0:0:0:
495,61,203051,2,0,P|446:49|401:72,1,101.999996887207,8|0,0:0|0:0,0:0:0:0:
339,221,203512,5,2,1:0:0:0:
458,163,203743,1,0,0:0:0:0:
455,295,203973,1,8,0:0:0:0:
339,221,204205,6,0,P|292:208|237:228,1,101.999996887207,2|2,0:0|1:0,0:0:0:0:
137,304,204666,2,0,P|184:317|239:297,1,101.999996887207,2|8,0:0|0:0,0:0:0:0:
339,221,205128,2,0,L|361:112,1,101.999996887207,2|2,0:0|1:0,0:0:0:0:
311,68,205474,5,0,0:0:0:0:
311,68,205589,2,0,L|260:77,3,50.9999984436036,2|0|2|0,0:0|0:0|0:0|0:0,0:0:0:0:
201,36,206051,2,0,L|88:55,1,101.999996887207,2|2,0:0|1:0,0:0:0:0:
163,192,206513,6,0,P|176:240|161:288,1,101.999996887207,2|8,0:0|0:0,0:0:0:0:
349,288,206974,2,0,P|334:240|348:192,1,101.999996887207,2|2,0:0|1:0,0:0:0:0:
256,54,207436,6,0,L|190:55,2,59.4999981842042,2|2|2,3:0|3:0|3:0,0:0:0:0:
355,103,208359,2,0,L|429:103,1,59.4999981842042,2|0,3:0|3:0,0:0:0:0:
