osu file format v14

[General]
AudioFilename: audio.mp3
AudioLeadIn: 0
PreviewTime: 60572
Countdown: 1
SampleSet: Normal
StackLeniency: 0.7
Mode: 0
LetterboxInBreaks: 0
WidescreenStoryboard: 0

[Editor]
DistanceSpacing: 2.4
BeatDivisor: 6
GridSize: 8
TimelineZoom: 2.2

[Metadata]
Title:Rookie (short ver.)
TitleUnicode:Rookie (short ver.)
Artist:Red Velvet
ArtistUnicode:Red Velvet
Creator:feodossya
Version:LOOKIE LOOKIE*
Source:
Tags:red velvet
BeatmapID:1616721
BeatmapSetID:768771

[Difficulty]
HPDrainRate:8
CircleSize:4.5
OverallDifficulty:7
ApproachRate:8.5
SliderMultiplier:1.4
SliderTickRate:2

[Events]
//Background and Video events
0,0,"ueB7hpF.jpg",0,0
//Break Periods
//Storyboard Layer 0 (Background)
//Storyboard Layer 1 (Fail)
//Storyboard Layer 2 (Pass)
//Storyboard Layer 3 (Foreground)
//Storyboard Sound Samples

[TimingPoints]
3865.29268292683,365.853658536585,4,2,0,70,1,0
8072,-100,4,2,0,40,0,0
8255,-100,4,2,0,50,0,0
9718,-100,4,2,0,70,0,0
14109,-100,4,1,0,70,0,0
22889,-66.6666666666667,4,1,0,70,0,0
23621,-50,4,1,0,70,0,0
23804,-100,4,1,0,70,0,0
26914,-66.6666666666667,4,1,0,70,0,0
27096,-100,4,1,0,70,0,0
38987,-111.111111111111,4,2,0,100,0,0
47584,-133.333333333333,4,2,0,100,0,0
50145,-111.111111111111,4,2,0,100,0,0
60938,-100,4,1,0,100,0,0
61670,-133.333333333333,4,1,0,100,0,0
62036,-50,4,1,0,100,0,0
62401,-83.3333333333333,4,1,0,100,0,1
65145,-66.6666666666667,4,1,0,100,0,0
65328,-66.6666666666667,4,1,0,100,0,1
68133,-100,4,1,0,100,0,0
68255,-66.6666666666667,4,1,0,100,0,1
71060,-100,4,1,0,100,0,0
71182,-66.6666666666667,4,1,0,100,0,1
73743,-100,4,1,0,100,0,0
76975,-100,4,1,0,5,0,0

[Colours]
Combo1 : 26,7,248
Combo2 : 255,128,255
Combo3 : 0,255,255
Combo4 : 210,0,0

[HitObjects]
112,144,3865,6,0,P|136:104|224:136,1,140,2|8,0:0|0:0,0:0:0:0:
224,136,4414,2,0,B|320:184|320:184|416:136,1,210,2|8,0:0|0:0,0:0:0:0:
320,64,5145,5,2,0:0:0:0:
320,96,5328,1,2,0:0:0:0:
320,128,5511,2,0,L|320:208,1,70,0|8,0:0|0:0,0:0:0:0:
252,197,5877,2,0,P|324:269|388:197,1,210,2|8,0:0|0:0,0:0:0:0:
408,104,6609,5,2,0:0:0:0:
424,80,6792,1,2,0:0:0:0:
440,56,6975,2,0,L|440:136,1,70,0|8,0:0|0:0,0:0:0:0:
440,200,7340,2,0,B|440:304|440:304|384:344|336:304,1,210,2|8,0:0|0:0,0:0:0:0:
304,243,8072,6,0,L|240:192,1,70,8|0,3:3|0:0,0:0:0:0:
176,88,8438,1,2,0:0:0:0:
128,176,8621,1,10,0:0:0:0:
232,184,8804,1,2,0:0:0:0:
80,96,8987,1,10,0:0:0:0:
272,96,9170,1,2,0:0:0:0:
168,240,9353,1,10,0:0:0:0:
344,160,9536,5,2,0:0:0:0:
368,96,9718,2,0,P|416:176|384:216,1,140,2|8,0:0|0:0,0:0:0:0:
384,231,10267,2,0,B|320:192|272:265|216:192|160:232,1,210,2|8,0:0|0:0,0:0:0:0:
136,288,10999,5,0,0:0:0:0:
178,348,11182,2,0,P|202:268|162:212,1,140,2|8,0:0|0:0,0:0:0:0:
272,240,11731,1,2,0:0:0:0:
376,200,11914,6,2,B|400:232|400:232|400:112,1,140,0|8,0:0|0:0,0:0:0:0:
472,144,12462,1,0,0:0:0:0:
328,136,12645,2,0,P|256:136|208:184,1,140,2|8,0:0|0:0,0:0:0:0:
304,224,13194,1,0,0:0:0:0:
288,200,13377,2,2,L|208:64,1,140,2|10,0:0|0:0,0:0:0:0:
136,192,14109,5,8,0:0:0:0:
376,192,14475,1,8,0:0:0:0:
168,248,15023,5,8,0:0:0:0:
256,112,15206,1,8,0:0:0:0:
336,248,15389,1,8,0:0:0:0:
376,192,15572,6,0,P|376:136|344:80,1,116.666666666667,8|0,0:0|0:0,0:0:0:0:
347,83,15938,2,2,P|328:104|288:112,1,70,0|0,0:0|0:0,0:0:0:0:
440,88,16304,1,0,0:0:0:0:
280,176,16487,1,0,0:0:0:0:
376,192,16670,6,0,P|360:240|296:256,1,116.666666666667
300,257,17036,2,2,B|312:294|312:294|298:281|280:280,1,70
168,112,17401,5,2,0:0:0:0:
176,248,17584,1,2,0:0:0:0:
288,176,17767,1,2,0:0:0:0:
296,40,17950,1,2,0:0:0:0:
400,80,18133,6,0,B|424:80|448:64|448:64|440:104,1,70
400,176,18499,1,2,0:0:0:0:
368,304,18682,1,2,0:0:0:0:
480,256,18865,1,2,0:0:0:0:
296,216,19048,1,2,0:0:0:0:
192,272,19231,6,0,B|168:272|144:256|144:256|152:288|136:304,1,93.3333333333333
224,336,19596,2,0,P|256:312|264:272,1,70
296,72,19962,5,2,0:0:0:0:
224,184,20145,1,2,0:0:0:0:
352,136,20328,1,2,0:0:0:0:
224,104,20511,1,2,0:0:0:0:
312,208,20694,2,0,P|336:240|408:224,1,116.666666666667,2|0,0:0|0:0,0:0:0:0:
416,200,21060,6,0,L|400:288,1,70
256,320,21609,5,0,0:0:0:0:
200,184,21792,1,0,0:0:0:0:
144,280,21975,1,0,0:0:0:0:
312,208,22157,2,0,P|344:168|320:104,1,116.666666666667
326,109,22523,2,0,P|296:120|256:104,1,70
80,168,22889,6,2,L|120:280,1,105.000004005432
264,264,23255,6,2,L|304:152,1,105.000004005432
208,176,23621,2,2,P|168:192|208:171,1,140
299,165,23987,6,0,P|329:136|345:100,1,70
216,63,24353,5,2,0:0:0:0:
131,165,24536,1,2,0:0:0:0:
62,51,24718,5,2,0:0:0:0:
42,182,24901,1,2,0:0:0:0:
108,257,25084,6,0,B|169:278|169:278|224:244,1,116.666666666667
213,250,25450,2,0,P|253:233|283:255,1,70
186,344,25816,1,2,0:0:0:0:
312,328,25999,1,2,0:0:0:0:
186,202,26182,1,2,0:0:0:0:
368,112,26365,1,2,0:0:0:0:
376,207,26548,6,0,P|312:175|259:164,1,116.666666666667
268,165,26914,2,2,B|239:206|239:206|202:189|165:211,1,105.000004005432,2|0,1:0|1:0,1:0:0:0:
376,296,27462,5,0,0:0:0:0:
488,232,27645,1,0,0:0:0:0:
376,168,27828,1,0,0:0:0:0:
256,224,28011,2,0,P|200:240|144:216,1,116.666666666667
147,219,28377,2,0,P|160:184|144:144,1,70
88,184,28926,5,0,0:0:0:0:
232,160,29109,1,0,0:0:0:0:
184,280,29292,1,0,0:0:0:0:
144,112,29475,1,0,0:0:0:0:
312,112,29840,6,0,L|392:112,1,70
400,240,30389,5,2,1:1:0:0:
232,296,30572,1,2,1:1:0:0:
408,264,30755,1,2,1:1:0:0:
232,272,30938,1,2,1:1:0:0:
408,296,31121,1,2,1:1:0:0:
240,248,31304,1,2,1:1:0:0:
400,328,31487,1,2,1:1:0:0:
472,336,31670,6,0,P|480:296|472:248,1,70,2|0,0:0|0:0,0:0:0:0:
360,176,32036,1,0,0:0:0:0:
232,232,32218,1,0,0:0:0:0:
248,304,32401,2,0,P|176:280|160:224,1,140
344,104,33316,6,0,B|357:100|357:100|296:96,1,70
192,104,33682,1,0,0:0:0:0:
104,160,33865,2,0,P|80:216|112:264,1,116.666666666667
106,260,34231,2,2,P|144:248|176:248,1,70
304,312,34779,6,0,B|336:296|336:296|360:264,2,70
400,328,35328,2,0,P|432:280|408:216,1,116.666666666667
417,226,35694,2,0,P|384:200|344:200,1,70
237,289,36060,6,0,L|309:313,1,70
358,197,36426,2,0,L|278:213,1,70
192,216,36792,1,0,0:0:0:0:
358,197,36975,1,0,0:0:0:0:
432,104,37157,6,0,L|352:120,1,70
224,136,37523,1,2,0:0:0:0:
168,264,37706,1,2,0:0:0:0:
304,256,37889,1,2,0:0:0:0:
192,200,38072,1,2,0:0:0:0:
304,104,38255,6,0,P|344:96|424:128,1,116.666666666667
414,119,38621,2,2,L|416:200,1,70
392,320,38987,6,0,P|368:336|328:336,1,62.9999980773926,8|0,0:0|0:0,0:0:0:0:
312,248,39353,2,0,P|264:248|248:256,1,62.9999980773926,2|0,0:0|0:0,0:0:0:0:
160,312,39718,1,0,0:0:0:0:
152,224,39901,2,0,P|128:192|128:152,1,62.9999980773926,0|8,0:0|0:0,0:0:0:0:
112,104,40267,2,0,B|144:80|152:48|152:48|160:104|200:136|200:136,1,167.999994873047
196,133,40816,2,0,P|232:144|264:136,1,62.9999980773926,0|2,0:0|0:0,0:0:0:0:
410,165,41365,5,0,0:0:0:0:
392,240,41548,1,8,0:0:0:0:
463,224,41731,2,8,P|430:304|385:312,1,125.999996154785,0|0,0:0|0:0,0:0:0:0:
393,313,42279,2,0,B|339:349|339:349,2,62.9999980773926,2|8|0,0:0|0:0|0:0,0:0:0:0:
120,144,43011,21,8,0:0:0:0:
48,160,43194,2,0,P|86:80|126:72,1,125.999996154785,8|0,0:0|0:0,0:0:0:0:
119,71,43743,2,0,B|173:35|173:35,2,62.9999980773926,8|2|0,0:0|0:0|0:0,0:0:0:0:
256,192,44475,5,2,0:0:0:0:
328,224,44840,2,0,P|312:248|280:264,1,62.9999980773926,2|0,0:0|0:0,0:0:0:0:
208,280,45206,2,0,P|176:296|152:328,1,62.9999980773926,8|2,0:0|0:0,0:0:0:0:
88,232,45572,6,0,P|112:200|144:192,1,62.9999980773926
208,176,45938,2,0,P|249:169|273:145,1,62.9999980773926,2|0,0:0|0:0,0:0:0:0:
312,40,46304,6,0,P|352:32|384:48,1,62.9999980773926,0|8,0:0|0:0,0:0:0:0:
424,88,46670,2,0,L|408:160,1,62.9999980773926
312,320,47036,6,0,P|352:328|384:312,1,62.9999980773926,2|0,0:0|0:0,0:0:0:0:
368,216,47401,1,2,0:0:0:0:
256,216,47584,6,2,P|216:240|200:296,1,105.000004005432,8|0,0:0|0:0,0:0:0:0:
202,295,48133,2,2,B|215:319|215:319|199:343,2,52.5000020027161,8|2|2,0:0|0:0|0:0,0:0:0:0:
136,216,48682,2,0,P|152:192|176:168,1,52.5000020027161,0|8,0:0|0:0,0:0:0:0:
287,113,49048,2,2,P|231:121|199:73,1,105.000004005432,10|2,0:0|0:0,0:0:0:0:
202,89,49597,2,0,B|215:64|215:64|199:40,2,52.5000020027161,8|2|0,0:0|0:0|0:0,0:0:0:0:
48,136,50145,5,8,0:0:0:0:
112,248,50328,6,0,P|80:248|48:232,1,62.9999980773926,0|8,0:0|0:0,0:0:0:0:
160,192,50694,2,0,P|160:168|192:136,1,62.9999980773926,2|0,0:0|0:0,0:0:0:0:
208,248,51060,2,0,P|231:246|265:277,1,62.9999980773926,10|0,0:0|0:0,0:0:0:0:
160,296,51426,2,0,P|164:319|139:357,1,62.9999980773926,2|0,0:0|0:0,0:0:0:0:
288,296,51792,1,8,0:0:0:0:
376,248,51975,5,0,0:0:0:0:
408,128,52157,2,2,B|440:152|440:152|432:128|440:112,1,62.9999980773926
320,112,52523,2,2,B|281:124|281:124|306:131|314:147,1,62.9999980773926,2|10,0:0|0:0,0:0:0:0:
376,64,52889,2,0,B|397:30|397:30|374:40|357:33,1,62.9999980773926,0|8,0:0|0:0,0:0:0:0:
352,184,53255,6,0,L|336:264,1,62.9999980773926,2|0,0:0|0:0,0:0:0:0:
416,280,53621,6,2,P|384:320|320:328,1,104.999996795654
333,330,53987,2,2,B|288:296|288:296|232:320,1,104.999996795654
244,314,54353,2,2,P|176:312|141:271,1,125.999996154785
216,240,54901,2,2,B|200:208|211:120|211:120|160:193|103:209,1,251.999992309571,2|10,0:0|0:0,0:0:0:0:
88,136,55999,6,0,P|120:120|136:96,1,62.9999980773926,0|8,0:0|0:0,0:0:0:0:
282,202,56365,2,0,P|279:169|280:134,1,62.9999980773926,0|8,0:0|0:0,0:0:0:0:
360,80,56914,2,0,P|392:80|414:106,1,62.9999980773926,0|8,0:0|0:0,0:0:0:0:
411,102,57279,2,0,B|382:149|396:186|396:186|360:162,1,125.999996154785,0|8,0:0|0:0,0:0:0:0:
296,296,57828,6,0,P|264:288|234:262,1,62.9999980773926,0|8,0:0|0:0,0:0:0:0:
237,266,58194,2,0,B|265:218|251:181|251:181|287:205,1,125.999996154785,0|8,0:0|0:0,0:0:0:0:
400,240,58743,1,2,0:0:0:0:
368,112,58926,1,2,0:0:0:0:
256,184,59109,1,2,0:0:0:0:
208,72,59292,1,2,0:0:0:0:
120,160,59475,6,0,P|104:200|112:224,1,62.9999980773926,8|0,0:0|0:0,0:0:0:0:
184,240,59840,2,0,P|192:280|172:310,1,62.9999980773926,8|0,0:0|0:0,0:0:0:0:
96,328,60206,2,0,L|208:328,1,104.999996795654
288,296,60572,6,10,B|320:304|320:304|352:296,1,62.9999980773926
193,228,60938,1,2,0:0:0:0:
256,119,61121,1,2,0:0:0:0:
319,228,61304,1,2,0:0:0:0:
256,192,61487,1,2,0:0:0:0:
152,128,61670,6,0,P|120:112|80:144,1,87.5000033378602
81,139,62036,2,4,B|112:184|120:232|120:232|72:208|72:208,1,140,4|4,3:0|3:0,3:0:0:0:
40,280,62401,6,0,P|72:288|112:320,1,83.9999974365235
223,308,62767,1,2,0:0:0:0:
333,230,62950,1,2,0:0:0:0:
379,308,63133,1,2,0:0:0:0:
230,224,63316,1,2,0:0:0:0:
327,133,63499,1,0,0:0:0:0:
200,112,63682,6,2,P|152:136|136:176,2,83.9999974365235
119,308,64231,5,2,0:0:0:0:
256,308,64414,1,2,0:0:0:0:
353,211,64596,5,2,0:0:0:0:
243,133,64779,1,2,0:0:0:0:
145,230,64962,5,2,0:0:0:0:
281,237,65145,1,2,0:0:0:0:
456,120,65328,6,0,P|432:72|376:72,1,105.000004005432
198,140,65694,1,2,0:0:0:0:
358,192,65877,1,2,0:0:0:0:
211,108,66060,1,2,0:0:0:0:
339,217,66243,1,2,0:0:0:0:
176,328,66426,6,0,B|128:304|128:304|104:256,1,105.000004005432
289,178,66792,1,2,0:0:0:0:
115,151,66975,1,2,0:0:0:0:
256,252,67157,1,2,0:0:0:0:
222,78,67340,1,2,0:0:0:0:
344,112,67523,6,0,P|376:80|392:16,1,105.000004005432,8|0,0:0|0:0,0:0:0:0:
384,232,67889,2,0,P|432:224|488:248,1,105.000004005432,8|0,0:0|0:0,0:0:0:0:
288,320,68255,6,0,P|352:304|400:320,1,105.000004005432
231,185,68621,1,2,0:0:0:0:
114,296,68804,1,2,0:0:0:0:
262,229,68987,1,2,0:0:0:0:
101,192,69170,1,2,0:0:0:0:
256,120,69353,5,8,0:0:0:0:
352,80,69536,2,2,P|384:112|408:192,2,105.000004005432
230,296,70084,5,2,0:0:0:0:
326,200,70267,1,2,0:0:0:0:
278,322,70450,1,2,0:0:0:0:
278,160,70633,1,2,0:0:0:0:
326,288,70816,1,2,0:0:0:0:
230,200,70999,1,2,0:0:0:0:
136,296,71182,6,0,P|112:248|136:192,1,105.000004005432
392,144,71548,2,2,P|408:192|400:264,1,105.000004005432
326,288,71914,2,2,P|310:240|318:168,1,105.000004005432
326,288,72462,5,2,0:0:0:0:
186,288,72645,1,2,0:0:0:0:
142,155,72828,1,2,0:0:0:0:
256,72,73011,1,2,0:0:0:0:
369,155,73194,1,2,0:0:0:0:
256,241,73377,5,8,0:0:0:0:
206,192,73560,1,8,0:0:0:0:
256,142,73743,1,8,0:0:0:0:
305,192,73926,1,8,0:0:0:0:
256,200,74109,5,4,0:0:0:0:
256,192,74475,12,0,77036,0:0:0:0:
