osu file format v14

[General]
AudioFilename: audio.mp3
AudioLeadIn: 0
PreviewTime: 47630
Countdown: 0
SampleSet: Soft
StackLeniency: 0.9
Mode: 0
LetterboxInBreaks: 0
WidescreenStoryboard: 0

[Editor]
Bookmarks: 33230,125390,130550,133070,140750
DistanceSpacing: 1.3
BeatDivisor: 4
GridSize: 4
TimelineZoom: 1

[Metadata]
Title:Red Flavor
TitleUnicode:빨간 맛
Artist:Red Velvet
ArtistUnicode:레드벨벳
Creator:Lilyanna
Version:Fruity
Source:
Tags:the red summer mini album sm entertainment s.m.entertainment genie music 아이린 irene 슬기 seulgi 웬디 wendy 조이 joy 예리 yeri 배주현 강슬기 손승완 박수영 김예림 kpop k-pop
BeatmapID:1352653
BeatmapSetID:637617

[Difficulty]
HPDrainRate:7
CircleSize:4.2
OverallDifficulty:7
ApproachRate:9
SliderMultiplier:2.5
SliderTickRate:1

[Events]
//Background and Video events
0,0,"redflavor.jpg",0,0
//Break Periods
2,117910,124790
2,133390,139550
2,179350,183110
//Storyboard Layer 0 (Background)
//Storyboard Layer 1 (Fail)
//Storyboard Layer 2 (Pass)
//Storyboard Layer 3 (Foreground)
//Storyboard Sound Samples

[TimingPoints]
590,480,4,2,1,45,1,0
590,-133.333333333333,4,2,1,45,0,0
17870,-100,4,2,1,45,0,0
32630,-142.857142857143,4,2,1,45,0,0
44750,-100,4,2,1,45,0,0
48590,-83.3333333333333,4,2,1,60,0,1
49070,-100,4,2,1,60,0,1
52430,-83.3333333333333,4,2,1,60,0,1
52910,-100,4,2,1,60,0,1
56270,-83.3333333333333,4,2,1,60,0,1
56510,-100,4,2,1,60,0,1
63950,-100,4,2,1,45,0,0
86270,-142.857142857143,4,2,1,45,0,0
100430,-100,4,2,1,45,0,0
101390,-100,4,2,1,45,0,0
102350,-83.3333333333333,4,2,1,60,0,1
102830,-100,4,2,1,60,0,1
106190,-83.3333333333333,4,2,1,60,0,1
106670,-100,4,2,1,60,0,1
110030,-83.3333333333333,4,2,1,60,0,1
110270,-100,4,2,1,60,0,1
117710,-142.857142857143,4,2,1,60,0,0
126350,-100,4,2,1,60,0,0
133190,-100,4,2,1,5,0,0
140750,-142.857142857143,4,2,1,5,0,0
163790,-83.3333333333333,4,2,1,60,0,1
164270,-100,4,2,1,60,0,1
167630,-83.3333333333333,4,2,1,60,0,1
168110,-100,4,2,1,60,0,1
171470,-83.3333333333333,4,2,1,60,0,1
171710,-100,4,2,1,60,0,1
179150,-142.857142857143,4,2,1,60,0,0
185870,-142.857142857143,4,2,1,5,0,0

[Colours]
Combo1 : 236,0,0
Combo2 : 91,193,57
Combo3 : 146,36,255
Combo4 : 254,56,71
Combo5 : 255,200,34
Combo6 : 0,58,117
Combo7 : 255,106,34

[HitObjects]
381,66,590,6,0,P|400:118|376:207,1,140.625005364418,0|0,3:0|0:0,0:0:0:0:
303,171,1070,2,0,P|326:125|250:119,1,140.625005364418,0|0,3:0|0:0,0:0:0:0:
184,64,1550,1,0,0:0:0:0:
103,37,1670,1,0,0:0:0:0:
114,120,1790,1,0,0:0:0:0:
114,120,2030,2,0,P|119:178|109:222,1,93.7500035762788,0|0,3:0|0:0,0:0:0:0:
171,273,2390,1,0,0:0:0:0:
171,273,2510,6,0,B|190:277|221:262|221:262|266:289|323:284|329:257|312:233|283:253,1,187.500007152558,4|0,1:0|0:0,0:0:0:0:
289,249,3710,2,0,P|289:218|294:196,1,46.8750017881394
306,119,3950,2,0,P|327:161|399:181,1,93.7500035762788,0|0,0:0|3:0,0:0:0:0:
433,130,4310,1,0,0:0:0:0:
433,130,4430,6,0,B|458:172|445:213|445:213|485:254|459:296|425:291|446:249,1,187.500007152558,0|0,3:0|0:0,0:0:0:0:
440,262,5630,2,0,P|409:262|387:267,1,46.8750017881394
316,300,5870,2,0,P|265:308|215:300,1,93.7500035762788
129,149,6350,6,0,B|121:132|144:120|168:137|157:182|86:201|153:268,1,140.625005364418,4|0,1:0|0:0,0:0:0:0:
210,199,6830,2,0,P|221:147|208:98,1,93.7500035762788
285,261,7310,2,0,P|266:310|271:361,1,93.7500035762788
347,321,7670,1,0,0:0:0:0:
347,321,7790,2,0,B|399:305|397:329|465:322,1,93.7500035762788,0|0,0:0|3:0,0:0:0:0:
468,157,8270,6,0,P|480:206|475:251,1,93.7500035762788,0|0,3:0|0:0,0:0:0:0:
331,138,8750,2,0,P|388:170|397:252,1,140.625005364418
319,223,9230,1,0,0:0:0:0:
319,223,9350,1,0,0:0:0:0:
253,169,9470,1,0,0:0:0:0:
253,169,9710,2,0,B|196:163|196:163|145:175,1,93.7500035762788
78,192,10070,1,0,0:0:0:0:
78,192,10190,6,0,B|69:226|94:255|94:255|66:288|80:322|103:311|106:284,1,140.625005364418,4|8,1:0|0:0,0:0:0:0:
100,300,11390,2,0,P|126:296|155:302,1,46.8750017881394
215,347,11630,2,0,P|228:297|203:235,1,93.7500035762788
196,175,11990,1,0,0:0:0:0:
196,175,12110,54,0,B|257:149|286:204|306:202|314:187|317:163|282:179,1,140.625005364418,4|8,1:0|0:0,0:0:0:0:
290,175,13310,2,0,P|286:135|292:98,1,46.8750017881394
342,65,13550,2,0,P|292:45|241:57,1,93.7500035762788
227,233,14030,6,0,B|272:270|325:253|325:253|364:279,1,140.625005364418,4|0,1:0|0:0,0:0:0:0:
367,188,14510,2,0,B|410:217|410:217|399:161|410:118,1,140.625005364418
333,86,14990,2,0,P|315:21|359:49,1,140.625005364418,0|0,3:0|0:0,0:0:0:0:
256,136,15470,2,0,P|222:88|219:43,1,93.7500035762788
207,223,15950,6,0,P|241:271|244:316,1,93.7500035762788
120,189,16430,1,0,0:0:0:0:
99,146,16550,1,0,0:0:0:0:
101,98,16670,1,0,0:0:0:0:
132,62,16790,1,0,0:0:0:0:
176,48,16910,1,0,0:0:0:0:
220,62,17030,1,0,0:0:0:0:
250,96,17150,1,0,0:0:0:0:
245,141,17270,1,0,0:0:0:0:
248,187,17390,5,0,0:0:0:0:
289,164,17510,1,0,0:0:0:0:
333,183,17630,1,0,0:0:0:0:
355,225,17750,1,0,0:0:0:0:
359,306,17870,54,0,B|342:316|331:337|348:351|368:342|420:288|463:359,1,125
453,251,18230,2,0,P|444:183|456:124,1,125
481,51,18590,1,0,0:0:0:0:
397,52,18710,2,0,B|334:37|334:69|265:49,1,125
192,60,19070,1,0,0:0:0:0:
192,60,19190,1,0,0:0:0:0:
192,60,19310,2,0,P|201:131|181:198,1,125
122,230,19670,1,0,0:0:0:0:
122,230,19790,6,0,P|193:221|260:241,1,125
314,275,20150,1,0,0:0:0:0:
314,275,20270,1,0,0:0:0:0:
394,134,20510,1,0,0:0:0:0:
234,105,20750,2,0,L|304:94,2,62.5
184,45,21110,1,0,0:0:0:0:
184,45,21230,2,0,B|139:43|139:43|99:59|99:59|39:60,1,125
27,133,21590,1,0,0:0:0:0:
27,133,21710,6,0,B|57:120|61:155|17:188|16:227|43:256,1,125
25,317,22070,1,0,0:0:0:0:
25,317,22190,2,0,B|70:319|70:319|110:303|110:303|170:302,1,125
203,244,22550,2,0,B|248:246|248:246|288:230|288:230|348:229,1,125
317,148,22910,1,0,0:0:0:0:
317,148,23030,2,0,B|272:146|272:146|232:162|232:162|172:163,1,125
170,77,23390,1,0,0:0:0:0:
170,77,23510,1,0,0:0:0:0:
170,77,23630,6,0,B|215:79|215:79|255:63|255:63|315:62,1,125
376,54,23990,1,0,0:0:0:0:
376,54,24110,1,0,0:0:0:0:
434,211,24350,1,0,0:0:0:0:
303,308,24590,2,0,L|324:373,2,62.5
245,249,24950,1,0,0:0:0:0:
245,249,25070,2,0,P|162:257|114:209,1,125
198,180,25430,1,0,0:0:0:0:
198,180,25550,54,0,B|169:184|162:145|214:133|209:96|169:46,1,125
253,25,25910,1,0,0:0:0:0:
253,25,26030,2,0,P|276:84|264:157,1,125
317,210,26390,1,0,0:0:0:0:
317,210,26510,2,0,P|376:187|449:199,1,125
442,274,26870,2,0,P|383:297|310:285,1,125
244,264,27230,1,0,0:0:0:0:
244,264,27350,1,0,0:0:0:0:
244,264,27470,6,0,P|232:192|264:124,1,125
292,75,27830,1,0,0:0:0:0:
292,75,27950,1,0,0:0:0:0:
130,56,28190,1,0,0:0:0:0:
130,56,28310,1,0,0:0:0:0:
130,56,28430,2,0,P|142:128|110:196,1,125
68,234,28790,1,0,0:0:0:0:
133,281,28910,2,0,P|113:302|65:318,2,62.5
200,230,29270,1,0,0:0:0:0:
200,230,29390,6,0,P|267:244|331:222,1,125
371,164,29750,1,0,0:0:0:0:
371,164,29870,2,0,P|357:231|379:295,1,125
454,283,30230,2,0,P|468:216|446:152,1,125
408,94,30590,1,0,0:0:0:0:
408,94,30710,2,0,P|351:107|277:86,1,125
219,46,31070,1,0,0:0:0:0:
219,46,31190,1,0,0:0:0:0:
219,46,31310,6,0,P|210:120|251:162,1,125
313,211,31670,1,0,0:0:0:0:
313,211,31790,1,0,0:0:0:0:
313,211,32030,6,0,B|290:255|350:323|350:323|401:247|370:205,1,250
382,130,32630,6,0,B|366:131|342:144|342:144|318:132|299:134,1,87.499997329712
246,111,32990,1,0,0:0:0:0:
114,130,33230,6,0,P|60:133|-10:194,1,131.249995994568
210,182,33950,1,0,0:0:0:0:
68,102,34190,2,0,P|36:124|1:256,1,174.999994659424
210,182,34910,1,0,0:0:0:0:
310,112,35150,38,0,P|331:86|323:117,1,87.499997329712
437,146,35630,2,0,P|415:120|423:151,1,87.499997329712
435,37,36110,2,0,P|488:61|513:162,1,131.249995994568
496,203,36590,2,0,P|492:251|501:296,1,87.499997329712
385,299,37070,6,0,B|404:291|419:308|409:333|365:335|340:264|285:308,1,131.249995994568
255,125,37790,1,0,0:0:0:0:
189,218,38030,2,0,P|180:277|184:331,2,87.499997329712
255,125,38750,1,0,0:0:0:0:
171,47,38990,54,0,P|109:46|65:51,1,87.499997329712
20,143,39470,2,0,P|82:144|126:139,1,87.499997329712
221,131,39950,2,0,B|237:153|225:206|225:206|232:197|232:197|208:260|226:290,1,174.999994659424
317,343,40670,1,0,0:0:0:0:
397,262,40910,2,0,P|405:204|384:113,1,131.249995994568
317,343,41630,1,0,0:0:0:0:
410,220,41870,2,0,P|402:162|336:62,1,174.999994659424
229,39,42590,1,0,0:0:0:0:
148,119,42830,6,0,P|98:125|61:116,1,87.499997329712
13,88,43190,1,0,0:0:0:0:
13,88,43310,2,0,P|19:138|10:175,1,87.499997329712
100,244,43790,2,0,P|167:235|241:246,2,131.249995994568
242,112,44750,6,0,P|257:164|246:234,1,125
323,206,45110,1,0,0:0:0:0:
323,206,45230,2,0,P|285:244|219:270,1,125
76,345,45710,2,0,P|61:293|72:223,1,125
0,251,46070,1,0,0:0:0:0:
0,251,46190,2,0,P|37:212|103:186,1,125
194,52,46670,6,0,P|209:104|198:174,1,125
283,311,47150,1,0,0:0:0:0:
328,243,47270,1,0,0:0:0:0:
281,177,47390,1,0,0:0:0:0:
204,206,47510,1,0,0:0:0:0:
204,287,47630,1,0,0:0:0:0:
143,341,47750,2,0,L|105:342,1,31.25
131,321,47870,2,0,L|93:322,1,31.25
24,227,48110,2,0,P|35:166|26:87,1,125
35,20,48470,1,0,0:0:0:0:
155,61,48590,38,0,B|133:44|147:23|175:20|201:56|226:97|281:52,1,149.999995422363
345,11,48950,1,0,0:0:0:0:
345,11,49070,1,0,0:0:0:0:
460,113,49310,2,0,P|448:179|459:240,1,125
458,323,49670,1,0,0:0:0:0:
458,323,49790,2,0,L|391:338,1,62.5
346,272,50030,2,0,L|279:257,1,62.5
208,230,50270,1,0,0:0:0:0:
208,230,50390,1,0,0:0:0:0:
208,230,50510,6,0,P|222:155|205:89,1,125
177,35,50870,1,0,0:0:0:0:
177,35,50990,1,0,0:0:0:0:
134,191,51230,2,0,P|120:266|137:332,1,125
203,345,51590,1,0,0:0:0:0:
203,345,51710,2,0,L|274:335,1,62.5
306,266,51950,2,0,L|377:276,1,62.5
447,289,52190,1,0,0:0:0:0:
418,94,52430,6,0,P|373:91|424:116,1,149.999995422363
432,291,52910,1,0,0:0:0:0:
419,130,53150,1,0,0:0:0:0:
512,243,53390,1,0,0:0:0:0:
342,284,53630,1,0,0:0:0:0:
342,284,53750,1,0,0:0:0:0:
342,284,53870,2,0,P|297:287|344:261,1,125
372,88,54350,6,0,P|302:67|344:126,1,187.5
341,126,54830,2,0,B|249:97|249:156|144:128,1,187.5
82,98,55310,1,0,0:0:0:0:
66,259,55550,1,0,0:0:0:0:
66,259,55670,1,0,0:0:0:0:
66,259,55790,6,0,P|74:306|66:340,2,62.5
36,157,56150,1,0,0:0:0:0:
138,208,56270,38,0,P|185:216|227:202,1,74.9999977111817
269,153,56510,2,0,P|257:178|248:218,1,62.5
321,173,56750,2,0,P|298:188|270:218,1,62.5
355,218,56990,2,0,P|327:220|288:232,1,62.5
364,270,57230,2,0,P|339:258|299:249,1,62.5
234,288,57470,1,0,0:0:0:0:
234,288,57710,2,0,P|237:321|232:359,2,62.5
191,218,58070,1,0,0:0:0:0:
191,218,58190,6,0,B|126:241|111:203|62:219,1,125
17,153,58550,1,0,0:0:0:0:
92,123,58670,2,0,P|117:135|157:144,1,62.5
112,71,58910,2,0,P|127:93|157:121,1,62.5
157,37,59150,2,0,P|159:64|171:103,1,62.5
209,28,59390,2,0,P|197:53|188:93,1,62.5
226,158,59630,2,0,B|291:181|306:143|355:159,1,125
348,157,60110,6,0,P|341:227|368:283,1,125
311,121,60590,2,0,P|337:186|387:222,1,125
253,116,61070,2,0,P|307:160|368:169,1,125
267,36,61550,2,0,P|227:38|201:51,2,62.5
164,163,62030,6,0,P|93:170|37:143,1,125
200,200,62510,2,0,P|134:173|98:123,1,125
205,258,62990,2,0,P|160:203|151:142,1,125
165,71,63350,1,0,0:0:0:0:
165,71,63470,2,0,P|206:91|221:115,2,62.5
205,258,63950,5,0,0:0:0:0:
338,165,64190,2,0,L|348:236,1,62.5
438,189,64430,2,0,L|429:127,1,62.5
323,165,64670,2,0,L|333:236,1,62.5
452,183,64910,2,0,L|443:121,1,62.5
307,164,65150,2,0,L|317:235,1,62.5
215,97,65510,2,0,L|225:168,2,62.5
154,43,65870,37,0,0:0:0:0:
154,205,66110,2,0,L|162:266,1,62.5
26,309,66350,2,0,L|17:247,1,62.5
138,204,66590,2,0,L|146:265,1,62.5
40,303,66830,2,0,L|28:168,1,125
64,57,67190,1,0,0:0:0:0:
126,162,67310,2,0,L|137:286,1,125
289,345,67790,37,0,0:0:0:0:
406,232,68030,2,0,P|381:241|395:219,1,62.5
426,140,68270,2,0,P|451:131|437:153,1,62.5
341,155,68510,2,0,P|316:145|340:137,1,62.5
411,249,68750,2,0,P|386:258|400:236,1,62.5
444,127,68990,2,0,P|469:118|455:140,1,62.5
290,64,69350,2,0,P|261:83|240:126,2,62.5
376,51,69710,37,0,0:0:0:0:
392,236,69950,2,0,P|386:260|408:249,1,62.5
333,134,70190,2,0,P|312:149|337:154,1,62.5
440,153,70430,2,0,P|445:128|423:139,1,62.5
374,243,70670,2,0,P|368:267|388:236,1,125
232,228,71150,2,0,L|323:232,2,62.5
172,172,71510,1,0,0:0:0:0:
172,172,71630,22,0,P|188:246|167:309,1,125
94,297,71990,1,0,0:0:0:0:
94,297,72110,2,0,P|78:223|99:160,1,125
19,111,72470,2,0,P|93:90|152:106,1,125
197,42,72830,1,0,0:0:0:0:
197,42,72950,2,0,P|224:113|213:174,1,125
179,231,73310,1,0,0:0:0:0:
179,231,73430,1,0,0:0:0:0:
179,231,73550,6,0,P|175:292|200:349,1,125
266,299,73910,1,0,0:0:0:0:
266,299,74030,2,0,P|327:295|384:320,1,125
456,87,74630,2,0,P|448:121|448:160,1,62.5
374,184,74870,1,0,0:0:0:0:
374,184,74990,2,0,P|293:164|239:174,1,125
173,189,75350,1,0,0:0:0:0:
173,189,75470,6,0,B|163:170|146:168|137:182|141:208|179:231|172:273|150:299,1,125
105,329,75830,1,0,0:0:0:0:
105,329,75950,2,0,P|165:316|245:334,1,125
267,255,76310,2,0,P|327:268|407:250,1,125
396,176,76670,1,0,0:0:0:0:
396,176,76790,2,0,P|336:163|256:181,1,125
207,220,77150,1,0,0:0:0:0:
207,220,77270,1,0,0:0:0:0:
207,220,77390,6,0,P|194:160|212:79,1,125
255,35,77750,1,0,0:0:0:0:
255,35,77870,1,0,0:0:0:0:
117,121,78110,2,0,B|86:224|168:254|136:284|105:284|89:254|110:224,1,187.5
23,223,78590,1,0,0:0:0:0:
23,223,78710,1,0,0:0:0:0:
23,223,78830,2,0,P|30:298|70:338,1,125
142,343,79190,1,0,0:0:0:0:
142,343,79310,22,0,B|128:329|137:311|160:310|177:332|196:363|231:349|259:337,1,125
221,264,79670,2,0,P|252:225|205:240,1,125
136,190,80030,1,0,0:0:0:0:
136,190,80150,2,0,P|200:141|264:142,1,125
230,56,80510,1,0,0:0:0:0:
230,56,80630,2,0,P|304:86|335:142,1,125
399,82,80990,1,0,0:0:0:0:
399,82,81110,1,0,0:0:0:0:
399,82,81230,6,0,P|402:162|364:214,1,125
309,238,81590,1,0,0:0:0:0:
309,238,81710,2,0,P|306:158|344:106,1,125
209,333,82310,2,0,P|177:329|137:335,2,62.5
174,255,82670,2,0,P|141:258|104:273,2,62.5
223,190,83030,1,0,0:0:0:0:
223,190,83150,6,0,B|202:126|230:126|221:44,1,125
284,13,83510,1,0,0:0:0:0:
284,13,83630,2,0,P|350:24|414:13,1,125
467,69,83990,1,0,0:0:0:0:
467,69,84110,2,0,P|456:135|467:199,1,125
334,289,84590,2,0,P|299:288|258:293,2,62.5
385,225,84950,1,0,0:0:0:0:
348,152,85070,6,0,P|284:148|216:152,1,125
144,176,85430,1,0,0:0:0:0:
144,176,85550,1,0,0:0:0:0:
144,176,85790,2,0,P|156:239|136:172,1,250
109,82,86390,54,0,B|130:87|148:102|148:102|172:95|198:99,1,87.499997329712
246,88,86750,1,0,0:0:0:0:
353,51,86990,6,0,P|345:113|366:185,1,131.249995994568
403,219,87470,2,0,L|291:242,1,87.499997329712
221,173,87950,2,0,P|229:235|208:307,1,131.249995994568
171,341,88430,2,0,L|283:364,1,87.499997329712
362,314,88910,6,0,P|373:254|373:222,1,87.499997329712
295,144,89390,2,0,P|284:204|284:236,1,87.499997329712
202,311,89870,2,0,P|134:304|72:322,1,131.249995994568
18,333,90350,2,0,L|31:230,1,87.499997329712
49,133,90830,6,0,B|30:125|15:142|25:167|69:169|94:98|149:142,1,131.249995994568
181,110,91310,2,0,P|164:169|178:222,1,87.499997329712
263,133,91790,2,0,P|248:192|303:142,1,174.999994659424
333,42,92510,1,0,0:0:0:0:
388,141,92750,6,0,P|389:184|374:225,1,87.499997329712
241,195,93230,2,0,P|265:231|301:255,1,87.499997329712
409,139,93710,2,0,P|410:182|395:223,1,87.499997329712
219,209,94190,2,0,P|243:245|279:269,1,87.499997329712
175,316,94670,6,0,B|113:329|113:299|22:318,1,131.249995994568
31,258,95150,2,0,B|15:202|79:141|62:107|23:107|0:148|37:153,2,174.999994659424
106,343,96350,1,0,0:0:0:0:
179,255,96590,22,0,P|248:250|269:252,1,87.499997329712
302,143,97070,2,0,P|233:148|212:146,1,87.499997329712
184,267,97550,2,0,P|253:262|274:264,1,87.499997329712
305,129,98030,2,0,P|236:134|215:132,1,87.499997329712
256,192,98510,12,0,100430,0:0:0:0:
301,165,100670,5,0,0:0:0:0:
301,165,100910,1,0,0:0:0:0:
237,114,101030,1,0,0:0:0:0:
169,159,101150,1,0,0:0:0:0:
187,238,101270,1,0,0:0:0:0:
268,243,101390,5,0,0:0:0:0:
369,210,101510,2,0,L|407:211,1,31.25
381,190,101630,2,0,L|419:191,1,31.25
488,95,101870,2,0,P|492:157|481:218,1,125
447,292,102230,1,0,0:0:0:0:
336,342,102350,38,0,B|358:325|344:304|316:301|290:337|265:378|210:333,1,149.999995422363
161,272,102710,1,0,0:0:0:0:
161,272,102830,1,0,0:0:0:0:
59,133,103070,2,0,P|52:235|105:273,1,125
123,191,103430,1,0,0:0:0:0:
123,191,103550,2,0,L|190:176,1,62.5
189,96,103790,2,0,L|122:81,1,62.5
52,52,104030,1,0,0:0:0:0:
52,52,104150,1,0,0:0:0:0:
52,52,104270,22,0,P|104:7|181:19,1,125
236,27,104630,1,0,0:0:0:0:
236,27,104750,1,0,0:0:0:0:
378,105,104990,2,0,P|364:180|381:246,1,125
300,262,105350,1,0,0:0:0:0:
300,262,105470,2,0,L|229:252,1,62.5
209,329,105710,2,0,L|280:339,1,62.5
351,329,105950,1,0,0:0:0:0:
156,267,106190,6,0,B|143:191|186:191|159:97,1,149.999995422363
309,27,106670,1,0,0:0:0:0:
330,190,106910,1,0,0:0:0:0:
226,62,107150,1,0,0:0:0:0:
407,36,107390,1,0,0:0:0:0:
407,36,107510,1,0,0:0:0:0:
407,36,107630,2,0,P|452:33|405:59,1,125
360,228,108110,6,0,P|290:249|332:190,1,187.5
329,190,108590,2,0,B|237:219|237:160|132:188,1,187.5
76,140,109070,1,0,0:0:0:0:
187,269,109310,1,0,0:0:0:0:
187,269,109430,1,0,0:0:0:0:
187,269,109550,2,0,P|195:316|187:350,2,62.5
117,310,109910,1,0,0:0:0:0:
43,344,110030,38,0,P|35:297|53:253,1,74.9999977111817
102,187,110270,2,0,L|35:171,1,62.5
143,103,110510,2,0,L|203:117,1,62.5
97,201,110750,2,0,L|30:185,1,62.5
150,90,110990,2,0,L|210:104,1,62.5
288,79,111230,1,0,0:0:0:0:
288,79,111470,2,0,P|291:112|286:150,2,62.5
216,26,111830,1,0,0:0:0:0:
288,79,111950,22,0,B|353:102|368:64|417:80,1,125
487,106,112310,1,0,0:0:0:0:
392,223,112430,2,0,L|407:156,1,62.5
476,264,112670,2,0,L|461:324,1,62.5
378,218,112910,2,0,L|393:151,1,62.5
489,271,113150,2,0,L|474:331,1,62.5
393,321,113390,2,0,B|328:298|313:336|264:320,1,125
271,322,113870,6,0,P|278:252|251:196,1,125
120,114,114350,2,0,P|113:184|140:240,1,125
256,339,114830,2,0,P|263:269|236:213,1,125
90,106,115310,2,0,P|89:148|101:173,2,62.5
252,112,115790,6,0,P|323:119|379:92,1,125
458,235,116270,2,0,P|465:165|438:109,1,125
332,234,116750,2,0,P|325:304|352:360,1,125
427,345,117110,1,0,0:0:0:0:
448,266,117230,2,0,P|489:286|504:310,2,62.5
342,152,117710,5,0,0:0:0:0:
312,96,125390,5,0,0:0:0:0:
368,92,125510,1,0,0:0:0:0:
420,120,125630,1,0,0:0:0:0:
440,172,125750,1,0,0:0:0:0:
354,178,125870,1,0,0:0:0:0:
298,182,125990,1,0,0:0:0:0:
246,154,126110,1,0,0:0:0:0:
226,102,126230,1,0,0:0:0:0:
212,46,126350,6,0,L|141:41,1,62.5
23,93,126590,2,0,L|94:88,1,62.5
167,175,126830,2,0,L|96:170,1,62.5
10,253,127070,2,0,L|81:248,1,62.5
132,267,127310,21,0,0:0:0:0:
161,315,127430,1,0,0:0:0:0:
213,342,127550,1,0,0:0:0:0:
267,328,127670,1,0,0:0:0:0:
221,250,127790,1,0,0:0:0:0:
276,236,127910,1,0,0:0:0:0:
332,255,128030,1,0,0:0:0:0:
361,302,128150,1,0,0:0:0:0:
404,347,128270,2,0,L|423:260,1,62.5
481,217,128510,2,0,L|462:130,2,62.5
392,128,128870,2,0,L|411:41,2,62.5
332,148,129230,5,0,0:0:0:0:
275,122,129350,1,0,0:0:0:0:
214,138,129470,1,0,0:0:0:0:
188,195,129590,1,0,0:0:0:0:
208,253,129710,1,0,0:0:0:0:
266,275,129830,1,0,0:0:0:0:
327,287,129950,2,0,L|250:359,1,62.5
179,334,130190,2,0,P|119:309|39:328,1,125
9,254,130550,2,0,P|19:197|14:175,1,62.5
23,98,130790,1,0,0:0:0:0:
83,114,130910,1,0,0:0:0:0:
145,106,131030,1,0,0:0:0:0:
199,74,131150,6,0,L|192:166,1,62.5
154,210,131390,1,0,0:0:0:0:
216,218,131510,1,0,0:0:0:0:
277,204,131630,2,0,L|270:112,1,62.5
344,95,131870,2,0,L|351:3,1,62.5
295,221,132110,2,0,L|288:129,1,62.5
362,112,132350,2,0,L|369:20,1,62.5
314,236,132590,2,0,L|307:144,1,62.5
381,127,132830,2,0,B|386:42|386:42|433:12|433:12|435:90,1,187.5
192,318,140150,6,0,L|216:284,1,41.6666666666667
196,64,140510,2,0,L|172:98,1,41.6666666666667
300,55,140750,5,0,0:0:0:0:
404,99,140990,1,0,0:0:0:0:
404,99,141110,1,0,0:0:0:0:
404,99,141230,2,0,P|401:167|405:198,1,87.499997329712
292,215,141710,2,0,P|295:283|291:314,1,87.499997329712
426,94,142190,2,0,P|423:162|427:193,1,87.499997329712
274,212,142670,6,0,P|277:280|273:311,1,87.499997329712
227,330,143030,1,0,0:0:0:0:
227,330,143150,2,0,B|180:314|118:335,1,87.499997329712
27,318,143630,1,0,0:0:0:0:
74,214,143870,1,0,0:0:0:0:
74,214,143990,1,0,0:0:0:0:
74,214,144110,2,0,P|71:146|75:115,1,87.499997329712
186,40,144590,22,0,P|189:108|185:139,1,87.499997329712
52,220,145070,2,0,P|49:152|53:121,1,87.499997329712
204,36,145550,2,0,P|207:104|203:135,1,87.499997329712
28,228,146030,2,0,P|25:160|29:129,1,87.499997329712
100,36,146510,5,0,0:0:0:0:
174,257,146750,1,0,0:0:0:0:
195,23,146990,1,0,0:0:0:0:
174,257,147230,1,0,0:0:0:0:
277,52,147470,1,0,0:0:0:0:
218,104,147590,1,0,0:0:0:0:
244,178,147710,1,0,0:0:0:0:
321,169,147830,1,0,0:0:0:0:
345,94,147950,2,0,P|383:120|395:193,1,87.499997329712
342,256,148430,6,0,P|407:265|508:199,1,174.999994659424
277,192,149150,2,0,P|212:182|111:248,1,174.999994659424
103,65,149990,1,0,0:0:0:0:
103,65,150110,6,0,L|86:126,2,43.749998664856
216,53,150590,1,0,0:0:0:0:
216,53,150710,1,0,0:0:0:0:
216,53,150830,2,0,P|261:63|328:53,2,87.499997329712
406,178,151550,1,0,0:0:0:0:
406,178,151670,1,0,0:0:0:0:
406,178,151790,2,0,P|361:168|294:178,1,87.499997329712
358,278,152270,6,0,B|267:301|268:266|169:280,1,174.999994659424
117,186,152990,2,0,B|208:163|207:198|306:184,1,174.999994659424
410,63,153830,2,0,P|457:54|470:55,2,43.749998664856
356,83,154190,5,0,0:0:0:0:
246,53,154430,1,0,0:0:0:0:
246,53,154550,1,0,0:0:0:0:
246,53,154670,2,0,P|189:70|139:65,2,87.499997329712
52,144,155390,1,0,0:0:0:0:
52,144,155510,1,0,0:0:0:0:
52,144,155630,2,0,P|63:176|67:208,1,43.749998664856
41,237,155870,2,0,P|29:269|26:301,1,43.749998664856
76,309,156110,21,0,0:0:0:0:
124,280,156230,1,0,0:0:0:0:
180,268,156350,1,0,0:0:0:0:
236,280,156470,1,0,0:0:0:0:
282,312,156590,1,0,0:0:0:0:
316,225,156830,2,0,P|297:176|323:53,1,174.999994659424
149,36,157670,2,0,P|91:43|76:42,2,43.749998664856
203,52,158030,5,0,0:0:0:0:
244,91,158150,1,0,0:0:0:0:
248,147,158270,1,0,0:0:0:0:
212,191,158390,1,0,0:0:0:0:
200,246,158510,1,0,0:0:0:0:
230,294,158630,1,0,0:0:0:0:
282,316,158750,2,0,P|340:309|355:310,1,43.749998664856
359,263,158990,2,0,P|417:270|432:269,1,43.749998664856
462,197,159230,1,0,0:0:0:0:
462,197,159350,1,0,0:0:0:0:
462,197,159470,2,0,P|451:132|451:123,2,43.749998664856
384,113,159950,5,0,0:0:0:0:
330,130,160070,1,0,0:0:0:0:
273,125,160190,1,0,0:0:0:0:
228,89,160310,1,0,0:0:0:0:
193,43,160430,2,0,L|156:88,2,43.749998664856
88,88,160910,2,0,L|100:187,1,87.499997329712
199,228,161390,2,0,L|191:277,2,43.749998664856
244,123,161870,5,0,0:0:0:0:
313,212,162110,1,0,0:0:0:0:
313,212,162230,1,0,0:0:0:0:
313,212,162350,2,0,P|373:218|399:208,1,87.499997329712
356,102,162830,1,0,0:0:0:0:
468,83,163070,1,0,0:0:0:0:
468,83,163190,1,0,0:0:0:0:
468,83,163310,2,0,P|463:139|469:178,1,87.499997329712
478,226,163670,1,0,0:0:0:0:
401,285,163790,54,0,B|423:268|409:247|381:244|355:280|330:321|275:276,1,149.999995422363
310,191,164150,1,0,0:0:0:0:
310,191,164270,1,0,0:0:0:0:
228,331,164510,2,0,P|221:229|274:191,1,125
251,137,164870,1,0,0:0:0:0:
251,137,164990,2,0,L|252:68,1,62.5
172,64,165230,2,0,L|170:132,1,62.5
89,114,165470,1,0,0:0:0:0:
89,114,165590,1,0,0:0:0:0:
89,114,165710,22,0,L|80:250,1,125
74,319,166070,1,0,0:0:0:0:
74,319,166190,1,0,0:0:0:0:
236,331,166430,2,0,P|311:317|377:334,1,125
393,253,166790,1,0,0:0:0:0:
393,253,166910,2,0,L|383:182,1,62.5
460,162,167150,2,0,L|470:233,1,62.5
460,304,167390,1,0,0:0:0:0:
295,198,167630,6,0,P|350:108|404:102,1,149.999995422363
384,191,168110,1,0,0:0:0:0:
258,89,168350,1,0,0:0:0:0:
454,144,168590,1,0,0:0:0:0:
244,273,168830,1,0,0:0:0:0:
244,273,168950,1,0,0:0:0:0:
244,273,169070,2,0,P|199:276|246:250,1,125
244,273,169550,6,0,P|175:278|234:237,1,187.5
298,189,170030,2,0,B|206:218|206:159|101:187,1,187.5
35,206,170510,1,0,0:0:0:0:
150,92,170750,1,0,0:0:0:0:
150,92,170870,1,0,0:0:0:0:
150,92,170990,2,0,P|142:45|150:11,2,62.5
220,51,171350,1,0,0:0:0:0:
208,147,171470,38,0,P|216:194|198:238,1,74.9999977111817
258,284,171710,2,0,L|318:298,1,62.5
364,200,171950,2,0,L|424:214,1,62.5
263,270,172190,2,0,L|323:284,1,62.5
371,187,172430,2,0,L|431:201,1,62.5
449,280,172670,1,0,0:0:0:0:
449,280,172910,2,0,P|451:313|445:350,2,62.5
431,201,173270,1,0,0:0:0:0:
459,125,173390,22,0,B|394:102|379:140|330:124,1,125
254,133,173750,1,0,0:0:0:0:
200,194,173870,2,0,L|185:261,1,62.5
118,86,174110,2,0,L|103:146,1,62.5
214,199,174350,2,0,L|199:266,1,62.5
131,93,174590,2,0,L|116:153,1,62.5
126,234,174830,2,0,P|51:212|35:147,1,125
300,239,175310,6,0,P|375:261|391:326,1,125
229,286,175790,2,0,P|219:208|273:168,1,125
275,352,176270,2,0,P|197:362|156:309,1,125
318,149,176750,2,0,P|292:115|267:103,2,62.5
156,135,177230,6,0,P|134:60|69:44,1,125
109,206,177710,2,0,P|186:215|226:161,1,125
43,160,178190,2,0,P|32:237|85:278,1,125
140,286,178550,1,0,0:0:0:0:
217,309,178670,2,0,P|258:329|273:353,2,62.5
255,178,179150,5,0,0:0:0:0:
256,72,183710,6,0,B|294:40|378:21|408:115|373:208|274:195|258:245|211:286|211:286|182:237|179:183|61:157|76:62|134:-17|204:25|240:101,1,787.499975967408
