osu file format v14

[General]
AudioFilename: audio.mp3
AudioLeadIn: 0
PreviewTime: 48562
Countdown: 0
SampleSet: None
StackLeniency: 0.7
Mode: 0
LetterboxInBreaks: 0
WidescreenStoryboard: 0

[Editor]
Bookmarks: 24502,25064,46061,46904
DistanceSpacing: 1
BeatDivisor: 4
GridSize: 8
TimelineZoom: 1

[Metadata]
Title:Power Up
TitleUnicode:Power Up
Artist:Red Velvet
ArtistUnicode:Red Velvet
Creator:kookabarea
Version:Ascend
Source:
Tags:kpop korean short ver redvelvet red velvet summer magic powerup I Cant Play Simu Simuzax riffy Yaseen243
BeatmapID:1734438
BeatmapSetID:827760

[Difficulty]
HPDrainRate:6
CircleSize:4
OverallDifficulty:8.5
ApproachRate:9
SliderMultiplier:1.4
SliderTickRate:1

[Events]
//Background and Video events
0,0,"Background.png",0,0
Video,0,"Power Up (Short Ver.).mp4"
//Break Periods
2,36762,38980
//Storyboard Layer 0 (Background)
//Storyboard Layer 1 (Fail)
//Storyboard Layer 2 (Pass)
//Storyboard Layer 3 (Foreground)
//Storyboard Sound Samples

[TimingPoints]
562,375,4,2,1,20,1,0
2062,-100,4,2,1,25,0,0
3562,-100,4,2,1,30,0,0
5062,-100,4,2,1,40,0,0
6562,-100,4,2,1,50,0,0
8062,-100,4,2,1,60,0,0
9562,-100,4,2,1,70,0,0
11062,-100,4,2,1,75,0,0
12562,-133.333333333333,4,2,1,75,0,0
13687,-100,4,2,1,75,0,0
15562,-100,4,2,1,75,0,0
18562,-133.333333333333,4,2,1,75,0,0
19687,-100,4,2,1,75,0,0
29812,-133.333333333333,4,2,1,75,0,0
30374,-100,4,2,1,80,0,0
36562,382.165605095541,4,2,1,80,1,0
38090,372.670807453416,4,3,1,80,1,0
39953,-100,4,3,1,70,0,0
40326,-100,4,3,1,60,0,0
40698,-100,4,3,1,70,0,0
41071,-100,4,3,1,80,0,0
41444,-100,4,3,1,70,0,0
41816,-100,4,3,1,60,0,0
42189,-100,4,3,1,50,0,0
42562,375,4,3,1,80,1,0
46124,-1000,4,3,1,80,0,0
47062,-1000,4,3,1,80,0,0
47812,-1000,4,3,1,5,0,0
47999,-1000,4,3,1,80,0,0
48562,-66.6666666666667,4,2,1,80,0,1
52687,-83.3333333333333,4,2,1,80,0,1
53624,-66.6666666666667,4,2,1,80,0,1
55312,-100,4,2,1,80,0,1
58124,-133.333333333333,4,2,1,80,0,1
58687,-100,4,2,1,80,0,1
60562,-66.6666666666667,4,3,1,80,0,0
60749,-66.6666666666667,4,3,1,5,0,0
60937,-33.3333333333333,4,3,1,80,0,0
61124,-66.6666666666667,4,3,1,5,0,0
61312,-66.6666666666667,4,3,1,80,0,0
61499,-66.6666666666667,4,3,1,5,0,0
61687,-33.3333333333333,4,3,1,80,0,0
61874,-33.3333333333333,4,3,1,5,0,0
62062,-33.3333333333333,4,3,1,100,0,1
71624,-133.333333333333,4,2,1,80,0,1
71812,-100,4,3,1,80,0,1
74062,-66.6666666666667,4,3,1,80,0,0
74249,-66.6666666666667,4,3,1,5,0,0
74437,-33.3333333333333,4,3,1,80,0,0
74624,-33.3333333333333,4,3,1,5,0,0
74812,-66.6666666666667,4,3,1,80,0,0
74999,-66.6666666666667,4,3,1,5,0,0
75187,-33.3333333333333,4,3,1,80,0,0
75374,-33.3333333333333,4,3,1,5,0,0
75562,-83.3333333333333,4,3,1,80,0,0
77062,-83.3333333333333,4,3,1,5,0,0

[Colours]
Combo1 : 150,90,250
Combo2 : 255,75,55
Combo3 : 255,205,6
Combo4 : 108,182,255
Combo5 : 67,163,35

[HitObjects]
118,255,562,6,0,B|151:257|198:252,1,70,0|0,3:0|0:0,0:0:0:0:
306,226,937,1,0,0:0:0:0:
148,174,1124,1,0,0:0:0:0:
221,303,1312,2,0,P|234:248|234:223,1,70,0|0,0:0|0:0,0:0:0:0:
244,105,1687,1,0,0:0:0:0:
336,102,1874,6,0,P|329:138|334:179,1,70,0|0,0:0|0:0,0:0:0:0:
404,256,2249,2,0,P|406:220|393:177,1,70,0|0,0:0|0:0,0:0:0:0:
380,80,2624,5,0,0:0:0:0:
277,184,2812,1,0,0:0:0:0:
203,77,2999,2,0,P|191:134|196:155,1,70,0|0,0:0|0:0,0:0:0:0:
200,245,3374,1,0,0:0:0:0:
309,132,3562,6,0,P|273:131|227:135,1,70,0|0,0:0|0:0,0:0:0:0:
113,138,3937,1,0,0:0:0:0:
294,200,4124,1,0,0:0:0:0:
220,63,4312,2,0,P|203:112|209:144,1,70,0|0,0:0|0:0,0:0:0:0:
188,249,4687,1,0,0:0:0:0:
108,194,4874,6,0,P|93:152|94:123,1,70,0|0,0:0|0:0,0:0:0:0:
167,62,5249,2,0,P|173:109|166:147,1,70,0|0,0:0|0:0,0:0:0:0:
284,124,5624,6,0,B|293:207,2,70,0|0|0,0:0|0:0|0:0,0:0:0:0:
223,229,6187,2,0,L|217:154,1,70,0|0,0:0|0:0,0:0:0:0:
413,121,6562,6,0,B|375:118|321:124,1,70,0|0,0:0|0:0,0:0:0:0:
167,143,6937,1,0,0:0:0:0:
393,221,7124,1,0,0:0:0:0:
300,45,7312,2,0,P|286:108|286:136,1,70,0|0,0:0|0:0,0:0:0:0:
270,294,7687,1,0,0:0:0:0:
169,304,7874,6,0,P|177:263|172:216,1,70,0|0,0:0|0:0,0:0:0:0:
75,81,8249,2,0,P|73:122|87:171,1,70,0|0,0:0|0:0,0:0:0:0:
114,320,8624,5,0,0:0:0:0:
203,147,8812,1,0,0:0:0:0:
316,323,8999,2,0,P|329:258|324:235,1,70,0|0,0:0|0:0,0:0:0:0:
325,102,9374,1,0,0:0:0:0:
199,256,9562,6,0,P|237:257|286:253,1,70,0|0,0:0|0:0,0:0:0:0:
421,246,9937,1,0,0:0:0:0:
205,177,10124,1,0,0:0:0:0:
300,340,10312,2,0,P|317:288|311:254,1,70,0|0,0:0|0:0,0:0:0:0:
329,69,10687,1,0,0:0:0:0:
412,190,10874,6,0,P|428:235|427:265,1,70,0|0,0:0|0:0,0:0:0:0:
349,330,11249,2,0,P|343:280|350:240,1,70,0|0,0:0|0:0,0:0:0:0:
393,70,11624,5,0,0:0:0:0:
93,160,11812,1,0,0:0:0:0:
367,226,11999,5,0,0:0:0:0:
223,60,12187,1,0,0:0:0:0:
138,296,12374,1,0,0:0:0:0:
286,311,12562,6,0,P|349:290|357:201,1,157.500006008148,0|0,3:0|0:0,0:0:0:0:
340,47,13312,5,0,0:0:0:0:
244,239,13499,1,0,0:0:0:0:
390,136,13687,6,0,L|314:143,1,70,8|0,0:0|0:0,0:0:0:0:
141,122,14062,5,0,0:0:0:0:
316,64,14249,1,0,0:0:0:0:
152,234,14437,1,8,0:0:0:0:
347,198,14624,2,0,L|275:187,1,70,0|0,0:0|0:0,0:0:0:0:
120,239,14999,5,0,0:0:0:0:
265,149,15187,1,8,0:0:0:0:
297,301,15374,1,4,2:3:0:0:
387,250,15562,6,0,P|407:180|351:120,1,140,0|8,3:0|0:0,0:0:0:0:
277,73,16124,2,0,L|180:82,1,70,0|0,0:0|0:0,0:0:0:0:
124,234,16499,1,0,0:0:0:0:
66,115,16687,1,8,0:0:0:0:
274,194,16874,1,0,0:0:0:0:
209,317,17062,6,0,L|200:243,1,70,0|0,0:0|0:0,0:0:0:0:
112,238,17437,5,8,0:0:0:0:
222,83,17624,1,0,0:0:0:0:
86,121,17812,5,0,0:0:0:0:
195,250,17999,1,0,0:0:0:0:
311,121,18187,2,0,L|301:203,1,70,8|4,0:0|2:3,0:0:0:0:
135,90,18562,6,0,P|100:139|136:239,1,157.500006008148,0|0,3:0|0:0,0:0:0:0:
219,332,19312,5,0,0:0:0:0:
263,101,19499,1,0,0:0:0:0:
137,222,19687,2,0,L|210:229,1,70,8|0,0:0|0:0,0:0:0:0:
172,80,20062,5,0,0:0:0:0:
354,52,20249,1,0,0:0:0:0:
216,205,20437,1,8,0:0:0:0:
366,119,20624,2,0,L|278:123,1,70,0|0,0:0|0:0,0:0:0:0:
131,218,20999,5,0,0:0:0:0:
191,68,21187,1,8,0:0:0:0:
285,206,21374,1,4,2:3:0:0:
366,90,21562,6,0,P|386:127|374:250,1,140,0|8,3:0|0:0,0:0:0:0:
311,338,22124,1,0,0:0:0:0:
189,237,22312,1,0,0:0:0:0:
319,207,22499,1,0,0:0:0:0:
238,334,22687,1,8,0:0:0:0:
121,232,22874,5,0,0:0:0:0:
261,85,23062,1,0,0:0:0:0:
320,286,23249,1,0,0:0:0:0:
173,155,23437,1,8,0:0:0:0:
372,181,23624,2,0,L|302:186,1,70,0|0,0:0|0:0,0:0:0:0:
214,92,23999,5,0,0:0:0:0:
331,257,24187,1,8,0:0:0:0:
123,306,24374,1,4,0:3:0:0:
144,184,24562,5,0,3:0:0:0:
149,149,24655,1,0,0:0:0:0:
166,119,24749,1,0,0:0:0:0:
193,96,24843,1,0,0:0:0:0:
226,85,24937,1,8,0:0:0:0:
260,85,25030,1,0,0:0:0:0:
293,97,25124,1,0,0:0:0:0:
317,121,25218,1,0,0:0:0:0:
334,151,25312,2,0,P|349:193|346:247,1,70,0|0,0:0|0:0,0:0:0:0:
372,328,25687,5,8,0:0:0:0:
387,162,25874,1,0,0:0:0:0:
241,288,26062,2,0,L|326:273,1,70,0|0,0:0|0:0,0:0:0:0:
439,270,26437,5,8,0:0:0:0:
332,146,26624,1,0,0:0:0:0:
304,319,26812,1,0,0:0:0:0:
452,194,26999,5,0,0:0:0:0:
252,177,27187,1,8,0:0:0:0:
348,327,27374,6,0,L|437:333,1,70,4|0,0:3|3:0,0:0:0:0:
391,141,27749,5,0,0:0:0:0:
316,275,27937,1,8,0:0:0:0:
283,155,28124,1,0,0:0:0:0:
417,223,28312,1,0,0:0:0:0:
226,319,28499,2,0,L|214:239,1,70,0|8,0:0|0:0,0:0:0:0:
203,143,28874,1,0,0:0:0:0:
306,161,29062,6,0,L|323:251,1,70,0|0,0:0|0:0,0:0:0:0:
338,326,29437,1,8,0:0:0:0:
210,261,29624,1,0,0:0:0:0:
421,198,29812,6,0,P|421:250|337:326,1,157.500006008148,0|4,0:0|0:3,0:0:0:0:
121,322,30562,5,0,3:0:0:0:
279,199,30749,1,0,0:0:0:0:
129,89,30937,2,0,L|217:100,1,70,8|0,0:0|0:0,0:0:0:0:
239,304,31312,1,0,0:0:0:0:
163,217,31499,2,0,L|70:203,1,70,0|8,0:0|0:0,0:0:0:0:
286,148,31874,5,0,0:0:0:0:
201,305,32062,2,0,L|102:284,1,70,0|0,0:0|0:0,0:0:0:0:
276,176,32437,5,8,0:0:0:0:
88,123,32624,1,0,0:0:0:0:
133,264,32812,5,0,0:0:0:0:
220,94,32999,1,0,0:0:0:0:
264,262,33187,1,8,0:0:0:0:
134,153,33374,2,0,L|212:145,1,70,4|0,0:3|3:0,0:0:0:0:
320,137,33749,5,0,0:0:0:0:
185,301,33937,1,8,0:0:0:0:
103,171,34124,5,0,0:0:0:0:
255,267,34312,1,0,0:0:0:0:
347,141,34499,6,0,L|358:221,1,70,0|8,0:0|0:0,0:0:0:0:
371,337,34874,1,0,0:0:0:0:
256,301,35062,6,0,L|246:216,1,70,0|0,0:0|0:0,0:0:0:0:
227,116,35437,1,8,0:0:0:0:
130,255,35624,1,0,0:0:0:0:
369,143,35812,5,0,0:0:0:0:
379,176,35905,1,0,0:0:0:0:
376,210,35999,1,0,0:0:0:0:
360,241,36093,1,0,0:0:0:0:
334,264,36187,1,8,0:0:0:0:
301,275,36280,1,0,0:0:0:0:
266,272,36374,1,4,0:3:0:0:
235,257,36468,1,4,0:3:0:0:
211,234,36562,1,2,0:2:0:0:
316,61,39580,5,2,0:2:0:0:
175,202,39953,1,2,0:2:0:0:
415,212,40326,1,2,0:2:0:0:
219,325,40698,1,2,0:2:0:0:
80,188,41071,5,2,0:2:0:0:
383,48,41444,1,2,0:2:0:0:
98,330,41816,1,2,0:2:0:0:
486,172,42189,1,2,0:2:0:0:
256,107,42562,5,8,3:0:0:0:
246,127,42749,1,0,0:0:0:0:
291,184,42937,5,8,3:0:0:0:
317,196,43124,1,0,0:0:0:0:
348,119,43312,5,8,3:0:0:0:
293,67,43499,1,0,0:0:0:0:
260,152,43687,5,8,3:0:0:0:
346,62,43874,1,0,0:0:0:0:
377,278,44062,5,8,3:0:0:0:
271,96,44249,1,0,0:0:0:0:
72,186,44437,5,8,3:0:0:0:
282,57,44624,1,0,0:0:0:0:
91,88,44812,5,8,3:0:0:0:
389,299,44999,1,0,0:0:0:0:
398,72,45187,5,8,3:0:0:0:
136,297,45374,1,0,0:0:0:0:
367,216,45562,5,8,3:0:0:0:
101,83,45749,1,8,3:0:0:0:
300,317,45937,1,8,3:0:0:0:
169,269,46124,1,8,3:0:0:0:
143,245,46218,1,0,0:0:0:0:
126,214,46312,1,8,3:0:0:0:
121,180,46405,1,8,3:0:0:0:
127,145,46499,1,8,3:0:0:0:
144,115,46593,1,8,3:0:0:0:
169,91,46687,1,8,3:0:0:0:
201,78,46780,1,8,3:0:0:0:
236,75,46874,1,8,3:0:0:0:
270,86,46968,1,8,3:0:0:0:
304,112,47062,6,0,L|322:135,1,28,2|0,0:2|0:0,0:0:0:0:
398,306,47999,5,0,3:0:0:0:
209,117,48187,1,0,3:0:0:0:
136,322,48374,1,0,3:0:0:0:
360,50,48562,6,0,P|394:74|386:151,1,105.000004005432,2|0,0:2|0:0,0:0:0:0:
310,165,48937,2,0,P|268:126|300:64,1,105.000004005432,0|0,0:0|3:0,0:0:0:0:
394,213,49312,2,0,P|432:246|415:313,1,105.000004005432,8|0,0:0|0:0,0:0:0:0:
346,353,49687,2,0,P|312:291|338:234,1,105.000004005432,0|0,3:0|0:0,0:0:0:0:
386,75,50062,5,0,0:0:0:0:
263,219,50249,1,0,3:0:0:0:
422,255,50437,5,0,0:0:0:0:
257,63,50624,1,0,3:0:0:0:
161,249,50812,5,8,0:0:0:0:
75,104,50999,1,0,3:0:0:0:
73,283,51187,1,8,0:0:0:0:
177,70,51374,1,0,3:0:0:0:
405,96,51562,6,0,P|347:81|263:112,1,105.000004005432,0|0,3:0|0:0,0:0:0:0:
224,163,51937,2,0,P|292:174|355:162,1,105.000004005432,0|0,0:0|3:0,0:0:0:0:
267,272,52312,5,8,0:0:0:0:
108,122,52499,1,0,0:0:0:0:
60,299,52687,2,0,P|128:301|165:292,1,83.9999974365235,0|0,3:0|0:0,0:0:0:0:
183,94,53062,1,0,0:0:0:0:
314,274,53249,5,0,3:0:0:0:
282,90,53437,1,0,0:0:0:0:
446,123,53624,6,0,P|454:172|423:225,1,105.000004005432,0|8,3:0|0:0,0:0:0:0:
349,210,53999,2,0,P|338:143|389:97,1,105.000004005432,0|8,3:0|0:0,0:0:0:0:
235,224,54374,1,0,3:0:0:0:
235,224,54468,1,8,0:0:0:0:
235,224,54562,1,0,3:0:0:0:
151,109,54749,5,0,0:0:0:0:
277,194,54937,1,0,0:0:0:0:
128,232,55124,1,0,3:0:0:0:
307,108,55312,2,0,L|397:101,1,70,8|0,0:0|0:0,0:0:0:0:
350,294,55687,1,0,3:0:0:0:
168,298,55874,5,0,0:0:0:0:
256,89,56062,1,0,0:0:0:0:
332,301,56249,1,0,3:0:0:0:
116,173,56437,1,0,0:0:0:0:
365,176,56624,1,0,3:0:0:0:
168,298,56812,5,8,0:0:0:0:
256,89,56999,1,0,3:0:0:0:
332,301,57187,1,8,0:0:0:0:
246,215,57374,1,0,3:0:0:0:
246,215,57468,1,8,0:0:0:0:
246,215,57562,1,0,3:0:0:0:
424,295,57749,5,0,0:0:0:0:
397,167,57937,1,0,0:0:0:0:
317,209,58124,2,0,L|309:171,1,26.2500010013581,0|0,3:0|0:0,0:0:0:0:
263,82,58312,5,8,0:0:0:0:
216,278,58499,1,0,0:0:0:0:
124,192,58687,6,0,L|112:264,2,70,0|0|0,3:0|0:0|0:0,0:0:0:0:
227,89,59249,5,0,3:0:0:0:
373,130,59437,1,0,0:0:0:0:
249,234,59624,1,0,3:0:0:0:
402,282,59812,6,0,L|396:204,1,70,0|0,0:0|3:0,0:0:0:0:
297,347,60187,1,8,0:0:0:0:
184,159,60374,1,0,3:0:0:0:
383,246,60562,6,0,P|351:212|343:260,1,105.000004005432,8|0,3:1|0:0,0:0:0:0:
383,246,60937,2,0,P|386:182|343:252,1,210.000008010865,8|0,3:1|0:0,0:0:0:0:
122,195,61312,6,0,P|171:192|136:155,1,105.000004005432,8|0,3:1|0:0,0:0:0:0:
122,195,61687,2,0,P|168:239|143:160,1,210.000008010865,0|0,3:0|0:0,0:0:0:0:
361,38,62062,5,0,3:0:0:0:
320,312,62249,1,8,0:2:0:0:
151,212,62437,5,0,3:0:0:0:
432,118,62624,1,8,0:2:0:0:
152,40,62812,5,0,3:0:0:0:
384,256,62999,1,8,0:2:0:0:
327,35,63187,5,0,3:0:0:0:
208,299,63374,1,8,0:2:0:0:
80,64,63562,5,0,3:0:0:0:
252,290,63749,1,8,0:2:0:0:
301,40,63937,5,0,3:0:0:0:
84,256,64124,1,8,0:2:0:0:
311,312,64312,5,0,3:0:0:0:
332,53,64499,1,8,0:2:0:0:
180,319,64687,5,0,3:0:0:0:
152,60,64874,1,8,0:2:0:0:
393,136,65062,5,0,3:0:0:0:
352,29,65249,1,8,0:2:0:0:
275,150,65437,5,0,3:0:0:0:
422,108,65624,1,8,0:2:0:0:
364,228,65812,5,0,3:0:0:0:
304,58,65999,1,8,0:2:0:0:
232,216,66187,5,0,3:0:0:0:
413,132,66374,1,8,0:2:0:0:
269,310,66562,5,0,3:0:0:0:
117,177,66749,1,8,0:2:0:0:
304,79,66937,5,0,3:0:0:0:
148,229,67124,1,8,0:2:0:0:
177,58,67312,5,0,3:0:0:0:
276,288,67499,1,8,0:2:0:0:
97,145,67687,5,0,3:0:0:0:
354,31,67874,1,8,0:2:0:0:
272,368,68062,5,0,3:0:0:0:
88,192,68249,1,8,0:2:0:0:
352,176,68437,5,0,3:0:0:0:
96,336,68624,1,8,0:2:0:0:
432,184,68812,5,0,3:0:0:0:
80,248,68999,1,8,0:2:0:0:
336,352,69187,5,0,3:0:0:0:
96,176,69374,1,8,0:2:0:0:
384,184,69562,5,0,3:0:0:0:
96,312,69749,1,8,0:2:0:0:
440,320,69937,5,0,3:0:0:0:
188,166,70124,1,8,0:2:0:0:
320,352,70312,5,0,3:0:0:0:
105,109,70499,1,8,0:2:0:0:
104,344,70687,5,0,3:0:0:0:
357,127,70874,1,4,0:2:0:0:
44,138,71062,1,0,0:2:0:0:
291,76,71249,5,8,0:0:0:0:
237,234,71437,1,0,3:2:0:0:
191,84,71624,2,0,L|184:125,1,26.2500010013581,8|0,0:0|0:0,0:0:0:0:
122,221,71812,5,0,3:2:0:0:
344,148,71999,1,8,2:0:0:0:
117,308,72187,5,0,3:2:0:0:
462,85,72374,1,8,2:0:0:0:
53,209,72562,5,0,3:2:0:0:
435,141,72749,1,8,2:0:0:0:
135,316,72937,5,0,3:2:0:0:
395,82,73124,1,8,2:0:0:0:
414,310,73312,5,0,3:2:0:0:
117,90,73499,1,8,2:0:0:0:
191,323,73687,5,0,3:2:0:0:
325,51,73874,1,8,2:0:0:0:
132,254,74062,6,0,P|176:258|137:221,1,105.000004005432,8|0,3:1|0:0,0:0:0:0:
132,254,74437,2,0,P|180:298|154:220,1,210.000008010865,8|0,3:1|0:0,0:0:0:0:
381,121,74812,6,0,P|373:173|400:147,1,105.000004005432,8|0,3:1|0:0,0:0:0:0:
381,121,75187,2,0,P|317:127|394:159,1,210.000008010865,8|0,3:1|0:0,0:0:0:0:
316,314,75562,6,0,B|339:137|327:-30|179:35|208:96|210:134|210:134|177:126|118:88|32:225|194:296|238:260,1,671.999979492188,8|0,3:1|0:0,0:0:0:0:
