osu file format v14

[General]
AudioFilename: audio.ogg
AudioLeadIn: 0
PreviewTime: 47908
Countdown: 0
SampleSet: Soft
StackLeniency: 0.7
Mode: 0
LetterboxInBreaks: 0
WidescreenStoryboard: 1

[Editor]
DistanceSpacing: 1
BeatDivisor: 4
GridSize: 32
TimelineZoom: 1

[Metadata]
Title:Power Up
TitleUnicode:Power Up
Artist:Red Velvet
ArtistUnicode:레드벨벳
Creator:AJT
Version:Normal
Source:
Tags:korean pop kpop k-pop hehe handsome fragmented skymin irene 아이린 seulgi 슬기 wendy 웬디 joy 조이 yeri 예리 summer magic SMtown SM엔터테인먼트 SM Entertainment dance electropop electronic
BeatmapID:4152590
BeatmapSetID:1997883

[Difficulty]
HPDrainRate:3
CircleSize:3
OverallDifficulty:4
ApproachRate:5
SliderMultiplier:1.1
SliderTickRate:1

[Events]
//Background and Video events
0,0,"group.jpeg",0,0
Video,-981,"video.avi"
//Break Periods
2,36677,41277
2,99677,104277
2,161177,168777
//Storyboard Layer 0 (Background)
//Storyboard Layer 1 (Fail)
//Storyboard Layer 2 (Pass)
//Storyboard Layer 3 (Foreground)
//Storyboard Layer 4 (Overlay)
//Storyboard Sound Samples

[TimingPoints]
-5523,375,4,2,2,30,1,0
12477,-100,4,2,1,40,0,0
24477,-100,4,2,1,50,0,0
25977,-100,4,2,1,50,0,0
36477,-100,4,2,1,30,0,0
42477,-100,4,2,2,40,0,0
45477,-100,4,2,2,50,0,0
48477,-100,4,2,2,70,0,1
49227,-100,4,2,1,70,0,1
54805,-100,4,2,1,10,0,1
54851,-100,4,2,1,70,0,1
54992,-100,4,2,1,10,0,1
55039,-100,4,2,1,70,0,1
55367,-100,4,2,1,10,0,1
55414,-100,4,2,1,70,0,1
56117,-100,4,2,1,10,0,1
56164,-100,4,2,1,70,0,1
56492,-100,4,2,1,10,0,1
56539,-100,4,2,1,70,0,1
60477,-100,4,2,1,70,0,0
61977,-100,4,2,1,80,0,1
71164,-100,4,2,1,70,0,1
73977,-100,4,2,1,70,0,0
75477,-100,4,2,1,40,0,0
88977,-100,4,2,1,50,0,0
99477,-100,4,2,1,30,0,0
105477,-100,4,2,2,40,0,0
108477,-100,4,2,2,50,0,0
111477,-100,4,2,2,70,0,1
112227,-100,4,2,1,70,0,1
117805,-100,4,2,1,10,0,1
117851,-100,4,2,1,70,0,1
117992,-100,4,2,1,10,0,1
118039,-100,4,2,1,70,0,1
118367,-100,4,2,1,10,0,1
118414,-100,4,2,1,70,0,1
119117,-100,4,2,1,10,0,1
119164,-100,4,2,1,70,0,1
119305,-100,4,2,1,10,0,1
119352,-100,4,2,1,70,0,1
121977,-100,4,2,1,70,0,0
123477,-100,4,2,1,80,0,1
129992,-100,4,2,1,10,0,1
130039,-100,4,2,1,80,0,1
130180,-100,4,2,1,10,0,1
130227,-100,4,2,1,80,0,1
131117,-100,4,2,1,10,0,1
131164,-100,4,2,1,80,0,1
131305,-100,4,2,1,10,0,1
131352,-100,4,2,1,80,0,1
131914,-100,4,2,1,100,0,1
132102,-100,4,2,1,80,0,1
132242,-100,4,2,1,10,0,1
132289,-100,4,2,1,80,0,1
133977,-100,4,2,1,80,0,0
136977,-100,4,2,1,90,0,1
146164,-100,4,2,1,80,0,1
148977,-100,4,2,1,40,0,0
154977,-100,4,2,2,40,0,0
155727,-100,4,2,1,40,0,0
156102,-100,4,2,2,40,0,0
157227,-100,4,2,1,40,0,0
157602,-100,4,2,2,40,0,0
158727,-100,4,2,1,40,0,0
158820,-100,4,2,2,40,0,0
160977,-100,4,2,2,50,0,0
170164,-100,4,2,2,60,0,0
172977,-100,4,2,2,80,0,1
173352,-100,4,2,1,80,0,1
179492,-100,4,2,1,10,0,1
179539,-100,4,2,1,80,0,1
179680,-100,4,2,1,10,0,1
179727,-100,4,2,1,80,0,1
180617,-100,4,2,1,10,0,1
180664,-100,4,2,1,80,0,1
180805,-100,4,2,1,10,0,1
180852,-100,4,2,1,80,0,1
181367,-100,4,2,1,10,0,1
181414,-100,4,2,1,80,0,1
181742,-100,4,2,1,10,0,1
181789,-100,4,2,1,80,0,1
183477,-100,4,2,1,80,0,0
186477,-100,4,2,1,90,0,1
195664,-100,4,2,1,80,0,1
199977,-100,4,2,1,80,0,0

[Colours]
Combo1 : 0,128,192
Combo2 : 255,72,72
Combo3 : 255,128,192
Combo4 : 91,255,239

[HitObjects]
256,384,12477,6,0,P|251:312|236:155,1,220,4|0,3:2|2:0,2:0:0:0:
144,116,13602,1,8,2:0:0:0:
144,116,13977,2,0,P|93:124|31:139,2,110,0|8|0,3:0|2:0|2:0,2:0:0:0:
213,30,15102,2,0,L|286:54,1,55,8|8,2:0|3:2,2:0:0:0:
316,27,15477,6,0,P|321:99|336:256,1,220,0|0,3:0|2:0,2:0:0:0:
410,326,16602,1,8,2:0:0:0:
314,380,16977,2,0,P|263:372|201:357,1,110,0|8,3:0|2:0,2:0:0:0:
130,285,17727,1,0,2:0:0:0:
160,179,18102,2,0,P|124:166|87:155,1,55,8|8,2:0|3:2,2:0:0:0:
53,151,18477,6,0,P|-10:232|63:344,1,220,4|0,3:2|2:0,2:0:0:0:
140,355,19602,1,8,2:0:0:0:
231,293,19977,2,0,P|282:301|344:316,1,110,0|8,3:0|2:0,2:0:0:0:
436,364,20727,1,0,2:0:0:0:
494,270,21102,2,0,L|518:197,1,55,8|8,2:0|3:2,2:0:0:0:
498,164,21477,6,0,P|427:147|273:116,1,220,0|0,3:0|2:0,2:0:0:0:
195,184,22602,1,8,2:0:0:0:
296,225,22977,2,0,P|347:217|409:202,2,110,0|8|0,3:0|2:0|2:0,2:0:0:0:
195,184,24102,2,0,P|159:171|122:160,1,55,8|8,2:0|3:2,2:0:0:0:
87,166,24477,6,0,P|53:89|168:71,1,220,6|0,3:2|2:0,2:0:0:0:
261,94,25602,1,8,2:0:0:0:
338,15,25977,1,0,3:0:0:0:
18,384,27664,6,0,P|5:348|-6:311,1,55,0|8,2:0|2:0,2:0:0:0:
28,284,28039,1,0,3:0:0:0:
28,284,28227,2,0,P|15:248|4:211,1,55,0|0,2:0|3:0,2:0:0:0:
34,182,28602,1,8,2:0:0:0:
125,120,28977,1,0,3:0:0:0:
214,184,29352,1,8,2:0:0:0:
167,283,29727,2,0,P|186:364|288:310,1,220,0|4,2:0|3:2,2:0:0:0:
394,290,30852,5,8,2:0:0:0:
394,290,31039,1,0,3:0:0:0:
327,209,31414,1,0,3:0:0:0:
327,209,31602,2,0,P|314:173|303:136,1,55,8|0,2:0|2:0,2:0:0:0:
333,107,31977,1,0,3:0:0:0:
254,29,32352,2,0,P|203:20|138:11,1,110,8|0,2:0|2:0,2:0:0:0:
64,86,33102,2,0,P|31:94|-3:97,2,55,8|8|0,2:0|3:2|3:0,2:0:0:0:
98,128,33664,6,0,B|115:181|115:181|79:230,1,110,0|0,2:0|3:0,2:0:0:0:
53,271,34227,2,0,P|20:263|-14:260,2,55,0|0|8,2:0|3:0|2:0,2:0:0:0:
117,359,34977,1,0,3:0:0:0:
217,314,35352,1,8,2:0:0:0:
309,254,35727,2,2,B|366:246|366:246|409:275|409:275|456:267|456:267|516:301,1,220,2|6,2:0|2:0,2:0:0:0:
306,344,42477,6,0,P|316:286|323:221,1,110,12|8,2:0|2:0,2:0:0:0:
423,192,43227,2,0,P|433:134|440:69,1,110,12|8,2:0|2:0,2:0:0:0:
338,0,43977,2,0,P|280:10|215:17,1,110,12|8,2:0|2:0,2:0:0:0:
187,117,44727,2,0,P|129:127|64:134,1,110,12|8,2:0|2:0,2:0:0:0:
2,212,45477,1,12,2:0:0:0:
256,192,45664,12,4,46977,3:2:0:0:
0,0,48477,5,6,3:1:0:0:
109,51,48852,1,2,2:1:0:0:
156,150,49227,1,10,2:1:0:0:
149,259,49602,1,2,3:1:0:0:
86,349,49977,2,0,P|55:348|17:333,2,55,2|2|2,2:0|3:2|2:0,2:0:0:0:
199,384,50727,1,10,2:1:0:0:
199,384,50914,1,2,3:1:0:0:
199,384,51102,1,10,2:1:0:0:
262,294,51477,5,6,3:1:0:0:
359,244,51852,1,2,2:1:0:0:
452,301,52227,2,0,P|463:329|464:370,2,55,10|0|2,2:1|2:0|3:1,2:0:0:0:
498,201,52977,2,0,P|509:172|510:131,1,55,2|2,2:0|3:2,2:0:0:0:
475,106,53352,2,0,P|446:94|405:93,1,55,2|2,2:0|3:2,2:0:0:0:
383,128,53727,1,10,2:1:0:0:
383,128,53914,1,2,3:1:0:0:
383,128,54102,1,10,2:1:0:0:
301,202,54477,5,0,3:0:0:0:
301,202,54664,2,0,L|239:190,2,55,2|2|2,2:1|2:1|3:1,2:0:0:0:
334,246,55227,2,0,P|325:296|283:347,1,110,10|0,2:1|3:0,2:0:0:0:
181,364,55977,2,0,P|152:375|111:376,1,55,2|2,2:1|3:1,2:0:0:0:
86,341,56352,2,0,P|74:312|73:271,1,55,2|2,2:1|3:1,2:0:0:0:
108,249,56727,1,10,2:1:0:0:
108,249,56914,1,2,2:1:0:0:
108,249,57102,1,10,2:1:0:0:
212,213,57477,5,0,3:0:0:0:
252,176,57664,1,2,2:0:0:0:
260,121,57852,2,0,B|248:81|248:81|207:54,1,82.5,2|2,2:0|2:0,2:0:0:0:
88,8,58602,1,0,3:0:0:0:
9,84,58977,2,0,B|7:143|7:143|59:178,1,110,2|2,2:0|2:0,2:0:0:0:
102,184,59539,1,2,3:2:0:0:
111,238,59727,1,10,2:0:0:0:
187,316,60102,2,0,P|215:312|248:310,1,55,10|8,2:0|3:2,2:0:0:0:
275,354,60477,5,4,3:0:0:0:
392,352,60852,1,4,3:0:0:0:
479,284,61227,1,4,3:0:0:0:
492,174,61602,1,2,3:2:0:0:
451,71,61977,5,6,3:1:0:0:
334,187,62539,1,2,3:1:0:0:
334,187,62727,2,0,P|277:186|240:137,1,110,2|10,2:1|2:1,2:0:0:0:
247,94,63289,2,0,P|246:37|197:0,2,110,2|2|2,2:1|2:1|3:1,2:0:0:0:
200,124,64227,2,0,P|171:120|133:120,1,55,2|2,2:1|3:1,2:0:0:0:
99,150,64602,2,0,P|71:157|35:172,1,55,10|2,2:1|3:1,2:0:0:0:
25,218,64977,5,6,3:1:0:0:
105,368,65539,1,2,3:1:0:0:
105,368,65727,2,0,P|162:367|199:318,1,110,2|2,2:1|2:1,2:0:0:0:
199,275,66289,2,0,P|198:218|149:181,1,110,2|2,2:1|2:1,2:0:0:0:
76,113,67039,1,2,3:1:0:0:
109,69,67227,2,0,P|112:39|122:3,1,55,2|2,2:1|2:1,2:0:0:0:
173,0,67602,2,0,P|202:3|238:13,1,55,10|10,2:1|3:1,2:0:0:0:
266,48,67977,5,6,3:1:0:0:
416,128,68539,1,2,3:1:0:0:
416,128,68727,2,0,P|415:185|366:222,1,110,2|10,2:1|2:1,2:0:0:0:
339,257,69289,1,2,2:1:0:0:
251,324,69664,1,2,2:1:0:0:
148,282,70039,1,2,3:1:0:0:
148,282,70227,2,0,P|152:253|152:215,1,55,2|2,2:1|3:1,2:0:0:0:
153,172,70602,2,0,P|146:144|131:108,1,55,10|10,2:1|3:1,2:0:0:0:
97,81,70977,5,6,3:1:0:0:
97,81,71164,1,2,2:0:0:0:
97,81,71352,2,0,P|136:69|181:65,1,82.5,2|2,2:0|2:0,2:0:0:0:
312,39,72102,2,0,P|340:30|367:23,2,55,8|0|2,2:0|2:0|3:2,2:0:0:0:
259,135,72852,2,0,P|267:163|274:190,1,55,2|0,2:0|3:0,2:0:0:0:
314,225,73227,1,2,2:0:0:0:
229,294,73602,2,0,P|220:322|213:349,1,55,10|8,2:0|3:2,2:0:0:0:
171,382,73977,6,0,P|170:322|163:256,1,110,4|4,3:0|3:0,2:0:0:0:
140,164,74727,1,4,3:0:0:0:
43,110,75102,1,4,3:0:0:0:
122,33,75477,6,0,P|194:38|351:53,1,220,4|0,3:2|2:0,2:0:0:0:
432,123,76602,1,8,2:0:0:0:
432,123,76977,2,0,P|424:174|409:236,1,110,0|8,3:0|2:0,2:0:0:0:
459,329,77727,1,0,2:0:0:0:
354,364,78102,2,0,L|281:340,1,55,8|8,2:0|3:2,2:0:0:0:
260,310,78477,6,0,P|255:238|241:140,1,165,0|0,3:0|3:0,2:0:0:0:
205,104,79227,1,2,2:0:0:0:
205,104,79414,1,0,3:0:0:0:
100,127,79789,1,0,2:0:0:0:
100,127,79977,2,0,B|65:177|65:177|84:241,1,110,2|10,3:2|2:0,2:0:0:0:
9,315,80727,1,2,2:0:0:0:
103,370,81102,2,0,P|139:357|176:346,1,55,12|8,2:0|3:2,2:0:0:0:
208,364,81477,6,0,P|271:283|198:171,1,220,4|0,3:2|2:0,2:0:0:0:
150,106,82602,1,8,2:0:0:0:
217,19,82977,2,0,P|268:27|330:42,1,110,0|8,3:0|2:0,2:0:0:0:
432,16,83727,1,0,2:0:0:0:
490,108,84102,2,0,L|514:181,1,55,8|8,2:0|3:2,2:0:0:0:
494,213,84477,6,0,P|423:230|376:236,1,110,0|8,3:0|2:0,2:0:0:0:
331,234,85039,1,0,3:0:0:0:
289,270,85227,2,0,L|313:343,1,55,2|0,2:0|3:0,2:0:0:0:
210,377,85789,1,0,2:0:0:0:
173,335,85977,2,0,B|161:281|161:281|206:232,1,110,2|10,3:2|2:0,2:0:0:0:
294,180,86727,2,0,P|281:144|270:107,1,55,2|0,2:0|3:0,2:0:0:0:
249,79,87102,2,0,P|213:66|176:55,1,55,12|8,2:0|3:2,2:0:0:0:
157,22,87477,6,0,P|73:33|119:141,1,220,6|2,3:2|2:0,2:0:0:0:
167,225,88602,2,0,P|144:265|193:286,1,110,8|2,2:0|3:2,2:0:0:0:
280,350,89352,2,0,P|268:370|292:380,2,55,8|0|2,2:0|3:0|2:0,2:0:0:0:
325,319,89914,1,2,3:2:0:0:
325,319,90102,2,0,P|355:309|398:301,2,55,10|8|2,2:0|3:2|3:2,2:0:0:0:
297,212,90852,6,0,P|274:172|323:151,1,110,8|2,2:0|2:0,2:0:0:0:
410,87,91602,2,0,P|398:67|422:57,2,55,8|0|2,2:0|2:0|3:2,2:0:0:0:
459,185,92352,2,0,P|489:195|532:203,2,55,8|0|2,2:0|3:0|2:0,2:0:0:0:
413,212,92914,1,0,2:0:0:0:
413,212,93102,2,0,P|403:242|395:285,1,55,10|8,2:0|3:2,2:0:0:0:
409,318,93477,1,6,3:2:0:0:
319,382,93852,6,0,P|291:366|250:350,1,55,8|0,2:0|3:0,2:0:0:0:
216,357,94227,1,2,2:0:0:0:
258,255,94602,2,0,P|242:227|226:186,1,55,8|0,2:0|2:0,2:0:0:0:
233,152,94977,1,2,3:2:0:0:
260,45,95352,2,0,P|232:29|191:13,1,55,8|0,2:0|3:0,2:0:0:0:
157,20,95727,2,0,P|141:47|125:88,1,55,2|0,2:0|3:0,2:0:0:0:
121,123,96102,2,0,P|93:138|52:154,1,55,10|8,2:0|3:2,2:0:0:0:
17,142,96477,5,2,3:2:0:0:
70,297,97039,1,2,3:1:0:0:
225,241,97602,2,0,P|252:225|293:209,1,55,8|0,2:0|2:0,2:0:0:0:
329,222,97977,1,0,3:0:0:0:
457,118,98539,1,2,3:1:0:0:
446,63,98727,2,0,B|400:28|400:28|348:32|348:32|311:3|311:3|242:3,1,220,2|6,2:0|2:0,2:0:0:0:
206,40,105477,6,0,P|196:98|189:163,1,110,12|8,2:0|2:0,2:0:0:0:
89,192,106227,1,12,2:0:0:0:
104,300,106602,1,8,2:0:0:0:
174,384,106977,2,0,P|232:374|297:367,1,110,12|8,2:0|2:0,2:0:0:0:
325,267,107727,1,12,2:0:0:0:
433,251,108102,1,8,2:0:0:0:
510,172,108477,1,12,2:0:0:0:
256,192,108664,12,4,109977,3:2:0:0:
512,384,111477,5,6,3:1:0:0:
439,301,111852,1,2,2:1:0:0:
339,253,112227,1,10,2:1:0:0:
229,255,112602,1,2,3:1:0:0:
164,166,112977,2,0,P|125:115|169:51,1,110,2|2,2:0|2:0,2:0:0:0:
164,29,113539,1,2,3:2:0:0:
164,29,113727,2,0,P|193:33|235:48,1,55,10|2,2:1|3:1,2:0:0:0:
271,24,114102,1,10,2:1:0:0:
377,46,114477,5,6,3:1:0:0:
375,155,114852,1,2,2:1:0:0:
460,224,115227,2,0,P|489:220|526:202,2,55,10|0|2,2:1|2:0|3:1,2:0:0:0:
361,274,115977,2,0,P|372:303|373:344,1,55,2|2,2:0|3:2,2:0:0:0:
338,369,116352,2,0,P|309:381|268:382,1,55,2|2,2:0|3:2,2:0:0:0:
246,347,116727,1,10,2:1:0:0:
246,347,116914,1,2,3:1:0:0:
246,347,117102,1,10,2:1:0:0:
160,287,117477,5,0,3:0:0:0:
160,287,117664,2,0,L|98:299,2,55,2|2|2,2:1|2:1|3:1,2:0:0:0:
193,243,118227,2,0,P|184:193|142:142,1,110,10|0,2:1|3:0,2:0:0:0:
95,133,118789,1,2,2:1:0:0:
63,87,118977,2,0,P|30:91|2:103,2,55,2|2|2,2:1|3:1|2:1,2:0:0:0:
144,13,119727,1,10,2:1:0:0:
144,13,119914,1,2,2:1:0:0:
144,13,120102,1,10,2:1:0:0:
242,84,120477,5,0,3:0:0:0:
242,84,120664,1,2,2:0:0:0:
242,84,120852,2,0,B|231:177,1,82.5,2|2,2:0|2:0,2:0:0:0:
150,273,121602,2,0,P|121:259|85:249,1,55,0|0,3:0|2:0,2:0:0:0:
62,292,121977,5,0,3:0:0:0:
126,381,122352,1,0,3:0:0:0:
235,382,122727,1,0,3:0:0:0:
308,300,123102,2,0,P|321:272|329:237,1,55,4|0,3:0|0:0,0:0:0:0:
312,195,123477,5,6,3:1:0:0:
412,149,123852,1,10,2:1:0:0:
419,39,124227,1,2,2:1:0:0:
314,5,124602,1,10,2:1:0:0:
252,95,124977,2,0,P|226:103|192:105,1,55,2|2,3:2|2:0,2:0:0:0:
163,147,125352,2,0,P|135:147|102:139,1,55,2|2,2:0|3:2,2:0:0:0:
91,89,125727,2,0,P|82:63|63:34,1,55,2|2,2:1|3:1,2:0:0:0:
15,23,126102,1,10,2:1:0:0:
4,132,126477,6,0,P|19:184|31:263,1,110,6|10,3:1|2:1,2:0:0:0:
49,346,127227,2,2,P|23:359|-17:366,2,55,2|2|10,2:1|3:1|2:1,2:0:0:0:
139,283,127977,2,0,P|162:263|201:248,1,55,2|2,3:2|2:0,2:0:0:0:
236,274,128352,2,0,P|256:297|271:335,1,55,2|2,2:0|3:2,2:0:0:0:
246,368,128727,1,2,2:1:0:0:
246,368,128914,1,2,3:1:0:0:
246,368,129102,2,0,P|266:344|360:339,1,110,10|6,2:1|3:1,2:0:0:0:
428,264,129852,6,0,P|458:255|499:249,2,55,10|2|2,2:1|3:1|2:1,2:0:0:0:
281,199,130789,1,2,2:1:0:0:
281,199,130977,2,0,P|248:203|220:215,2,55,2|2|2,3:1|2:1|2:1,2:0:0:0:
370,133,131727,1,2,2:1:0:0:
370,133,131914,1,2,3:1:0:0:
370,133,132102,2,0,L|344:17,1,110,10|8,2:1|2:0,2:0:0:0:
292,14,132664,5,2,2:0:0:0:
269,64,132852,2,0,P|229:73|182:75,1,82.5,2|2,2:0|2:0,2:0:0:0:
89,171,133602,2,0,B|94:230|94:230|137:266,1,110,10|2,2:1|2:0,2:0:0:0:
496,14,135477,5,4,3:0:0:0:
469,120,135852,1,4,3:0:0:0:
373,175,136227,1,4,3:0:0:0:
337,279,136602,1,2,3:2:0:0:
368,384,136977,5,6,3:1:0:0:
211,350,137539,1,2,2:1:0:0:
211,350,137727,2,0,P|154:349|117:300,1,110,2|10,3:1|2:1,2:0:0:0:
65,312,138289,1,2,2:1:0:0:
6,218,138664,1,2,2:1:0:0:
57,122,139039,1,2,2:1:0:0:
57,122,139227,2,0,P|83:108|119:96,1,55,2|2,3:1|2:1,2:0:0:0:
157,123,139602,2,0,P|185:116|221:101,1,55,10|10,2:1|2:1,2:0:0:0:
218,52,139977,5,6,3:1:0:0:
382,16,140539,1,2,2:1:0:0:
382,16,140727,2,0,P|439:17|476:66,1,110,2|10,3:1|2:1,2:0:0:0:
490,106,141289,2,0,P|489:163|440:200,1,110,2|2,2:1|2:1,2:0:0:0:
371,271,142039,1,2,2:1:0:0:
338,315,142227,2,0,P|335:345|325:381,1,55,2|2,3:1|2:1,2:0:0:0:
274,384,142602,2,0,P|245:381|209:371,1,55,10|10,2:1|2:1,2:0:0:0:
181,336,142977,5,6,3:1:0:0:
265,196,143539,1,2,2:1:0:0:
265,196,143727,2,0,P|264:139|215:102,1,110,2|10,3:1|2:1,2:0:0:0:
172,97,144289,1,2,2:1:0:0:
87,27,144664,1,2,2:1:0:0:
30,122,145039,1,2,2:1:0:0:
30,122,145227,2,0,P|26:151|26:189,1,55,2|2,3:1|2:1,2:0:0:0:
25,232,145602,2,0,P|32:260|47:296,1,55,10|10,2:1|2:1,2:0:0:0:
41,347,145977,5,6,3:1:0:0:
41,347,146164,1,2,2:0:0:0:
41,347,146352,2,0,P|80:335|125:331,1,82.5,10|2,2:0|2:0,2:0:0:0:
250,379,147102,2,0,P|278:370|305:363,1,55,10|2,2:0|2:0,2:0:0:0:
340,323,147477,1,2,3:1:0:0:
258,249,147852,2,0,P|250:221|243:194,1,55,2|2,3:1|2:1,2:0:0:0:
291,169,148227,2,0,P|300:141|307:114,1,55,2|2,3:1|2:1,2:0:0:0:
265,79,148602,1,2,3:1:0:0:
176,13,148977,6,0,P|116:23|7:62,1,165,0|0,3:0|3:0,2:0:0:0:
3,110,149727,1,8,2:0:0:0:
27,217,150102,2,0,P|135:200|242:137,1,220,0|2,3:0|3:2,2:0:0:0:
288,52,151227,1,8,2:0:0:0:
396,67,151602,2,0,P|418:124|429:180,1,110,2|0,2:0|3:0,2:0:0:0:
327,367,152727,5,8,2:0:0:0:
219,352,153102,2,0,P|189:258|179:132,1,220,0|0,3:0|3:0,2:0:0:0:
246,50,154227,2,0,P|278:41|308:36,1,55,8|8,2:0|2:0,2:0:0:0:
352,50,154602,2,0,P|361:82|366:112,1,55,8|8,2:0|2:0,2:0:0:0:
383,155,154977,6,0,P|441:147|503:147,1,110,10|8,3:2|2:0,2:0:0:0:
496,256,155727,2,0,P|441:263|386:264,1,110,8|8,2:0|3:2,2:0:0:0:
276,268,156477,2,0,P|284:326|284:388,1,110,10|8,2:0|3:2,2:0:0:0:
175,381,157227,2,0,P|167:326|166:271,1,110,8|10,2:0|2:0,2:0:0:0:
111,175,157977,6,0,P|84:168|42:158,1,55,10|10,3:2|2:0,2:0:0:0:
19,121,158352,2,0,P|25:94|36:52,1,55,10|10,2:0|3:2,2:0:0:0:
81,41,158727,2,0,B|106:48|106:48|127:27|127:27|151:39|151:39|172:21|172:21|197:30|197:30|214:12|214:12|245:24|245:24|268:3|268:3,1,220,8|0,2:0|2:0,2:0:0:0:
256,192,159664,12,4,160977,3:2:0:0:
256,192,169977,12,0,171477,3:0:0:0:
110,200,172977,5,6,3:1:0:0:
10,154,173352,1,10,2:1:0:0:
3,44,173727,1,2,2:1:0:0:
108,10,174102,1,10,2:1:0:0:
170,100,174477,2,0,P|196:108|230:110,1,55,2|2,3:2|2:0,2:0:0:0:
259,152,174852,2,0,P|287:152|320:144,1,55,2|2,2:0|3:2,2:0:0:0:
331,94,175227,1,2,2:1:0:0:
354,44,175414,1,2,3:1:0:0:
407,28,175602,1,10,2:1:0:0:
495,93,175977,6,0,P|484:146|468:199,1,110,6|10,3:1|2:1,2:0:0:0:
501,315,176727,1,2,2:1:0:0:
501,315,176914,1,2,3:1:0:0:
501,315,177102,1,10,2:1:0:0:
393,290,177477,2,0,P|370:270|331:255,1,55,2|2,3:2|2:0,2:0:0:0:
296,281,177852,2,0,P|276:304|261:342,1,55,2|2,2:0|3:2,2:0:0:0:
286,375,178227,1,2,2:1:0:0:
286,375,178414,1,2,3:1:0:0:
286,375,178602,2,0,P|266:351|172:346,1,110,10|6,2:1|3:1,2:0:0:0:
139,352,179164,5,2,2:1:0:0:
116,301,179352,2,0,P|86:292|45:286,2,55,10|2|2,2:1|3:1|2:1,2:0:0:0:
248,201,180289,1,2,2:1:0:0:
248,201,180477,2,0,P|281:205|309:217,2,55,2|2|2,3:1|2:1|2:1,2:0:0:0:
199,175,181039,1,2,3:1:0:0:
199,175,181227,2,0,P|166:179|138:191,1,55,2|2,2:1|3:1,2:0:0:0:
99,157,181602,2,0,L|123:40,1,110,10|8,2:1|2:0,2:0:0:0:
170,26,182164,5,2,2:0:0:0:
218,0,182352,2,0,P|255:16|294:42,1,82.5,2|2,2:0|2:0,2:0:0:0:
376,145,183102,2,0,P|408:136|443:119,1,55,10|2,2:1|2:1,2:0:0:0:
450,76,183477,1,2,2:0:0:0:
16,14,184977,5,4,3:0:0:0:
43,120,185352,1,4,3:0:0:0:
139,175,185727,1,4,3:0:0:0:
175,279,186102,1,2,3:2:0:0:
144,384,186477,5,6,3:1:0:0:
305,339,187039,1,2,2:1:0:0:
305,339,187227,1,2,3:1:0:0:
419,346,187602,1,10,2:1:0:0:
419,346,187789,1,2,2:1:0:0:
488,261,188164,1,2,2:1:0:0:
499,151,188539,1,2,2:1:0:0:
454,118,188727,2,0,P|425:102|392:92,1,55,2|2,3:1|2:1,2:0:0:0:
355,123,189102,2,0,P|327:116|291:101,1,55,10|10,2:1|2:1,2:0:0:0:
294,52,189477,5,6,3:1:0:0:
130,16,190039,1,2,2:1:0:0:
130,16,190227,2,0,P|73:17|36:66,1,110,2|10,3:1|2:1,2:0:0:0:
22,106,190789,2,0,P|23:163|72:200,1,110,2|2,2:1|2:1,2:0:0:0:
141,271,191539,1,2,2:1:0:0:
174,315,191727,2,0,P|177:345|187:381,1,55,2|2,3:1|2:1,2:0:0:0:
238,384,192102,1,10,2:1:0:0:
292,374,192289,1,10,2:1:0:0:
331,336,192477,5,6,3:1:0:0:
247,196,193039,1,2,2:1:0:0:
222,146,193227,1,2,3:1:0:0:
256,41,193602,1,10,2:1:0:0:
309,56,193789,1,2,2:1:0:0:
413,22,194164,1,2,2:1:0:0:
500,89,194539,2,0,P|507:123|509:159,1,55,2|2,2:1|3:1,2:0:0:0:
467,180,194914,1,2,2:1:0:0:
487,232,195102,2,0,P|480:260|465:296,1,55,10|10,2:1|2:1,2:0:0:0:
471,347,195477,5,6,3:1:0:0:
471,347,195664,1,2,2:0:0:0:
471,347,195852,2,0,P|432:335|387:331,1,82.5,10|2,2:0|2:0,2:0:0:0:
262,379,196602,2,0,P|234:370|207:363,1,55,10|2,2:0|2:0,2:0:0:0:
172,323,196977,1,4,3:0:0:0:
254,249,197352,2,0,P|262:221|269:194,1,55,4|0,3:0|2:0,2:0:0:0:
221,169,197727,1,4,3:0:0:0:
301,94,198102,2,0,P|293:66|286:39,1,55,4|8,3:0|3:2,2:0:0:0:
328,5,198477,1,4,3:0:0:0:
256,192,198664,12,4,199977,3:0:0:0:
