osu file format v14

[General]
AudioFilename: peekaboo.mp3
AudioLeadIn: 0
PreviewTime: 141113
Countdown: 0
SampleSet: Soft
StackLeniency: 0.4
Mode: 0
LetterboxInBreaks: 0
WidescreenStoryboard: 1

[Editor]
Bookmarks: 9634,26330,43026,43939,59721,84765,109808,126504,143200,159895,176591
DistanceSpacing: 0.5
BeatDivisor: 4
GridSize: 32
TimelineZoom: 1

[Metadata]
Title:Peek-A-Boo
TitleUnicode:피카부
Artist:Red Velvet
ArtistUnicode:레드벨벳
Creator:Lutetia
Version:Kaine x Jace's Insane
Source:
Tags:Perfect Velvet SM Entertainment korean pop k-pop kpop 아이린 IRENE 슬기 SEULGI 웬디 WENDY 조이 JOY 예리 YERI cheesecake kaine jace jacezero hobbes2
BeatmapID:1542756
BeatmapSetID:701658

[Difficulty]
HPDrainRate:6
CircleSize:4
OverallDifficulty:8
ApproachRate:9
SliderMultiplier:2.2
SliderTickRate:1

[Events]
//Background and Video events
0,0,"asdasdffsddsds.png",0,0
//Break Periods
//Storyboard Layer 0 (Background)
//Storyboard Layer 1 (Fail)
//Storyboard Layer 2 (Pass)
//Storyboard Layer 3 (Foreground)
//Storyboard Layer 4 (Overlay)
//Storyboard Sound Samples

[TimingPoints]
1276,521.739130434783,4,2,0,65,1,0
1276,-200,4,2,0,65,0,0
9623,-100,4,2,0,75,0,0
26319,-200,4,2,0,65,0,0
34667,-133.333333333333,4,2,0,65,0,0
42232,-100,4,2,0,70,0,0
43015,-86.9565217391304,4,2,0,80,0,1
59710,-86.9565217391304,4,2,0,75,0,0
60754,-117.647058823529,4,2,0,75,0,0
75884,-200,4,2,0,75,0,0
76406,-100,4,2,0,75,0,0
93102,-200,4,2,0,65,0,0
101449,-133.333333333333,4,2,0,65,0,0
109015,-100,4,2,0,70,0,0
109797,-86.9565217391304,4,2,0,80,0,1
126493,-133.333333333333,4,2,0,80,0,0
126754,-133.333333333333,4,2,0,65,0,0
134841,-133.333333333333,4,2,0,70,0,0
142406,-100,4,2,0,75,0,0
143189,-83.3333333333333,4,2,0,85,0,1
158841,-83.3333333333333,4,2,0,80,0,0
159102,-133.333333333333,4,2,0,70,0,0
159362,-100,4,2,0,75,0,0
159623,-80,4,2,0,85,0,0
159884,-86.9565217391304,4,2,0,90,0,1
168232,-80,4,2,0,90,0,1
176580,-80,4,2,0,90,0,0

[Colours]
Combo1 : 253,94,94
Combo2 : 232,237,244
Combo3 : 248,232,118
Combo4 : 120,170,245

[HitObjects]
26,67,9623,6,0,P|85:75|159:51,1,110,4|0,3:0|0:0,0:0:0:0:
178,44,10015,2,0,P|237:35|311:60,1,110,4|0,3:0|0:0,0:0:0:0:
311,74,10406,1,8,0:0:0:0:
488,157,10667,6,0,P|428:148|355:173,1,110,4|0,3:0|0:0,0:0:0:0:
336,180,11059,2,0,P|276:188|203:164,1,110,4|0,3:0|0:0,0:0:0:0:
203,150,11450,1,8,0:0:0:0:
137,294,11710,6,0,L|288:304,1,110,4|0,3:0|0:0,0:0:0:0:
61,237,12102,2,0,P|43:300|59:348,1,110,4|0,3:0|0:0,0:0:0:0:
74,365,12493,1,8,0:0:0:0:
356,308,12754,6,0,L|205:298,1,110,4|0,3:0|0:0,0:0:0:0:
432,365,13146,2,0,P|450:302|434:254,1,110,4|0,3:0|0:0,0:0:0:0:
419,237,13537,1,8,0:0:0:0:
262,116,13797,6,0,L|250:19,2,73.3333333333333,4|0|0,3:0|0:0|0:0,0:0:0:0:
174,172,14319,2,0,L|162:269,2,73.3333333333333
103,309,14841,6,0,P|152:333|225:305,1,110,4|0,3:0|0:0,0:0:0:0:
245,297,15232,2,0,P|297:286|346:310,1,110,4|0,3:0|0:0,0:0:0:0:
374,346,15623,1,8,0:0:0:0:
480,154,15884,6,0,P|431:178|358:150,1,110,4|0,3:0|0:0,0:0:0:0:
338,142,16276,2,0,P|285:131|236:155,1,110,4|0,0:3|0:0,0:0:0:0:
209,191,16667,6,0,L|125:183,1,55
52,268,16928,2,0,L|107:263,1,55,4|0,3:0|0:0,0:0:0:0:
198,35,17189,2,0,L|114:27,1,55,0|4,0:0|3:0,0:0:0:0:
0,117,17450,2,0,L|145:106,1,110,0|8,0:0|0:0,0:0:0:0:
448,132,17971,6,0,P|456:68|432:17,1,110,6|2,3:0|0:0,0:0:0:0:
274,39,18362,2,0,P|266:103|290:154,1,110,4|0,3:0|0:0,0:0:0:0:
305,165,18754,1,8,0:0:0:0:
202,269,19015,6,0,P|210:333|186:384,1,110,4|0,3:0|0:0,0:0:0:0:
28,362,19406,2,0,P|20:298|44:247,1,110,4|2,3:0|0:0,0:0:0:0:
59,236,19798,1,10,0:0:0:0:
125,93,20058,6,0,L|-16:98,1,110,6|2,3:0|0:0,0:0:0:0:
213,25,20449,2,0,P|233:87|210:158,1,110,4|0,3:0|0:0,0:0:0:0:
212,157,20841,1,8,0:0:0:0:
392,294,21102,6,0,L|533:289,1,110,4|0,3:0|0:0,0:0:0:0:
293,227,21493,2,0,P|273:289|296:360,1,110,4|2,3:0|0:0,0:0:0:0:
294,359,21884,1,10,0:0:0:0:
456,186,22145,6,0,L|464:101,1,55,4|0,3:0|0:0,0:0:0:0:
394,65,22406,2,0,L|402:-20,1,55,0|4,0:0|3:0,0:0:0:0:
356,163,22667,2,0,L|348:248,1,55
288,96,22928,2,0,L|294:42,1,55,8|0,0:0|0:0,0:0:0:0:
202,189,23189,6,0,P|238:192|272:183,1,55,4|0,3:0|0:0,0:0:0:0:
100,152,23449,2,0,P|64:149|30:158,1,55,2|0,0:0|0:0,0:0:0:0:
119,313,23710,2,0,P|122:277|113:243,1,55
194,73,23971,6,0,P|241:110|310:38,1,165,8|0,0:0|0:0,0:0:0:0:
480,134,24493,2,0,P|433:97|364:169,1,165,2|0,0:0|0:0,0:0:0:0:
365,192,25015,1,8,0:0:0:0:
289,331,25276,6,0,L|162:326,1,110,2|2,0:0|0:0,0:0:0:0:
76,260,25667,2,0,P|90:310|56:381,1,110,4|0,3:0|0:0,0:0:0:0:
55,379,26058,1,8,0:0:0:0:
55,379,26319,6,0,L|109:381,1,55,2|0,0:0|0:0,0:0:0:0:
179,326,26710,2,0,L|267:329,1,82.5
347,310,27232,6,0,P|348:336|339:368,1,55,2|0,0:0|0:0,0:0:0:0:
287,244,27623,2,0,P|320:222|369:223,1,82.5
429,278,28145,1,2,0:0:0:0:
429,278,28406,6,0,P|445:255|451:228,1,55,2|0,0:0|0:0,0:0:0:0:
413,147,28797,2,0,P|419:108|448:73,1,82.5
390,18,29319,6,0,L|328:20,1,55,2|0,0:0|0:0,0:0:0:0:
254,102,29710,2,0,L|344:99,1,82.5,2|0,0:0|0:0,0:0:0:0:
185,49,30232,1,2,0:0:0:0:
185,48,30493,6,0,P|168:71|165:98,1,55,2|0,0:0|0:0,0:0:0:0:
133,174,30884,2,0,P|89:141|84:88,1,110,0|2,0:0|0:0,0:0:0:0:
214,162,31536,6,0,B|221:189|221:189|213:219,1,55,2|0,0:0|0:0,0:0:0:0:
41,283,31928,2,0,B|50:254|50:254|74:235,1,55
252,287,32319,2,0,B|226:302|226:302|196:303,1,55,2|0,0:0|0:0,0:0:0:0:
83,158,32710,2,0,B|112:157|112:157|136:174,1,55
145,362,33102,2,0,B|120:343|120:343|111:313,1,55,2|2,0:0|0:0,0:0:0:0:
146,249,33493,6,0,L|204:218,1,55
280,214,33884,2,0,P|274:262|236:294,1,82.5,2|0,0:0|0:0,0:0:0:0:
230,145,34406,1,2,0:0:0:0:
230,145,34536,1,2,0:0:0:0:
365,217,34667,1,2,0:0:0:0:
280,214,34928,5,0,0:0:0:0:
280,214,35058,2,0,L|322:131,1,82.5000031471254,2|0,0:0|0:0,0:0:0:0:
363,63,35450,1,0,0:0:0:0:
363,63,35580,2,0,L|413:140,1,82.5000031471254,2|0,0:0|0:0,0:0:0:0:
452,210,35972,1,10,0:0:0:0:
452,210,36102,2,0,L|359:215,1,82.5000031471254
280,214,36493,1,10,0:0:0:0:
280,214,36623,1,2,0:0:0:0:
408,132,36754,1,2,0:0:0:0:
415,283,37015,5,0,0:0:0:0:
415,283,37145,2,0,P|416:323|405:365,1,82.5000031471254,2|0,0:0|0:0,0:0:0:0:
260,318,37536,1,10,0:0:0:0:
260,318,37667,2,0,P|299:312|341:317,1,82.5000031471254,2|0,0:0|0:0,0:0:0:0:
187,363,38058,1,2,0:0:0:0:
187,363,38189,2,0,P|177:324|178:283,1,82.5000031471254
162,143,38580,1,2,0:0:0:0:
162,143,38710,1,2,0:0:0:0:
264,245,38841,6,0,B|273:205|273:205|266:163,1,82.5000031471254,2|8,0:0|0:0,0:0:0:0:
165,62,39232,2,0,B|156:102|156:102|162:143,1,82.5000031471254,2|0,0:0|0:0,0:0:0:0:
319,81,39623,2,0,B|290:81|290:81|266:92|266:92|238:92,1,82.5000031471254,8|0,0:0|0:0,0:0:0:0:
109,226,40015,2,0,B|138:226|138:226|162:215|162:215|189:215,1,82.5000031471254,2|0,0:0|0:0,0:0:0:0:
273,205,40406,6,0,L|267:164,1,41.2500015735627
157,101,40667,2,0,L|162:141,1,41.2500015735627,2|2,0:0|0:0,0:0:0:0:
200,294,40928,1,0,0:0:0:0:
256,192,41058,12,0,41971,0:0:0:0:
211,160,42232,5,2,0:0:0:0:
254,256,42362,1,0,0:0:0:0:
211,160,42623,5,2,0:0:0:0:
254,256,42753,1,2,0:0:0:0:
316,171,42884,1,2,0:0:0:0:
149,245,43015,6,0,L|60:240,1,63.250001206398,12|0,3:0|0:0,0:0:0:0:
42,145,43276,2,0,L|105:148,1,63.250001206398,10|4,0:0|3:0,0:0:0:0:
336,100,43536,2,0,L|247:95,1,63.250001206398,2|0,0:0|0:0,0:0:0:0:
228,0,43797,2,0,L|291:3,1,63.250001206398,10|0,1:2|0:0,0:0:0:0:
381,201,44058,6,0,L|362:365,1,126.500002412796,4|8,3:0|0:0,0:0:0:0:
357,121,44449,2,0,P|394:116|429:135,1,63.250001206398,4|0,3:0|0:0,0:0:0:0:
270,274,44710,1,2,0:0:0:0:
171,289,44841,1,10,0:0:0:0:
72,304,44971,1,2,0:0:0:0:
206,144,45102,6,0,P|212:169|210:214,1,63.250001206398,4|0,3:0|0:0,0:0:0:0:
99,104,45362,2,0,P|93:79|95:34,1,63.250001206398,10|4,0:0|3:0,0:0:0:0:
115,204,45623,2,0,P|90:210|45:208,1,63.250001206398,2|0,0:0|0:0,0:0:0:0:
200,37,45884,2,0,P|225:31|270:33,1,63.250001206398,10|0,1:2|0:0,0:0:0:0:
374,134,46145,6,0,L|393:-30,1,126.500002412796,4|8,3:0|0:0,0:0:0:0:
398,214,46536,2,0,P|361:219|326:200,1,63.250001206398,4|0,3:0|0:0,0:0:0:0:
273,302,46797,1,2,0:0:0:0:
364,304,46928,1,10,0:0:0:0:
454,305,47058,1,2,0:0:0:0:
194,258,47189,6,0,P|182:291|185:338,1,63.250001206398,4|0,3:0|0:0,0:0:0:0:
86,188,47449,2,0,P|97:221|95:268,1,63.250001206398,10|4,0:0|3:0,0:0:0:0:
203,95,47710,2,0,P|191:128|194:175,1,63.250001206398,2|0,0:0|0:0,0:0:0:0:
95,25,47971,2,0,P|106:58|104:105,1,63.250001206398,10|0,1:2|0:0,0:0:0:0:
282,134,48232,6,0,L|446:115,1,126.500002412796,4|8,3:0|0:0,0:0:0:0:
312,217,48623,2,0,P|276:222|234:207,1,63.250001206398,4|0,3:0|0:0,0:0:0:0:
156,161,48884,1,2,0:0:0:0:
158,260,49015,1,10,0:0:0:0:
160,359,49145,1,2,0:0:0:0:
94,166,49276,6,0,P|124:157|157:161,1,63.250001206398,6|0,3:0|0:0,0:0:0:0:
73,17,49536,2,0,P|81:47|78:80,1,63.250001206398,10|4,0:0|3:0,0:0:0:0:
233,20,49797,2,0,P|202:28|170:25,1,63.250001206398,2|0,0:0|0:0,0:0:0:0:
259,117,50058,2,0,P|298:112|345:126,1,63.250001206398,10|0,1:2|0:0,0:0:0:0:
418,91,50319,2,0,P|408:126|413:171,1,63.250001206398,12|0,3:0|0:0,0:0:0:0:
454,254,50580,5,2,0:0:0:0:
427,357,50710,1,4,3:0:0:0:
454,254,50971,5,2,0:0:0:0:
427,357,51102,1,10,0:0:0:0:
512,323,51232,1,2,0:0:0:0:
357,284,51362,6,0,P|337:308|326:341,1,63.250001206398,12|0,3:0|0:0,0:0:0:0:
219,272,51623,2,0,P|213:301|220:336,1,63.250001206398,10|4,0:0|3:0,0:0:0:0:
120,208,51884,2,0,P|129:179|152:153,1,63.250001206398,2|0,0:0|0:0,0:0:0:0:
39,94,52145,2,0,P|62:73|95:62,1,63.250001206398,10|0,1:2|0:0,0:0:0:0:
330,76,52406,6,0,L|183:60,1,126.500002412796,4|8,3:0|0:0,0:0:0:0:
417,18,52797,2,0,P|427:54|424:90,1,63.250001206398,4|0,3:0|0:0,0:0:0:0:
356,252,53058,5,2,0:0:0:0:
366,157,53189,1,10,0:0:0:0:
448,217,53319,1,2,0:0:0:0:
264,287,53449,6,0,L|173:284,1,63.250001206398,4|0,3:0|0:0,0:0:0:0:
35,341,53710,2,0,L|98:343,1,63.250001206398,10|4,0:0|3:0,0:0:0:0:
252,176,53971,2,0,L|161:173,1,63.250001206398,2|2,0:0|0:0,0:0:0:0:
23,230,54232,2,0,L|86:232,1,63.250001206398,10|0,1:2|0:0,0:0:0:0:
334,118,54493,6,0,P|346:175|325:253,1,126.500002412796,4|10,3:0|1:2,0:0:0:0:
238,82,54884,2,0,P|232:49|247:1,1,63.250001206398
472,70,55145,1,2,0:0:0:0:
464,169,55276,1,10,0:0:0:0:
452,265,55406,1,2,0:0:0:0:
334,118,55536,6,0,P|370:115|398:119,1,63.250001206398,4|0,3:0|0:0,0:0:0:0:
238,209,55797,2,0,P|201:211|174:208,1,63.250001206398,10|4,0:0|3:0,0:0:0:0:
331,211,56058,2,0,P|334:247|330:275,1,63.250001206398,2|2,0:0|0:0,0:0:0:0:
240,115,56319,2,0,P|238:78|241:51,1,63.250001206398,10|0,1:2|0:0,0:0:0:0:
400,313,56580,6,0,L|270:326,1,126.500002412796,4|10,3:0|0:0,0:0:0:0:
464,252,56971,2,0,P|479:283|478:340,1,63.250001206398,4|0,3:0|0:0,0:0:0:0:
164,384,57232,1,2,0:0:0:0:
176,286,57362,1,10,0:0:0:0:
190,192,57493,1,2,0:0:0:0:
283,43,57623,6,0,L|287:133,1,63.250001206398,4|0,3:0|0:0,0:0:0:0:
384,285,57884,2,0,L|381:221,1,63.250001206398,10|4,0:0|3:0,0:0:0:0:
289,206,58145,2,0,L|293:296,1,63.250001206398,2|0,0:0|0:0,0:0:0:0:
378,122,58406,2,0,L|376:59,1,63.250001206398,10|0,1:2|0:0,0:0:0:0:
0,86,58667,6,0,P|59:106|138:80,1,126.500002412796,12|10,3:0|0:2,0:0:0:0:
142,79,59058,2,0,P|202:65|262:85,1,126.500002412796,4|0,3:0|0:0,0:0:0:0:
291,109,59450,1,8,0:0:0:0:
291,109,59710,6,0,L|261:237,2,126.500002412796,4|0|2,3:0|0:0|0:0,0:0:0:0:
341,36,60493,1,8,0:0:0:0:
341,36,60623,1,0,0:0:0:0:
341,36,60754,6,0,P|372:74|372:128,1,93.500001783371,4|0,3:0|0:0,0:0:0:0:
291,109,61145,2,0,P|295:157|334:195,1,93.500001783371,8|0,3:0|0:0,0:0:0:0:
413,197,61536,2,0,P|404:232|388:250,1,46.7500008916855,8|0,0:0|0:0,0:0:0:0:
353,317,61797,5,4,3:0:0:0:
353,317,61928,1,0,0:0:0:0:
353,317,62058,1,0,0:0:0:0:
353,317,62189,2,0,L|244:320,1,93.500001783371,8|0,3:0|0:0,0:0:0:0:
177,357,62580,1,8,0:0:0:0:
177,357,62710,1,0,0:0:0:0:
177,357,62841,6,0,P|166:312|179:268,1,93.500001783371,4|0,3:0|0:0,0:0:0:0:
263,230,63232,2,0,P|273:274|260:318,1,93.500001783371,8|0,3:0|0:0,0:0:0:0:
85,279,63623,1,8,0:0:0:0:
85,279,63754,1,0,0:0:0:0:
85,279,63884,6,0,L|65:236,1,46.7500008916855,4|0,3:0|0:0,0:0:0:0:
126,152,64145,2,0,L|150:204,1,46.7500008916855,0|8,0:0|3:0,0:0:0:0:
179,267,64405,1,0,0:0:0:0:
91,78,64667,1,8,0:0:0:0:
91,78,64797,1,0,0:0:0:0:
91,78,64928,6,0,P|157:75|198:108,1,93.500001783371,4|0,3:0|0:0,0:0:0:0:
214,161,65319,2,0,P|168:168|125:151,1,93.500001783371,8|0,3:0|0:0,0:0:0:0:
261,94,65710,2,0,P|284:115|292:141,1,46.7500008916855,8|0,0:0|0:0,0:0:0:0:
292,220,65971,5,6,3:0:0:0:
292,220,66102,1,0,0:0:0:0:
292,220,66232,1,2,0:0:0:0:
292,220,66362,2,0,P|336:206|367:172,1,93.500001783371,8|0,3:0|0:0,0:0:0:0:
318,94,66754,2,0,P|295:115|287:141,1,46.7500008916855,8|0,0:0|0:0,0:0:0:0:
352,316,67015,6,0,P|391:345|465:331,1,93.500001783371,4|0,3:0|0:0,0:0:0:0:
487,203,67406,2,0,P|441:222|416:294,1,93.500001783371,8|0,3:0|0:0,0:0:0:0:
510,332,67797,2,0,P|512:307|488:278,1,46.7500008916855,8|0,0:0|0:0,0:0:0:0:
321,240,68058,6,0,P|297:239|275:256,1,46.7500008916855,4|0,3:0|0:0,0:0:0:0:
216,291,68319,2,0,P|226:311|247:321,1,46.7500008916855
314,356,68580,2,0,P|326:336|325:313,1,46.7500008916855
200,214,68841,1,8,0:0:0:0:
200,214,69102,6,0,L|188:121,1,93.500001783371,4|0,3:0|0:0,0:0:0:0:
101,102,69493,2,0,L|112:194,1,93.500001783371,8|0,3:0|0:0,0:0:0:0:
161,37,69884,1,10,0:0:0:0:
161,37,70145,6,0,P|187:31|213:36,1,46.7500008916855,4|0,3:0|0:0,0:0:0:0:
268,96,70406,2,0,P|293:102|319:97,1,46.7500008916855
375,37,70667,2,0,P|400:30|426:35,1,46.7500008916855
443,118,70928,1,8,0:0:0:0:
443,118,71189,6,0,L|445:235,1,93.500001783371,4|0,3:0|0:0,0:0:0:0:
365,252,71580,2,0,L|363:158,1,93.500001783371,8|2,3:0|0:0,0:0:0:0:
441,300,71971,1,10,0:0:0:0:
441,300,72232,6,0,P|427:321|401:335,1,46.7500008916855,4|0,3:0|0:0,0:0:0:0:
317,330,72493,1,0,0:0:0:0:
317,330,72623,2,0,P|259:318|211:335,1,93.500001783371,8|0,3:0|0:0,0:0:0:0:
133,369,73015,6,0,P|140:345|135:302,1,46.7500008916855,10|0,0:0|0:0,0:0:0:0:
110,212,73276,1,4,3:0:0:0:
110,212,73406,2,0,P|143:236|198:243,1,93.500001783371,0|8,0:0|3:0,0:0:0:0:
257,195,73797,6,0,P|271:229|269:266,1,46.7500008916855
184,164,74058,1,8,0:0:0:0:
184,164,74189,1,2,0:0:0:0:
184,164,74319,6,0,L|171:23,2,140.250002675057,4|0|8,3:0|0:0|0:0,0:0:0:0:
291,91,75884,6,0,B|336:100|336:100|389:88,1,82.5,6|0,0:0|0:0,0:0:0:0:
376,56,76406,6,0,P|386:91|373:131,1,55,4|0,3:0|0:0,0:0:0:0:
360,185,76667,1,2,0:0:0:0:
360,185,76797,2,0,P|346:237|356:291,1,110,4|0,3:0|0:0,0:0:0:0:
296,350,77189,1,8,0:0:0:0:
296,350,77449,6,0,P|344:376|397:366,1,110,4|0,3:0|0:0,0:0:0:0:
456,307,77841,2,0,P|408:281|355:291,1,110,4|6,3:0|0:0,0:0:0:0:
296,350,78232,1,8,0:0:0:0:
258,288,78362,1,4,0:0:0:0:
252,215,78493,6,0,P|250:187|257:161,1,55,4|0,3:0|0:0,0:0:0:0:
327,90,78754,1,0,0:0:0:0:
327,90,78884,2,0,P|341:142|326:198,1,110,4|0,3:0|0:0,0:0:0:0:
185,127,79276,1,8,0:0:0:0:
185,127,79536,6,0,P|171:103|147:90,1,55,4|0,3:0|0:0,0:0:0:0:
34,228,79797,1,0,0:0:0:0:
34,228,79928,2,0,P|85:210|115:165,1,110,4|4,3:0|0:0,0:0:0:0:
14,98,80319,2,0,P|24:132|44:151,1,55,8|0,0:0|0:0,0:0:0:0:
183,208,80580,6,0,L|288:220,2,73.3333333333333,4|0|0,3:0|0:0|0:0,0:0:0:0:
396,252,81102,2,0,L|291:264,2,73.3333333333333
266,319,81623,6,0,P|245:268|256:215,1,110,4|0,3:0|0:0,0:0:0:0:
314,156,82015,2,0,P|334:206|323:259,1,110,4|0,3:0|0:0,0:0:0:0:
232,135,82406,1,8,0:0:0:0:
232,135,82667,6,0,P|243:109|263:91,1,55,4|0,3:0|0:0,0:0:0:0:
346,81,82928,1,0,0:0:0:0:
346,81,83058,2,0,P|396:96|466:73,1,110,4|0,3:0|0:0,0:0:0:0:
453,4,83449,2,0,P|419:8|381:50,1,55,8|0,0:0|0:0,0:0:0:0:
468,162,83710,1,4,3:0:0:0:
468,162,83971,6,0,P|443:174|416:175,1,55,4|4,0:0|3:0,0:0:0:0:
395,254,84232,2,0,P|368:246|349:227,1,55
278,267,84493,2,0,P|264:242|264:215,1,55,8|0,0:0|0:0,0:0:0:0:
259,118,84754,6,0,P|236:120|198:113,1,55,6|0,3:0|0:0,0:0:0:0:
116,84,85015,1,2,0:0:0:0:
116,84,85145,2,0,L|109:215,1,110,4|0,3:0|0:0,0:0:0:0:
109,228,85536,1,8,0:0:0:0:
19,310,85797,6,0,L|142:315,1,110,4|0,3:0|0:0,0:0:0:0:
303,253,86189,2,0,L|193:248,1,110,4|2,3:0|0:0,0:0:0:0:
311,350,86580,1,10,0:0:0:0:
311,350,86710,1,2,0:0:0:0:
388,292,86841,6,0,P|396:261|384:213,1,55,6|0,3:0|0:0,0:0:0:0:
337,162,87102,1,2,0:0:0:0:
337,162,87232,2,0,L|346:49,1,110,4|0,3:0|0:0,0:0:0:0:
352,17,87623,1,8,0:0:0:0:
226,100,87884,6,0,P|175:109|108:90,1,110,4|0,3:0|0:0,0:0:0:0:
31,43,88276,2,0,L|28:120,1,55,4|0,3:0|0:0,0:0:0:0:
116,238,88536,6,0,L|118:183,1,55,6|10,0:0|0:0,0:0:0:0:
28,274,88797,1,2,0:0:0:0:
28,274,88928,2,0,P|75:318|185:292,1,165,4|4,3:0|3:0,0:0:0:0:
250,199,89449,2,0,L|253:263,1,55
264,363,89710,1,8,0:0:0:0:
378,285,89971,6,0,L|472:291,1,55,4|0,3:0|0:0,0:0:0:0:
501,204,90232,2,0,L|407:210,1,55,2|0,0:0|0:0,0:0:0:0:
388,118,90493,2,0,L|482:124,1,55
324,38,90754,6,0,P|288:89|333:203,1,165,8|0,0:0|0:0,0:0:0:0:
156,169,91276,2,0,P|192:118|147:4,1,165,2|0,0:0|0:0,0:0:0:0:
154,1,91797,1,8,0:0:0:0:
98,238,92058,6,0,P|160:259|225:232,1,110,2|2,0:0|0:0,0:0:0:0:
231,228,92449,2,0,P|284:219|347:250,1,110,4|0,3:0|0:0,0:0:0:0:
351,268,92841,1,8,0:0:0:0:
52,346,93102,6,0,L|43:267,1,55,2|0,0:0|0:0,0:0:0:0:
107,196,93493,2,0,L|121:292,1,82.5
31,188,94015,2,0,L|22:109,1,55,2|0,0:0|0:0,0:0:0:0:
110,43,94406,5,0,0:0:0:0:
126,37,94536,1,0,0:0:0:0:
139,32,94667,2,0,L|190:37,1,27.5
218,107,94928,5,2,0:0:0:0:
246,120,95058,1,2,0:0:0:0:
273,116,95189,2,0,L|352:107,1,55,2|0,0:0|0:0,0:0:0:0:
422,171,95580,2,0,L|326:184,1,82.5
431,95,96102,2,0,L|510:86,1,55,2|0,0:0|0:0,0:0:0:0:
398,251,96493,5,2,0:0:0:0:
395,252,96623,1,0,0:0:0:0:
392,253,96754,2,0,L|352:259,1,27.5,2|0,0:0|0:0,0:0:0:0:
259,296,97015,5,2,0:0:0:0:
250,295,97145,1,2,0:0:0:0:
241,292,97276,2,0,L|162:283,1,55,2|0,0:0|0:0,0:0:0:0:
72,336,97667,2,0,L|152:346,1,55
39,256,98058,5,0,0:0:0:0:
38,247,98189,1,2,0:0:0:0:
36,234,98319,2,0,L|31:182,1,27.5,2|0,0:0|0:0,0:0:0:0:
112,40,98710,2,0,L|115:68,1,27.5
180,226,99102,2,0,L|175:174,1,27.5,2|0,0:0|0:0,0:0:0:0:
256,32,99493,2,0,L|258:59,1,27.5
326,245,99884,2,0,L|321:190,1,55,2|2,0:0|0:0,0:0:0:0:
430,298,100406,5,2,0:0:0:0:
327,360,100667,1,2,0:0:0:0:
214,325,100928,2,0,L|177:327,1,27.5,2|0,0:0|0:0,0:0:0:0:
88,367,101189,1,2,0:0:0:0:
80,337,101319,1,2,0:0:0:0:
81,308,101449,1,2,0:0:0:0:
118,196,101710,5,0,0:0:0:0:
118,196,101841,2,0,L|109:81,1,82.5000031471254,2|0,0:0|0:0,0:0:0:0:
117,15,102232,1,0,0:0:0:0:
117,15,102363,2,0,L|221:64,1,82.5000031471254,2|0,0:0|0:0,0:0:0:0:
274,104,102753,1,10,0:0:0:0:
274,104,102884,2,0,L|178:169,1,82.5000031471254
202,251,103276,1,10,0:0:0:0:
202,251,103406,1,2,0:0:0:0:
169,107,103536,1,2,0:0:0:0:
445,84,103797,5,0,0:0:0:0:
445,84,103928,2,0,L|454:199,1,82.5000031471254,2|0,0:0|0:0,0:0:0:0:
446,265,104319,1,10,0:0:0:0:
446,265,104449,2,0,L|341:215,1,82.5000031471254,2|0,0:0|0:0,0:0:0:0:
289,176,104841,1,2,0:0:0:0:
289,176,104971,2,0,L|384:110,1,82.5000031471254
361,29,105363,1,2,0:0:0:0:
361,29,105493,1,2,0:0:0:0:
183,101,105623,6,0,L|89:93,1,82.5000031471254,2|8,0:0|0:0,0:0:0:0:
141,268,106015,2,0,L|224:275,1,82.5000031471254,2|0,0:0|0:0,0:0:0:0:
117,110,106406,2,0,L|45:171,1,82.5000031471254,8|0,0:0|0:0,0:0:0:0:
206,258,106798,2,0,L|269:204,1,82.5000031471254,2|0,0:0|0:0,0:0:0:0:
78,163,107189,6,0,L|72:234,1,41.2500015735627
245,205,107449,2,0,L|250:153,1,41.2500015735627,2|2,0:0|0:0,0:0:0:0:
168,12,107710,1,0,0:0:0:0:
256,192,107841,12,0,108754,0:0:0:0:
213,186,109015,5,2,0:0:0:0:
313,218,109145,1,0,0:0:0:0:
213,186,109406,5,2,0:0:0:0:
313,218,109536,1,2,0:0:0:0:
291,113,109667,1,2,0:0:0:0:
241,293,109797,6,0,B|225:319|238:358,1,63.250001206398,12|0,3:0|0:0,0:0:0:0:
316,384,110058,2,0,B|331:357|318:321,1,63.250001206398,10|4,0:0|3:0,0:0:0:0:
318,158,110319,2,0,B|301:184|315:223,1,63.250001206398,2|0,0:0|0:0,0:0:0:0:
393,247,110580,2,0,B|408:219|394:185,1,63.250001206398,10|0,1:2|0:0,0:0:0:0:
419,334,110841,6,0,P|467:298|485:225,1,126.500002412796,4|8,3:0|0:0,0:0:0:0:
394,185,111232,2,0,B|381:213|393:248,1,63.250001206398,4|0,3:0|0:0,0:0:0:0:
479,143,111493,1,2,0:0:0:0:
410,100,111623,1,10,0:0:0:0:
341,58,111754,1,2,0:0:0:0:
318,158,111884,6,0,P|285:155|241:99,1,63.250001206398,4|0,3:0|0:0,0:0:0:0:
172,44,112145,2,0,P|203:44|229:61,1,63.250001206398,10|4,0:0|3:0,0:0:0:0:
174,124,112406,2,0,P|143:122|116:105,1,63.250001206398,2|0,0:0|0:0,0:0:0:0:
29,15,112667,2,0,P|59:15|86:32,1,63.250001206398,10|0,1:2|0:0,0:0:0:0:
56,221,112928,6,0,L|34:95,1,126.500002412796,4|8,3:0|0:0,0:0:0:0:
138,198,113319,2,0,P|142:229|133:259,1,63.250001206398,4|0,3:0|0:0,0:0:0:0:
69,324,113580,1,2,0:0:0:0:
149,358,113710,1,10,0:0:0:0:
219,306,113841,1,2,0:0:0:0:
335,379,113971,6,0,P|336:347|325:317,1,63.250001206398,4|0,3:0|0:0,0:0:0:0:
223,194,114232,2,0,P|221:225|231:254,1,63.250001206398,10|4,0:0|3:0,0:0:0:0:
364,229,114493,2,0,P|332:226|302:237,1,63.250001206398,2|0,0:0|0:0,0:0:0:0:
185,340,114754,2,0,P|215:340|245:331,1,63.250001206398,10|0,1:2|0:0,0:0:0:0:
404,297,115015,6,0,P|434:265|431:187,1,126.500002412796,4|8,3:0|0:0,0:0:0:0:
303,237,115406,2,0,P|337:238|371:225,1,63.250001206398,4|0,3:0|0:0,0:0:0:0:
494,132,115667,1,2,0:0:0:0:
427,81,115797,1,10,0:0:0:0:
361,31,115928,1,2,0:0:0:0:
328,139,116058,6,0,P|309:117|274:106,1,63.250001206398,6|0,3:0|0:0,0:0:0:0:
119,62,116319,2,0,P|121:90|144:120,1,63.250001206398,10|4,0:0|3:0,0:0:0:0:
247,247,116580,2,0,P|261:221|261:184,1,63.250001206398,2|0,0:0|0:0,0:0:0:0:
250,23,116841,2,0,P|224:36|203:66,1,63.250001206398,10|0,1:2|0:0,0:0:0:0:
114,200,117102,2,0,P|144:206|177:193,1,63.250001206398,12|0,3:0|0:0,0:0:0:0:
328,139,117362,5,2,0:0:0:0:
262,188,117493,1,4,3:0:0:0:
328,139,117754,5,2,0:0:0:0:
262,188,117885,1,10,0:0:0:0:
318,57,118015,1,2,0:0:0:0:
404,171,118145,6,0,B|420:198|420:198|448:217,1,63.250001206398,12|0,3:0|0:0,0:0:0:0:
470,122,118406,2,0,B|454:95|454:95|426:76,1,63.250001206398,10|4,0:0|3:0,0:0:0:0:
262,188,118667,2,0,B|278:215|278:215|306:234,1,63.250001206398,2|0,0:0|0:0,0:0:0:0:
328,139,118928,2,0,B|312:112|312:112|284:93,1,63.250001206398,10|0,1:2|0:0,0:0:0:0:
245,295,119189,6,0,P|312:319|372:281,1,126.500002412796,4|8,3:0|0:0,0:0:0:0:
359,210,119580,2,0,P|328:213|294:256,1,63.250001206398,4|0,3:0|0:0,0:0:0:0:
163,277,119841,1,2,0:0:0:0:
188,357,119971,1,10,0:0:0:0:
245,295,120101,1,2,0:0:0:0:
106,340,120232,6,0,P|85:315|79:285,1,63.250001206398,4|0,3:0|0:0,0:0:0:0:
132,137,120493,2,0,P|152:161|158:191,1,63.250001206398,10|4,0:0|3:0,0:0:0:0:
18,226,120754,2,0,P|42:205|72:199,1,63.250001206398,2|2,0:0|0:0,0:0:0:0:
218,251,121015,2,0,P|193:271|163:277,1,63.250001206398,10|0,1:2|0:0,0:0:0:0:
49,117,121276,6,0,P|108:58|191:70,1,126.500002412796,4|10,3:0|1:2,0:0:0:0:
158,191,121667,2,0,P|137:166|132:136,1,63.250001206398
226,25,121928,1,2,0:0:0:0:
211,107,122058,1,10,0:0:0:0:
147,53,122189,1,2,0:0:0:0:
290,79,122319,6,0,P|297:111|270:162,1,63.250001206398,4|0,3:0|0:0,0:0:0:0:
210,167,122580,2,0,P|203:135|230:84,1,63.250001206398,10|4,0:0|3:0,0:0:0:0:
351,202,122841,2,0,P|359:233|351:263,1,63.250001206398,2|2,0:0|0:0,0:0:0:0:
272,291,123102,2,0,P|265:259|292:208,1,63.250001206398,10|0,1:2|0:0,0:0:0:0:
375,116,123362,6,0,P|403:129|430:246,1,126.500002412796,4|10,3:0|0:0,0:0:0:0:
351,263,123754,2,0,P|343:232|351:202,1,63.250001206398,4|0,3:0|0:0,0:0:0:0:
440,314,124015,1,2,0:0:0:0:
351,365,124145,1,10,0:0:0:0:
263,315,124275,1,2,0:0:0:0:
263,214,124406,6,0,P|265:185|248:152,1,63.250001206398,4|0,3:0|0:0,0:0:0:0:
289,76,124667,2,0,P|259:66|228:71,1,63.250001206398,10|4,0:0|3:0,0:0:0:0:
169,10,124927,2,0,P|149:35|145:66,1,63.250001206398,2|0,0:0|0:0,0:0:0:0:
67,104,125188,2,0,P|85:130|113:144,1,63.250001206398,10|0,1:2|0:0,0:0:0:0:
128,233,125449,2,0,P|158:223|181:201,1,63.250001206398,12|0,3:0|0:0,0:0:0:0:
228,70,125710,5,10,0:2:0:0:
112,143,125841,1,4,3:0:0:0:
228,70,126102,5,0,0:0:0:0:
112,143,126233,1,8,0:0:0:0:
144,65,126362,1,0,0:0:0:0:
181,201,126493,6,0,L|171:317,1,82.5000031471254,6|0,1:2|0:0,0:0:0:0:
285,369,127015,2,0,L|273:276,1,82.5000031471254,8|0,0:0|0:0,0:0:0:0:
274,287,127406,1,2,0:0:0:0:
393,326,127667,1,0,0:0:0:0:
484,250,127928,2,0,P|492:200|484:161,1,82.5000031471254
481,161,128319,1,2,0:0:0:0:
475,154,128449,1,0,0:0:0:0:
469,146,128580,6,0,P|461:104|473:61,1,82.5000031471254,2|0,0:0|0:0,0:0:0:0:
362,121,129102,2,0,P|328:138|266:127,1,82.5000031471254,8|0,0:0|0:0,0:0:0:0:
284,135,129493,1,2,0:0:0:0:
167,64,129754,1,0,0:0:0:0:
88,171,130015,2,0,L|94:259,1,82.5000031471254
92,264,130406,1,2,0:0:0:0:
90,274,130536,1,0,0:0:0:0:
88,284,130667,6,0,P|128:275|176:287,1,82.5000031471254,2|0,0:0|0:0,0:0:0:0:
340,312,131189,2,0,P|299:320|252:309,1,82.5000031471254,8|0,0:0|0:0,0:0:0:0:
259,312,131580,1,2,0:0:0:0:
400,208,131841,1,0,0:0:0:0:
431,374,132102,1,0,0:0:0:0:
436,380,132232,1,8,0:0:0:0:
436,380,132754,6,0,L|446:261,1,82.5000031471254,2|0,0:0|0:0,0:0:0:0:
386,178,133276,2,0,L|396:59,1,82.5000031471254,8|0,0:0|0:0,0:0:0:0:
396,99,133667,2,0,P|372:105|341:103,1,41.2500015735627,2|0,0:0|0:0,0:0:0:0:
284,221,133928,2,0,P|266:203|253:175,1,41.2500015735627
122,185,134189,5,0,0:0:0:0:
126,189,134319,1,8,0:0:0:0:
137,231,134449,1,0,0:0:0:0:
128,279,134580,1,2,0:0:0:0:
96,312,134710,1,0,0:0:0:0:
53,324,134841,6,0,L|170:333,1,82.5000031471254,4|0,3:0|0:0,0:0:0:0:
16,154,135362,2,0,P|25:202|11:242,1,82.5000031471254,8|2,0:0|0:0,0:0:0:0:
17,233,135754,1,0,0:0:0:0:
2,45,136015,1,0,0:0:0:0:
172,130,136276,2,0,L|269:123,1,82.5000031471254
263,122,136667,1,2,0:0:0:0:
271,121,136797,1,2,0:0:0:0:
279,117,136928,6,0,P|272:168|290:217,1,82.5000031471254,4|0,3:0|0:0,0:0:0:0:
466,200,137449,2,0,P|473:149|455:100,1,82.5000031471254,8|2,0:0|0:0,0:0:0:0:
465,119,137841,1,0,0:0:0:0:
471,318,138102,1,0,0:0:0:0:
311,236,138362,2,0,L|214:243,1,82.5000031471254,0|2,0:0|0:0,0:0:0:0:
220,244,138753,1,2,0:0:0:0:
212,245,138883,1,2,0:0:0:0:
204,249,139015,6,0,P|211:198|193:149,1,82.5000031471254,4|0,3:0|0:0,0:0:0:0:
94,28,139536,2,0,P|87:79|105:128,1,82.5000031471254,8|2,0:0|0:0,0:0:0:0:
232,90,139928,2,0,L|190:91,1,41.2500015735627,0|4,0:0|3:0,0:0:0:0:
74,193,140189,2,0,L|115:191,1,41.2500015735627
273,291,140449,6,0,L|190:294,1,82.5000031471254
194,298,140841,1,2,0:0:0:0:
199,302,140971,1,2,0:0:0:0:
270,212,142406,5,2,0:0:0:0:
259,104,142536,1,0,0:0:0:0:
270,212,142797,5,2,0:0:0:0:
259,104,142927,1,2,0:0:0:0:
170,163,143058,1,2,0:0:0:0:
367,156,143189,6,0,L|442:152,1,65.9999979858399,12|0,3:0|0:0,0:0:0:0:
416,234,143449,2,0,L|350:237,1,65.9999979858399,10|4,0:0|3:0,0:0:0:0:
208,21,143710,2,0,L|283:17,1,65.9999979858399,2|0,0:0|0:0,0:0:0:0:
259,104,143971,2,0,L|193:107,1,65.9999979858399,8|0,1:0|0:0,0:0:0:0:
337,72,144232,6,0,P|324:148|259:184,1,131.99999597168,4|8,3:0|0:0,0:0:0:0:
191,102,144623,2,0,L|257:99,1,65.9999979858399,4|0,3:0|0:0,0:0:0:0:
197,188,144884,1,6,0:0:0:0:
119,150,145015,1,8,1:0:0:0:
41,112,145145,1,2,0:0:0:0:
126,237,145276,6,0,P|133:271|122:305,1,65.9999979858399,4|0,3:0|0:0,0:0:0:0:
45,326,145536,2,0,P|38:292|49:258,1,65.9999979858399,10|4,0:0|3:0,0:0:0:0:
120,86,145797,2,0,P|127:120|116:154,1,65.9999979858399,2|0,0:0|0:0,0:0:0:0:
39,175,146058,2,0,P|32:141|43:107,1,65.9999979858399,8|0,1:0|0:0,0:0:0:0:
142,1,146319,6,0,P|201:45|206:118,1,131.99999597168,4|8,3:0|0:0,0:0:0:0:
118,149,146710,2,0,P|111:115|122:81,1,65.9999979858399,4|0,3:0|0:0,0:0:0:0:
301,84,146971,1,2,0:0:0:0:
271,161,147102,1,8,1:0:0:0:
241,238,147232,1,2,0:0:0:0:
359,157,147362,6,0,P|383:132|390:86,1,65.9999979858399,4|0,3:0|0:0,0:0:0:0:
333,30,147623,2,0,P|310:53|301:85,1,65.9999979858399,2|4,0:0|3:0,0:0:0:0:
385,284,147884,2,0,P|409:259|416:213,1,65.9999979858399,2|0,0:0|0:0,0:0:0:0:
359,157,148145,2,0,P|336:180|327:212,1,65.9999979858399,8|0,1:0|0:0,0:0:0:0:
320,327,148406,6,0,P|394:360|456:313,1,131.99999597168,4|2,3:0|3:0,0:0:0:0:
417,229,148797,2,0,P|393:254|386:300,1,65.9999979858399,4|0,3:0|0:0,0:0:0:0:
496,277,149058,1,6,0:0:0:0:
498,184,149189,1,8,1:0:0:0:
419,136,149319,1,2,0:0:0:0:
327,211,149449,6,0,B|295:211|295:211|263:194,1,65.9999979858399,4|0,3:0|0:0,0:0:0:0:
123,117,149710,2,0,B|148:98|148:98|183:93,1,65.9999979858399,10|0,0:0|0:0,0:0:0:0:
345,76,149971,2,0,B|335:106|335:106|310:132,1,65.9999979858399,2|0,0:0|0:0,0:0:0:0:
188,237,150232,2,0,B|178:207|178:207|183:171,1,65.9999979858399,8|0,1:0|0:0,0:0:0:0:
217,16,150493,2,0,B|242:34|242:34|258:66,1,65.9999979858399,4|0,3:0|0:0,0:0:0:0:
264,195,150754,5,6,0:0:0:0:
184,311,150884,1,4,3:0:0:0:
264,195,151145,5,6,0:0:0:0:
184,311,151275,1,8,1:0:0:0:
182,172,151406,1,2,0:0:0:0:
184,311,151537,6,0,P|164:339|132:355,1,65.9999979858399,4|0,3:0|0:0,0:0:0:0:
61,314,151797,2,0,P|79:284|110:268,1,65.9999979858399,10|4,0:0|3:0,0:0:0:0:
341,234,152058,2,0,P|321:262|289:278,1,65.9999979858399,2|0,0:0|0:0,0:0:0:0:
218,239,152318,2,0,P|236:209|267:193,1,65.9999979858399,8|0,1:0|0:0,0:0:0:0:
415,190,152580,6,0,P|424:262|376:317,1,131.99999597168,4|2,3:0|3:0,0:0:0:0:
293,276,152971,2,0,P|313:248|350:232,1,65.9999979858399,4|0,3:0|0:0,0:0:0:0:
331,362,153232,1,6,0:0:0:0:
238,351,153362,1,8,1:0:0:0:
145,340,153493,1,2,0:0:0:0:
84,225,153623,6,0,L|69:308,1,65.9999979858399,4|0,3:0|0:0,0:0:0:0:
145,340,153884,2,0,L|156:275,1,65.9999979858399,10|4,0:0|3:0,0:0:0:0:
100,75,154145,2,0,L|85:158,1,65.9999979858399,2|0,0:0|0:0,0:0:0:0:
161,190,154406,2,0,L|172:125,1,65.9999979858399,8|0,1:0|0:0,0:0:0:0:
84,225,154667,6,0,P|133:267|219:248,1,131.99999597168,4|12,3:0|0:0,0:0:0:0:
172,125,155058,2,0,L|161:190,1,65.9999979858399,4|0,3:0|0:0,0:0:0:0:
172,347,155319,1,6,0:0:0:0:
258,326,155449,1,8,1:0:0:0:
344,305,155580,1,2,0:0:0:0:
308,183,155710,6,0,P|286:212|285:265,1,65.9999979858399,4|0,3:0|0:0,0:0:0:0:
344,305,155971,2,0,P|364:279|370:247,1,65.9999979858399,10|0,0:0|0:0,0:0:0:0:
422,104,156232,2,0,P|400:133|399:186,1,65.9999979858399,2|0,0:0|0:0,0:0:0:0:
458,226,156493,2,0,P|478:200|484:168,1,65.9999979858399,8|0,1:0|0:0,0:0:0:0:
486,58,156754,6,0,P|412:25|350:72,1,131.99999597168,4|2,3:0|3:0,0:0:0:0:
394,161,157145,2,0,P|416:132|417:79,1,65.9999979858399,4|0,3:0|0:0,0:0:0:0:
286,58,157406,1,6,0:0:0:0:
202,72,157537,1,8,1:0:0:0:
118,86,157667,1,2,0:0:0:0:
173,207,157797,6,0,B|186:176|186:176|182:143,1,65.9999979858399,4|0,3:0|0:0,0:0:0:0:
118,86,158058,2,0,B|105:117|105:117|108:149,1,65.9999979858399,10|0,0:0|0:0,0:0:0:0:
174,349,158319,2,0,B|164:316|164:316|139:294,1,65.9999979858399,2|0,0:0|0:0,0:0:0:0:
89,227,158580,2,0,B|66:251|66:251|58:284,1,65.9999979858399,8|0,1:0|0:0,0:0:0:0:
26,359,158841,2,0,B|58:366|58:366|90:356,1,65.9999979858399,12|0,3:0|0:0,0:0:0:0:
189,169,159102,6,0,L|173:207,1,41.2500015735627,2|0,0:0|0:0,0:0:0:0:
174,349,159362,6,0,L|181:294,1,55,2|0,0:0|0:0,0:0:0:0:
99,80,159623,6,0,L|115:214,1,68.75,2|0,0:0|0:0,0:0:0:0:
255,355,159884,6,0,P|295:365|327:357,1,63.250001206398,4|0,3:0|0:0,0:0:0:0:
451,350,160145,2,0,P|411:340|379:348,1,63.250001206398,10|4,0:0|3:0,0:0:0:0:
475,231,160406,2,0,P|486:270|509:294,1,63.250001206398,2|0,0:0|0:0,0:0:0:0:
360,270,160667,2,0,P|388:240|397:208,1,63.250001206398,8|0,1:0|0:0,0:0:0:0:
317,75,160928,2,0,L|325:228,1,126.500002412796,4|10,3:0|0:0,0:0:0:0:
280,6,161319,2,0,P|251:35|242:67,1,63.250001206398,4|0,3:0|0:0,0:0:0:0:
162,212,161580,5,6,0:0:0:0:
156,114,161710,1,8,1:0:0:0:
123,22,161841,1,2,0:0:0:0:
13,195,161971,6,0,P|54:199|89:190,1,63.250001206398,4|0,3:0|0:0,0:0:0:0:
62,301,162232,2,0,P|21:297|-14:306,1,63.250001206398,10|0,0:0|0:0,0:0:0:0:
162,212,162493,2,0,P|203:216|238:207,1,63.250001206398,2|0,0:0|0:0,0:0:0:0:
211,318,162754,2,0,P|170:314|135:323,1,63.250001206398,8|0,1:0|0:0,0:0:0:0:
314,275,163015,2,0,L|320:139,1,126.500002412796,4|6,3:0|0:0,0:0:0:0:
360,347,163406,2,0,P|332:357|284:350,1,63.250001206398,4|0,3:0|0:0,0:0:0:0:
467,153,163667,5,6,0:0:0:0:
484,245,163798,1,8,1:0:0:0:
453,336,163928,1,2,0:0:0:0:
415,86,164058,6,0,P|446:71|493:74,1,63.250001206398,4|0,3:0|0:0,0:0:0:0:
381,166,164319,2,0,P|347:170|301:156,1,63.250001206398,10|0,0:0|0:0,0:0:0:0:
200,113,164580,2,0,P|231:98|278:101,1,63.250001206398,2|0,0:0|0:0,0:0:0:0:
166,193,164841,2,0,P|132:197|86:183,1,63.250001206398,8|0,1:0|0:0,0:0:0:0:
0,46,165102,6,0,L|148:63,1,126.500002412796,4|10,3:0|0:0,0:0:0:0:
21,187,165493,2,0,L|11:107,1,63.250001206398,4|0,3:0|0:0,0:0:0:0:
166,193,165754,5,6,0:0:0:0:
156,285,165884,1,8,1:0:0:0:
183,373,166015,1,2,0:0:0:0:
298,244,166145,6,0,P|267:239|238:249,1,63.250001206398,4|0,3:0|0:0,0:0:0:0:
356,179,166406,2,0,P|367:208|390:229,1,63.250001206398,10|0,0:0|0:0,0:0:0:0:
272,162,166667,2,0,P|291:137|298:106,1,63.250001206398,2|0,0:0|0:0,0:0:0:0:
171,96,166928,6,0,B|162:116|162:116|168:174,1,63.250001206398,8|0,1:0|0:0,0:0:0:0:
171,369,167189,2,0,B|188:354|188:354|217:304,1,63.250001206398,12|0,3:0|0:0,0:0:0:0:
331,147,167449,2,0,B|307:145|307:145|254:168,1,63.250001206398,8|4,0:0|3:0,0:0:0:0:
70,233,167710,2,0,B|87:246|87:246|143:258,1,63.250001206398,0|2,0:0|0:0,0:0:0:0:
331,322,167971,5,8,1:0:0:0:
381,240,168102,1,2,0:0:0:0:
378,146,168232,2,0,L|373:69,1,68.75,4|0,3:0|0:0,0:0:0:0:
237,20,168493,2,0,L|242:89,1,68.75,10|0,0:0|0:0,0:0:0:0:
163,234,168754,2,0,L|158:157,1,68.75,2|0,0:0|0:0,0:0:0:0:
22,108,169015,2,0,L|26:176,1,68.75,8|0,1:0|0:0,0:0:0:0:
237,305,169276,6,0,P|169:281|119:340,1,137.5,4|8,3:0|0:0,0:0:0:0:
307,343,169667,2,0,P|342:350|386:338,1,68.75,4|0,3:0|0:0,0:0:0:0:
464,250,169928,1,6,0:0:0:0:
483,148,170058,1,8,1:0:0:0:
446,57,170189,1,2,0:0:0:0:
340,152,170319,6,0,L|243:160,1,68.75,4|0,3:0|0:0,0:0:0:0:
147,87,170580,2,0,L|215:81,1,68.75,10|0,0:0|0:0,0:0:0:0:
217,244,170841,2,0,L|120:252,1,68.75,2|0,0:0|0:0,0:0:0:0:
24,179,171102,2,0,L|92:173,1,68.75,8|0,1:0|0:0,0:0:0:0:
287,201,171362,6,0,P|283:301|211:322,1,137.5,4|8,3:0|0:0,0:0:0:0:
207,136,171754,2,0,P|202:99|220:49,1,68.75,4|0,3:0|0:0,0:0:0:0:
486,91,172015,1,6,0:0:0:0:
376,109,172146,1,8,1:0:0:0:
410,11,172276,1,2,0:0:0:0:
442,195,172406,6,0,L|434:285,1,68.75,4|0,3:0|0:0,0:0:0:0:
320,340,172667,2,0,L|327:272,1,68.75,10|0,0:0|0:0,0:0:0:0:
268,103,172928,2,0,L|260:193,1,68.75,2|0,0:0|0:0,0:0:0:0:
146,248,173189,2,0,L|152:179,1,68.75,8|0,1:0|0:0,0:0:0:0:
74,310,173449,6,0,P|145:338|213:313,1,137.5,4|8,3:0|0:0,0:0:0:0:
43,167,173841,2,0,P|34:205|43:251,1,68.75,4|0,3:0|0:0,0:0:0:0:
79,0,174102,1,2,0:0:0:0:
4,85,174232,1,8,1:0:0:0:
114,103,174363,1,2,0:0:0:0:
227,68,174493,6,0,L|316:74,1,68.75,4|0,3:0|0:0,0:0:0:0:
435,152,174754,2,0,L|366:147,1,68.75,10|0,0:0|0:0,0:0:0:0:
224,197,175015,2,0,L|313:203,1,68.75,2|0,0:0|0:0,0:0:0:0:
432,281,175276,2,0,L|363:276,1,68.75,8|0,1:0|0:0,0:0:0:0:
85,80,175536,6,0,B|80:269|80:269|94:205|131:183,2,275,12|0|6,3:0|0:0|0:0,0:0:0:0:
