osu file format v14

[General]
AudioFilename: audio.mp3
AudioLeadIn: 0
PreviewTime: 108915
Countdown: 0
SampleSet: Soft
StackLeniency: 0.7
Mode: 0
LetterboxInBreaks: 0
WidescreenStoryboard: 0

[Editor]
Bookmarks: 134872
DistanceSpacing: 1.3
BeatDivisor: 4
GridSize: 4
TimelineZoom: 1.9

[Metadata]
Title:Peek-A-Boo
TitleUnicode:피카부
Artist:Red Velvet
ArtistUnicode:레드벨벳
Creator:Joo Haknyeon
Version:FunnyA's Normal
Source:
Tags:SM Entertainment Perfect Velvet 2nd Album Irene Seulgi Wendy Joy Yeri 아이린 슬기 웬디 조이 예리 kpop k-pop FunnyA ulfanirahmi CharmCaster Fragmented Adrielle Akebana Yukio
BeatmapID:2467466
BeatmapSetID:697439

[Difficulty]
HPDrainRate:4
CircleSize:3.7
OverallDifficulty:4
ApproachRate:4
SliderMultiplier:1.4
SliderTickRate:1

[Events]
//Background and Video events
Video,282,"Peek-A-Boo2.avi"
0,0,"pabart.jpg",0,0
//Break Periods
2,126724,133552
//Storyboard Layer 0 (Background)
//Storyboard Layer 1 (Fail)
//Storyboard Layer 2 (Pass)
//Storyboard Layer 3 (Foreground)
//Storyboard Layer 4 (Overlay)
//Storyboard Sound Samples

[TimingPoints]
264,521.739130434783,4,2,0,75,1,0
1307,521.739130434783,4,2,0,75,1,0
1307,-100,4,2,0,75,0,0
9654,-100,4,2,2,75,0,0
26350,-100,4,2,0,75,0,0
34698,-100,4,2,5,75,0,0
40959,-100,4,2,10,75,0,0
43046,-100,4,2,1,75,0,1
59741,-100,4,2,2,75,0,0
93133,-100,4,2,0,75,0,0
101480,-100,4,2,5,75,0,0
107741,-100,4,2,10,75,0,0
109828,-100,4,2,1,75,0,1
126524,-100,4,2,0,75,0,0
134872,-100,4,2,0,75,0,0
143220,-100,4,2,1,75,0,1
159133,-100,4,2,0,75,0,0
159915,-100,4,2,1,75,0,1
176611,-100,4,2,0,75,0,0

[Colours]
Combo1 : 255,0,255
Combo2 : 255,128,128

[HitObjects]
124,64,9654,6,0,P|176:48|240:72,2,105,2|2|8,0:0|0:0|0:0,0:0:0:0:
176,140,10698,2,0,P|184:176|172:212,1,70,2|0,0:0|0:0,0:0:0:0:
148,244,11089,2,0,P|136:296|156:360,1,105,2|8,0:0|0:0,0:0:0:0:
236,364,11741,6,0,P|248:312|228:248,2,105,2|2|8,0:0|0:0|0:0,0:0:0:0:
147,345,12785,2,0,P|108:340|64:352,1,70,2|0,0:0|0:0,0:0:0:0:
80,300,13176,2,0,L|92:184,1,105,2|8,0:0|0:0,0:0:0:0:
176,168,13828,6,0,L|164:284,2,105,2|2|8,0:0|0:0|0:0,0:0:0:0:
264,196,14872,2,0,P|304:208|344:200,1,70,2|0,0:0|0:0,0:0:0:0:
308,116,15393,2,0,P|268:104|228:112,1,70,0|8,0:0|0:0,0:0:0:0:
176,168,15915,6,0,P|126:169|76:136,2,105,2|2|8,0:0|0:0|0:0,0:0:0:0:
204,260,16959,2,0,P|208:300|196:332,1,70,2|0,0:0|0:0,0:0:0:0:
112,352,17480,2,0,P|108:312|120:280,1,70,0|8,0:0|0:0,0:0:0:0:
204,260,18002,6,0,L|324:248,2,105,0|0|8,1:0|1:0|0:0,0:0:0:0:
176,168,19046,2,0,P|168:132|180:96,1,70,2|8,0:0|0:0,0:0:0:0:
204,64,19437,2,0,P|252:72|312:52,1,105,2|8,0:0|0:0,0:0:0:0:
368,120,20089,6,0,P|360:168|380:228,2,105,0|0|8,1:0|1:0|0:0,0:0:0:0:
305,56,21133,2,0,P|268:72|232:68,1,70,2|0,0:0|0:0,0:0:0:0:
196,52,21524,2,0,P|145:44|87:79,1,105,2|8,0:0|0:0,0:0:0:0:
158,136,22176,6,0,P|142:184|166:248,2,105,0|0|8,1:0|1:0|0:0,0:0:0:0:
232,188,23220,2,0,P|276:192|308:180,1,70,2|0,0:0|0:0,0:0:0:0:
328,100,23741,2,0,P|284:96|252:108,1,70,0|8,0:0|0:0,0:0:0:0:
232,188,24263,6,0,L|244:308,2,105,0|0|8,1:0|1:0|0:0,0:0:0:0:
160,132,25307,2,0,L|148:12,2,105,2|2|8,0:0|0:0|0:0,0:0:0:0:
72,148,26350,6,0,P|40:184|160:200,1,245,0|0,0:0|0:0,0:0:0:0:
320,64,27915,2,0,P|328:100|316:140,1,70,0|0,0:0|0:0,0:0:0:0:
244,180,28437,6,0,P|240:216|372:184,1,245,0|0,0:0|0:0,0:0:0:0:
176,92,30002,2,0,P|136:84|96:96,1,70,0|0,0:0|0:0,0:0:0:0:
52,160,30524,6,0,B|36:216|36:216|44:256|44:256|24:328|24:328|84:284|144:324,1,280,0|0,0:0|0:0,0:0:0:0:
304,344,32089,1,0,0:0:0:0:
460,248,32611,6,0,B|476:192|476:192|468:152|468:152|488:80|488:80|428:124|368:84,1,280,0|0,0:0|0:0,0:0:0:0:
208,64,34176,1,0,0:0:0:0:
52,160,34698,6,0,L|24:244,1,70,4|8,0:0|0:0,0:0:0:0:
120,244,35220,2,0,P|160:236|200:252,1,70,0|8,0:0|0:0,0:0:0:0:
220,328,35741,2,0,P|180:336|140:320,2,70,0|8|0,0:0|0:0|0:0,0:0:0:0:
300,284,36524,1,8,0:0:0:0:
368,224,36785,6,0,L|384:152,1,70,0|8,0:0|0:0,0:0:0:0:
296,128,37307,2,0,L|274:57,1,70,0|8,0:0|0:0,0:0:0:0:
188,88,37828,2,0,L|134:38,2,70,0|8|0,0:0|0:0|0:0,0:0:0:0:
216,176,38611,1,8,0:0:0:0:
292,224,38872,6,0,P|256:256|196:264,1,105,4|4,0:0|0:0,0:0:0:0:
100,172,39654,2,0,P|49:179|10:212,1,105,12|4,0:0|0:0,0:0:0:0:
108,308,40437,2,0,P|116:348|104:380,2,70,4|8|4,0:0|0:0|0:0,0:0:0:0:
256,192,41220,12,0,42524,0:0:0:0:
120,92,43046,6,0,L|240:84,2,105,6|2|8,0:0|0:0|0:0,0:0:0:0:
160,176,44089,2,0,L|275:209,2,105,2|2|8,0:0|0:0|0:0,0:0:0:0:
172,268,45133,6,0,L|269:339,2,105,2|2|8,0:0|0:0|0:0,0:0:0:0:
88,308,46176,2,0,P|80:272|88:236,1,70,2|0,0:0|0:0,0:0:0:0:
112,200,46567,2,0,P|124:144|100:92,1,105,2|8,0:0|0:0,0:0:0:0:
200,100,47220,6,0,P|260:112|312:96,2,105,2|2|8,0:0|0:0|0:0,0:0:0:0:
160,20,48263,2,0,P|100:8|48:24,2,105,2|2|8,0:0|0:0|0:0,0:0:0:0:
200,100,49307,6,0,L|256:208,2,105,2|2|8,0:0|0:0|0:0,0:0:0:0:
120,144,50350,2,0,L|108:212,1,70,2|0,0:0|0:0,0:0:0:0:
96,256,50741,2,0,B|152:256|152:256|212:288,1,105,2|8,0:0|0:0,0:0:0:0:
224,364,51393,6,0,B|168:364|168:364|108:332,2,105,2|2|8,0:0|0:0|0:0,0:0:0:0:
284,296,52437,2,0,P|300:256|276:184,2,105,2|2|8,0:0|0:0|0:0,0:0:0:0:
195,279,53480,6,0,P|180:229|197:180,2,105,2|2|8,0:0|0:0|0:0,0:0:0:0:
284,296,54524,2,0,L|360:308,1,70,2|0,0:0|0:0,0:0:0:0:
396,288,54915,2,0,P|381:238|398:189,1,105,2|8,0:0|0:0,0:0:0:0:
456,120,55567,6,0,P|472:71|458:21,2,105,2|2|8,0:0|0:0|0:0,0:0:0:0:
398,189,56611,2,0,L|272:192,2,105,2|2|8,0:0|0:0|0:0,0:0:0:0:
368,104,57654,6,0,L|242:107,2,105,2|2|8,0:0|0:0|0:0,0:0:0:0:
444,156,58698,2,0,P|456:192|448:224,1,70,2|0,0:0|0:0,0:0:0:0:
424,260,59089,2,0,P|412:312|432:360,1,105,2|8,0:0|0:0,0:0:0:0:
340,364,59741,6,0,L|256:368,1,70,2|0,0:0|0:0,0:0:0:0:
228,284,60263,2,0,L|144:288,1,70,0|8,0:0|0:0,0:0:0:0:
124,204,60785,2,0,L|40:208,1,70,2|0,0:0|0:0,0:0:0:0:
64,164,61176,2,0,P|72:128|48:60,1,105,2|8,0:0|0:0,0:0:0:0:
140,40,61828,6,0,L|224:36,1,70,2|0,0:0|0:0,0:0:0:0:
200,80,62219,2,0,P|192:116|216:184,1,105,2|8,0:0|0:0,0:0:0:0:
296,216,62872,2,0,P|304:180|292:144,1,70,2|0,0:0|0:0,0:0:0:0:
332,124,63263,2,0,P|372:136|440:120,1,105,2|8,0:0|0:0,0:0:0:0:
460,212,63915,6,0,P|468:248|460:280,2,70,2|0|0,0:0|0:0|0:0,0:0:0:0:
372,244,64698,1,8,0:0:0:0:
284,268,64959,2,0,L|204:288,1,70,2|0,0:0|0:0,0:0:0:0:
180,316,65350,2,0,P|192:272|168:212,1,105,2|8,0:0|0:0,0:0:0:0:
84,212,66002,6,0,P|96:172|120:148,1,70,2|0,0:0|0:0,0:0:0:0:
156,128,66393,2,0,P|192:104|208:36,1,105,2|8,0:0|0:0,0:0:0:0:
300,52,67046,2,0,L|408:56,2,105,2|2|8,0:0|0:0|0:0,0:0:0:0:
256,132,68089,6,0,P|248:168|260:204,1,70,2|0,0:0|0:0,0:0:0:0:
344,232,68611,2,0,P|352:196|340:160,1,70,0|8,0:0|0:0,0:0:0:0:
256,132,69133,2,0,L|152:120,2,105,2|2|8,0:0|0:0|0:0,0:0:0:0:
343,164,70176,6,0,P|352:198|344:232,1,70,2|0,0:0|0:0,0:0:0:0:
284,300,70698,2,0,P|250:291|216:300,1,70,0|8,0:0|0:0,0:0:0:0:
136,344,71220,2,0,P|84:356|24:336,2,105,2|2|8,0:0|0:0|0:0,0:0:0:0:
136,252,72263,6,0,L|140:152,1,70,2|0,0:0|0:0,0:0:0:0:
140,136,72654,2,0,B|192:148|192:148|256:132,1,105,2|8,0:0|0:0,0:0:0:0:
332,120,73307,2,0,L|328:220,1,70,2|0,0:0|0:0,0:0:0:0:
416,216,73828,2,0,L|420:116,1,70,0|8,0:0|0:0,0:0:0:0:
392,60,74350,6,0,P|348:36|288:48,2,105,2|2|8,0:0|0:0|0:0,0:0:0:0:
392,60,76437,6,0,L|400:176,2,105,0|0|8,1:0|1:0|0:0,0:0:0:0:
308,92,77480,2,0,P|264:104|232:96,1,70,2|0,0:0|0:0,0:0:0:0:
244,144,77872,2,0,L|252:260,1,105,2|8,0:0|0:0,0:0:0:0:
208,328,78524,6,0,P|272:336|312:316,2,105,0|0|8,1:0|1:0|0:0,0:0:0:0:
144,264,79567,2,0,P|104:256|68:268,1,70,2|0,0:0|0:0,0:0:0:0:
72,216,79959,2,0,L|64:104,1,105,2|8,0:0|0:0,0:0:0:0:
156,128,80611,6,0,L|164:16,2,105,0|0|8,1:0|1:0|0:0,0:0:0:0:
240,168,81654,2,0,B|272:184|272:184|320:184,1,70,2|0,0:0|0:0,0:0:0:0:
296,92,82176,2,0,B|264:76|264:76|216:76,1,70,0|8,0:0|0:0,0:0:0:0:
156,128,82698,6,0,P|145:160|169:231,2,105,0|0|8,1:0|1:0|0:0,0:0:0:0:
84,72,83741,2,0,L|0:64,1,70,2|0,0:0|0:0,0:0:0:0:
36,156,84263,2,0,L|29:225,1,70,0|8,0:0|0:0,0:0:0:0:
96,288,84785,6,0,P|130:311|202:309,2,105,0|0|8,1:0|1:0|0:0,0:0:0:0:
120,200,85828,2,0,P|128:164|120:132,1,70,2|0,0:0|0:0,0:0:0:0:
168,128,86220,2,0,L|276:120,1,105,2|8,0:0|0:0,0:0:0:0:
324,196,86872,6,0,P|340:240|324:300,2,105,0|0|8,1:0|1:0|0:0,0:0:0:0:
248,248,87915,2,0,L|160:252,1,70,2|0,0:0|0:0,0:0:0:0:
156,212,88307,2,0,P|140:168|156:108,1,105,2|8,0:0|0:0,0:0:0:0:
228,60,88959,6,0,P|244:104|228:164,2,105,0|0|8,1:0|1:0|0:0,0:0:0:0:
152,112,90002,2,0,P|116:120|72:108,1,70,2|0,0:0|0:0,0:0:0:0:
88,204,90524,2,0,P|96:240|84:284,1,70,0|8,0:0|0:0,0:0:0:0:
180,256,91046,6,0,L|296:236,2,105,0|0|8,1:0|1:0|0:0,0:0:0:0:
224,336,92089,2,0,L|340:356,2,105,2|2|8,0:0|0:0|0:0,0:0:0:0:
132,324,93133,6,0,P|92:256|216:180,1,245,0|0,0:0|0:0,0:0:0:0:
428,204,94698,2,0,P|432:160|424:136,1,70,0|0,0:0|0:0,0:0:0:0:
372,60,95220,6,0,B|256:16|260:120|128:52,1,245,0|0,0:0|0:0,0:0:0:0:
68,272,96785,2,0,P|64:308|80:348,1,70,0|0,0:0|0:0,0:0:0:0:
156,300,97307,6,0,B|248:268|248:328|340:284|340:284|304:232|240:252,1,280,0|0,0:0|0:0,0:0:0:0:
88,184,98872,1,0,0:0:0:0:
212,52,99393,6,0,B|280:80|344:40|344:40|312:112|372:168,1,280,0|0,0:0|0:0,0:0:0:0:
492,304,100959,1,0,0:0:0:0:
312,332,101480,6,0,P|272:340|240:332,1,70,0|8,0:0|0:0,0:0:0:0:
276,248,102002,2,0,P|236:238|210:217,1,70,0|8,0:0|0:0,0:0:0:0:
276,156,102524,2,0,P|244:130|229:100,2,70,0|8|0,0:0|0:0|0:0,0:0:0:0:
316,72,103307,1,8,0:0:0:0:
408,64,103567,6,0,L|488:60,1,70,0|8,0:0|0:0,0:0:0:0:
468,152,104089,2,0,P|460:188|472:224,1,70,0|8,0:0|0:0,0:0:0:0:
380,228,104611,2,0,L|310:231,2,70,0|8|0,0:0|0:0|0:0,0:0:0:0:
436,300,105393,1,8,0:0:0:0:
352,336,105654,6,0,B|316:340|316:340|284:356|284:356|232:364,1,105,4|4,0:0|0:0,0:0:0:0:
132,296,106437,2,0,B|164:290|164:290|196:274|196:274|232:270,1,105,12|4,0:0|0:0,0:0:0:0:
300,152,107220,2,0,P|308:116|296:80,2,70,4|8|4,0:0|0:0|0:0,0:0:0:0:
256,192,108002,12,0,109307,0:0:0:0:
152,192,109828,6,0,P|140:236|160:300,2,105,6|2|8,0:0|0:0|0:0,0:0:0:0:
224,136,110872,2,0,B|260:132|260:132|296:140|296:140|336:136,2,105,2|2|8,0:0|0:0|0:0,0:0:0:0:
140,104,111915,6,0,P|128:60|148:-4,2,105,2|2|8,0:0|0:0|0:0,0:0:0:0:
216,56,112959,2,0,P|252:52|284:64,1,70,2|0,0:0|0:0,0:0:0:0:
320,88,113350,2,0,P|368:104|428:96,1,105,2|8,0:0|0:0,0:0:0:0:
432,188,114002,6,0,L|444:308,2,105,2|2|8,0:0|0:0|0:0,0:0:0:0:
344,212,115046,2,0,L|234:162,2,105,2|2|8,0:0|0:0|0:0,0:0:0:0:
364,124,116089,6,0,L|461:53,2,105,2|2|8,0:0|0:0|0:0,0:0:0:0:
284,80,117133,2,0,P|244:72|212:80,1,70,2|0,0:0|0:0,0:0:0:0:
172,92,117524,2,0,P|120:102|63:81,1,105,2|8,0:0|0:0,0:0:0:0:
84,176,118176,6,0,L|96:256,1,70,2|0,0:0|0:0,0:0:0:0:
184,252,118698,2,0,L|173:182,1,70,0|8,0:0|0:0,0:0:0:0:
256,144,119220,2,0,B|296:140|296:140|332:156,1,70,2|0,0:0|0:0,0:0:0:0:
364,172,119611,2,0,B|400:188|400:188|472:184,1,105,2|8,0:0|0:0,0:0:0:0:
432,268,120263,6,0,P|424:304|432:336,1,70,2|0,0:0|0:0,0:0:0:0:
344,312,120785,2,0,P|308:304|276:312,1,70,0|8,0:0|0:0,0:0:0:0:
188,336,121307,2,0,P|154:343|120:335,1,70,2|0,0:0|0:0,0:0:0:0:
100,296,121698,2,0,B|88:256|88:256|104:168,1,105,2|8,0:0|0:0,0:0:0:0:
156,124,122350,6,0,L|228:100,1,70,2|0,0:0|0:0,0:0:0:0:
304,140,122872,2,0,L|376:116,1,70,0|8,0:0|0:0,0:0:0:0:
368,208,123393,2,0,P|368:244|380:280,1,70,2|0,0:0|0:0,0:0:0:0:
332,268,123785,2,0,P|288:260|220:276,1,105,2|8,0:0|0:0,0:0:0:0:
148,316,124437,6,0,P|136:280|144:244,2,70,2|0|0,0:0|0:0|0:0,0:0:0:0:
228,360,125220,1,8,0:0:0:0:
320,360,125480,2,0,P|356:360|392:344,1,70,2|0,0:0|0:0,0:0:0:0:
400,304,125872,2,0,L|416:196,1,105,2|8,0:0|0:0,0:0:0:0:
428,112,126524,5,4,0:0:0:0:
96,320,134872,6,0,P|136:328|176:316,2,70,8|0|8,0:3|0:0|0:3,0:0:0:0:
132,236,135654,1,8,0:3:0:0:
184,160,135915,2,0,P|136:144|72:169,2,105,2|2|2,0:3|0:3|0:3,0:0:0:0:
264,204,136959,6,0,P|276:168|268:128,2,70,8|0|8,0:3|0:0|0:3,0:0:0:0:
240,292,137741,1,8,0:3:0:0:
328,268,138002,2,0,P|380:268|428:304,2,105,2|2|2,0:3|0:3|0:3,0:0:0:0:
240,288,139046,6,0,P|196:292|168:280,1,70,8|0,0:3|0:0,0:0:0:0:
84,312,139567,2,0,P|80:268|92:240,1,70,8|8,0:3|0:3,0:0:0:0:
156,184,140089,2,0,P|124:160|56:160,2,105,2|2|2,0:3|0:3|0:3,0:0:0:0:
256,192,141133,12,0,142698,0:0:0:0:
80,136,143220,6,0,P|72:184|104:256,2,105,6|2|8,0:0|0:0|0:0,0:0:0:0:
172,144,144263,2,0,P|188:193|180:244,2,105,2|2|8,0:0|0:0|0:0,0:0:0:0:
136,60,145307,6,0,L|248:44,2,105,2|2|8,0:0|0:0|0:0,0:0:0:0:
60,108,146350,2,0,P|52:148|60:180,1,70,2|0,0:0|0:0,0:0:0:0:
84,212,146741,2,0,P|100:252|84:320,1,105,2|8,0:0|0:0,0:0:0:0:
180,304,147393,6,0,L|292:296,2,105,2|2|8,0:0|0:0|0:0,0:0:0:0:
200,216,148437,2,0,L|312:208,2,105,2|2|8,0:0|0:0|0:0,0:0:0:0:
136,152,149480,6,0,P|123:119|128:85,1,70,2|0,0:0|0:0,0:0:0:0:
208,40,150002,2,0,P|220:72|215:106,1,70,0|8,0:0|0:0,0:0:0:0:
308,100,150524,2,0,L|380:96,1,70,2|0,0:0|0:0,0:0:0:0:
404,132,150915,2,0,B|428:172|428:172|436:236,1,105,2|8,0:0|0:0,0:0:0:0:
368,292,151567,6,0,B|344:252|344:252|336:188,2,105,2|2|8,0:0|0:0|0:0,0:0:0:0:
288,332,152611,2,0,P|240:344|176:328,2,105,2|2|8,0:0|0:0|0:0,0:0:0:0:
260,244,153654,6,0,P|212:232|148:248,2,105,2|2|8,0:0|0:0|0:0,0:0:0:0:
284,156,154698,2,0,L|300:84,1,70,2|0,0:0|0:0,0:0:0:0:
260,64,155089,2,0,B|208:48|208:80|144:56,1,105,2|8,0:0|0:0,0:0:0:0:
88,120,155741,6,0,B|68:156|68:156|76:228,2,105,2|2|8,0:0|0:0|0:0,0:0:0:0:
172,152,156785,2,0,B|179:215|179:215|159:251,2,105,2|2|8,0:0|0:0|0:0,0:0:0:0:
260,168,157828,6,0,P|296:172|336:160,1,70,2|0,0:0|0:0,0:0:0:0:
396,104,158350,2,0,P|429:95|464:99,1,70,0|8,0:0|0:0,0:0:0:0:
436,188,158872,1,2,0:0:0:0:
436,188,159915,6,0,L|448:264,1,70,6|0,0:0|0:0,0:0:0:0:
360,284,160437,2,0,L|372:360,1,70,0|8,0:0|0:0,0:0:0:0:
280,336,160959,2,0,P|240:332|208:344,1,70,2|0,0:0|0:0,0:0:0:0:
200,296,161350,2,0,L|172:184,1,105,2|8,0:0|0:0,0:0:0:0:
120,120,162002,6,0,P|157:102|197:105,1,70,2|0,0:0|0:0,0:0:0:0:
274,126,162524,2,0,P|308:124|339:108,1,70,0|8,0:0|0:0,0:0:0:0:
346,199,163046,2,0,P|347:233|363:264,1,70,2|0,0:0|0:0,0:0:0:0:
391,302,163437,2,0,B|338:306|338:306|292:335,1,105,2|8,0:0|0:0,0:0:0:0:
210,370,164089,6,0,L|203:297,1,70,2|0,0:0|0:0,0:0:0:0:
130,248,164611,2,0,L|123:175,1,70,0|8,0:0|0:0,0:0:0:0:
184,108,165133,2,0,L|177:35,1,70,2|0,0:0|0:0,0:0:0:0:
220,50,165524,2,0,P|263:61|328:45,1,105,2|8,0:0|0:0,0:0:0:0:
360,132,166176,6,0,P|368:168|360:208,2,70,2|0|0,0:0|0:0|0:0,0:0:0:0:
276,172,166959,1,8,0:0:0:0:
184,176,167220,2,0,P|144:172|116:152,1,70,2|0,0:0|0:0,0:0:0:0:
88,124,167611,2,0,L|80:232,1,105,2|8,0:0|0:0,0:0:0:0:
148,288,168263,6,0,B|184:300|184:300|232:292,1,70,2|0,0:0|0:0,0:0:0:0:
292,240,168785,2,0,B|323:234|323:234|359:246,1,70,0|8,0:0|0:0,0:0:0:0:
412,172,169307,2,0,P|404:136|416:100,1,70,2|0,0:0|0:0,0:0:0:0:
368,100,169698,2,0,L|248:84,1,105,2|8,0:0|0:0,0:0:0:0:
196,144,170350,6,0,P|188:184|204:220,1,70,2|0,0:0|0:0,0:0:0:0:
284,244,170872,2,0,P|292:204|276:168,1,70,0|8,0:0|0:0,0:0:0:0:
196,144,171393,2,0,L|112:140,1,70,2|0,0:0|0:0,0:0:0:0:
92,168,171785,2,0,B|60:208|60:208|48:276,1,105,2|8,0:0|0:0,0:0:0:0:
128,308,172437,6,0,P|169:321|212:310,1,70,2|0,0:0|0:0,0:0:0:0:
272,366,172959,2,0,P|285:324|274:281,1,70,0|8,0:0|0:0,0:0:0:0:
240,220,173480,2,0,P|237:185|249:152,1,70,2|0,0:0|0:0,0:0:0:0:
204,140,173872,2,0,P|156:120|128:64,1,105,2|8,0:0|0:0,0:0:0:0:
216,48,174524,6,0,L|296:48,2,70,2|0|0,0:0|0:0|0:0,0:0:0:0:
129,75,175307,1,8,0:0:0:0:
64,136,175567,2,0,L|52:216,1,70,2|0,0:0|0:0,0:0:0:0:
92,228,175959,2,0,L|76:352,1,105,2|8,0:0|0:0,0:0:0:0:
164,364,176611,5,4,0:0:0:0:
