osu file format v14

[General]
AudioFilename: audio.ogg
AudioLeadIn: 0
PreviewTime: 37189
Countdown: 0
SampleSet: Soft
StackLeniency: 0.7
Mode: 3
LetterboxInBreaks: 0
SpecialStyle: 0
WidescreenStoryboard: 0

[Editor]
Bookmarks: 37189,87421,137654
DistanceSpacing: 0.8
BeatDivisor: 4
GridSize: 32
TimelineZoom: 2.2

[Metadata]
Title:Ice Cream Cake
TitleUnicode:Ice Cream Cake
Artist:Red Velvet
ArtistUnicode:레드벨벳
Creator:Shad0wStar
Version:My 19th Birthday!!
Source:
Tags:kpop k-pop pop korean dance electronic 아이린 irene 슬기 seulgi 웬디 wendy 조이 joy 예리 yeri sm entertainment ent SM엔터테인먼트 smtown -XxbluezaperxX- hayley aitken sebastian lundberg fredrik haggstam johan gustafsson trinity music 조윤경 cho yoon-kyung yoon kyung
BeatmapID:4411958
BeatmapSetID:2102835

[Difficulty]
HPDrainRate:8
CircleSize:4
OverallDifficulty:8
ApproachRate:5
SliderMultiplier:1.4
SliderTickRate:1

[Events]
//Background and Video events
0,0,"OSJcWVh.jpg",0,0
//Break Periods
//Storyboard Layer 0 (Background)
//Storyboard Layer 1 (Fail)
//Storyboard Layer 2 (Pass)
//Storyboard Layer 3 (Foreground)
//Storyboard Layer 4 (Overlay)
//Storyboard Sound Samples

[TimingPoints]
910,348.837209302326,4,2,1,80,1,0
37189,-100,4,2,1,80,0,1
59514,-100,4,2,1,80,0,0
87421,-100,4,2,1,80,0,1
109747,-100,4,2,1,80,0,0
140444,-100,4,2,1,80,0,1
185096,-100,4,2,1,80,0,0

[HitObjects]
64,192,909,5,0,0:0:0:0:
192,192,1258,1,0,0:0:0:0:
448,192,1433,1,0,0:0:0:0:
64,192,1607,128,0,1956:0:0:0:0:
192,192,1607,1,0,0:0:0:0:
320,192,1956,1,0,0:0:0:0:
448,192,2130,1,0,0:0:0:0:
64,192,2305,128,0,2479:0:0:0:0:
192,192,2654,1,0,0:0:0:0:
448,192,2828,1,0,0:0:0:0:
64,192,3003,1,0,0:0:0:0:
320,192,3003,128,0,3351:0:0:0:0:
192,192,3351,128,0,3700:0:0:0:0:
64,192,3700,128,0,3875:0:0:0:0:
192,192,4049,1,0,0:0:0:0:
448,192,4223,1,0,0:0:0:0:
192,192,4398,1,0,0:0:0:0:
64,192,4398,128,0,4747:0:0:0:0:
320,192,4747,1,0,0:0:0:0:
448,192,4921,1,0,0:0:0:0:
64,192,5096,128,0,5270:0:0:0:0:
192,192,5444,1,0,0:0:0:0:
448,192,5619,1,0,0:0:0:0:
320,192,5793,128,0,6142:0:0:0:0:
64,192,5793,1,0,0:0:0:0:
192,192,6142,128,0,6316:0:0:0:0:
448,192,6316,1,0,0:0:0:0:
64,192,6316,1,0,0:0:0:0:
192,192,6491,1,0,0:0:0:0:
320,192,6491,1,0,0:0:0:0:
64,192,6491,1,0,0:0:0:0:
448,192,6665,128,0,6840:0:0:0:0:
192,192,6840,1,0,0:0:0:0:
448,192,7014,1,0,0:0:0:0:
64,192,7014,1,0,0:0:0:0:
320,192,7189,1,0,0:0:0:0:
192,192,7189,1,0,0:0:0:0:
64,192,7189,1,0,0:0:0:0:
448,192,7189,1,0,0:0:0:0:
320,192,7363,1,0,0:0:0:0:
64,192,7537,1,0,0:0:0:0:
192,192,7537,1,0,0:0:0:0:
192,192,7712,1,0,0:0:0:0:
64,192,7712,1,0,0:0:0:0:
448,192,7799,1,0,0:0:0:0:
320,192,7886,128,0,8061:0:0:0:0:
64,192,8061,1,0,0:0:0:0:
448,192,8061,1,0,0:0:0:0:
320,192,8235,1,0,0:0:0:0:
448,192,8235,1,0,0:0:0:0:
64,192,8410,1,0,0:0:0:0:
192,192,8410,1,0,0:0:0:0:
64,192,8584,1,0,0:0:0:0:
192,192,8584,1,0,0:0:0:0:
448,192,8584,1,0,0:0:0:0:
320,192,8584,1,0,0:0:0:0:
448,192,8758,1,0,0:0:0:0:
320,192,8758,1,0,0:0:0:0:
320,192,8933,1,0,0:0:0:0:
192,192,8933,1,0,0:0:0:0:
64,192,8933,1,0,0:0:0:0:
448,192,9107,1,0,0:0:0:0:
64,192,9107,1,0,0:0:0:0:
320,192,9194,1,0,0:0:0:0:
192,192,9282,1,0,0:0:0:0:
448,192,9282,1,0,0:0:0:0:
64,192,9456,128,0,9630:0:0:0:0:
320,192,9630,1,0,0:0:0:0:
192,192,9805,1,0,0:0:0:0:
448,192,9805,1,0,0:0:0:0:
448,192,9979,1,0,0:0:0:0:
320,192,9979,1,0,0:0:0:0:
192,192,9979,1,0,0:0:0:0:
64,192,9979,1,0,0:0:0:0:
320,192,10154,128,0,10328:0:0:0:0:
192,192,10328,1,0,0:0:0:0:
64,192,10328,1,0,0:0:0:0:
64,192,10503,1,0,0:0:0:0:
448,192,10503,1,0,0:0:0:0:
320,192,10590,1,0,0:0:0:0:
192,192,10677,128,0,10851:0:0:0:0:
448,192,10851,1,0,0:0:0:0:
64,192,10851,1,0,0:0:0:0:
192,192,11026,1,0,0:0:0:0:
64,192,11026,1,0,0:0:0:0:
448,192,11200,1,0,0:0:0:0:
320,192,11200,1,0,0:0:0:0:
64,192,11287,1,0,0:0:0:0:
320,192,11375,1,0,0:0:0:0:
448,192,11375,1,0,0:0:0:0:
192,192,11375,1,0,0:0:0:0:
64,192,11549,1,0,0:0:0:0:
192,192,11549,1,0,0:0:0:0:
320,192,11723,1,0,0:0:0:0:
448,192,11723,1,0,0:0:0:0:
64,192,11723,1,0,0:0:0:0:
448,192,11898,1,0,0:0:0:0:
192,192,11898,1,0,0:0:0:0:
320,192,11898,1,0,0:0:0:0:
64,192,12072,1,0,0:0:0:0:
192,192,12072,1,0,0:0:0:0:
320,192,12247,128,0,12421:0:0:0:0:
64,192,12421,128,0,12596:0:0:0:0:
320,192,12596,1,0,0:0:0:0:
448,192,12596,1,0,0:0:0:0:
64,192,12770,1,0,0:0:0:0:
448,192,12770,1,0,0:0:0:0:
320,192,12770,1,0,0:0:0:0:
192,192,12770,128,0,13119:0:0:0:0:
320,192,13119,1,0,0:0:0:0:
448,192,13119,1,0,0:0:0:0:
448,192,13293,1,0,0:0:0:0:
64,192,13293,1,0,0:0:0:0:
192,192,13380,1,0,0:0:0:0:
320,192,13468,1,0,0:0:0:0:
64,192,13642,1,0,0:0:0:0:
192,192,13642,1,0,0:0:0:0:
192,192,13816,1,0,0:0:0:0:
320,192,13816,1,0,0:0:0:0:
448,192,13991,1,0,0:0:0:0:
64,192,13991,1,0,0:0:0:0:
64,192,14165,1,0,0:0:0:0:
192,192,14165,1,0,0:0:0:0:
320,192,14165,1,0,0:0:0:0:
448,192,14165,1,0,0:0:0:0:
320,192,14340,1,0,0:0:0:0:
192,192,14340,1,0,0:0:0:0:
448,192,14514,1,0,0:0:0:0:
192,192,14514,1,0,0:0:0:0:
64,192,14514,1,0,0:0:0:0:
320,192,14689,1,0,0:0:0:0:
448,192,14689,1,0,0:0:0:0:
64,192,14776,1,0,0:0:0:0:
192,192,14863,1,0,0:0:0:0:
320,192,14863,1,0,0:0:0:0:
64,192,15212,1,0,0:0:0:0:
448,192,15386,1,0,0:0:0:0:
320,192,15386,1,0,0:0:0:0:
448,192,15561,1,0,0:0:0:0:
320,192,15561,1,0,0:0:0:0:
64,192,15561,1,0,0:0:0:0:
192,192,15561,128,0,15910:0:0:0:0:
320,192,15910,1,0,0:0:0:0:
448,192,15910,1,0,0:0:0:0:
64,192,16084,1,0,0:0:0:0:
448,192,16084,1,0,0:0:0:0:
192,192,16171,1,0,0:0:0:0:
320,192,16258,128,0,16433:0:0:0:0:
192,192,16433,1,0,0:0:0:0:
64,192,16433,1,0,0:0:0:0:
64,192,16607,1,0,0:0:0:0:
192,192,16607,1,0,0:0:0:0:
320,192,16782,1,0,0:0:0:0:
192,192,16869,1,0,0:0:0:0:
320,192,16956,1,0,0:0:0:0:
64,192,16956,1,0,0:0:0:0:
448,192,16956,1,0,0:0:0:0:
192,192,17130,1,0,0:0:0:0:
64,192,17130,1,0,0:0:0:0:
320,192,17305,1,0,0:0:0:0:
448,192,17305,1,0,0:0:0:0:
192,192,17305,1,0,0:0:0:0:
448,192,17479,1,0,0:0:0:0:
64,192,17479,1,0,0:0:0:0:
192,192,17654,1,0,0:0:0:0:
320,192,17654,1,0,0:0:0:0:
64,192,17654,1,0,0:0:0:0:
448,192,17828,128,0,18003:0:0:0:0:
192,192,18003,1,0,0:0:0:0:
448,192,18177,1,0,0:0:0:0:
64,192,18177,1,0,0:0:0:0:
320,192,18351,1,0,0:0:0:0:
64,192,18351,1,0,0:0:0:0:
448,192,18351,1,0,0:0:0:0:
192,192,18439,1,0,0:0:0:0:
320,192,18526,1,0,0:0:0:0:
192,192,18613,1,0,0:0:0:0:
64,192,18700,1,0,0:0:0:0:
448,192,18700,1,0,0:0:0:0:
192,192,18875,1,0,0:0:0:0:
64,192,18875,1,0,0:0:0:0:
448,192,18962,1,0,0:0:0:0:
320,192,19049,128,0,19223:0:0:0:0:
64,192,19223,1,0,0:0:0:0:
192,192,19223,1,0,0:0:0:0:
192,192,19398,1,0,0:0:0:0:
320,192,19398,1,0,0:0:0:0:
64,192,19572,1,0,0:0:0:0:
448,192,19572,1,0,0:0:0:0:
64,192,19747,1,0,0:0:0:0:
192,192,19747,1,0,0:0:0:0:
448,192,19747,1,0,0:0:0:0:
320,192,19747,1,0,0:0:0:0:
320,192,19921,1,0,0:0:0:0:
192,192,19921,1,0,0:0:0:0:
64,192,20096,1,0,0:0:0:0:
448,192,20096,1,0,0:0:0:0:
320,192,20096,1,0,0:0:0:0:
448,192,20270,1,0,0:0:0:0:
64,192,20270,1,0,0:0:0:0:
320,192,20357,1,0,0:0:0:0:
192,192,20444,1,0,0:0:0:0:
448,192,20444,1,0,0:0:0:0:
64,192,20619,128,0,20793:0:0:0:0:
320,192,20793,1,0,0:0:0:0:
192,192,20968,1,0,0:0:0:0:
448,192,20968,1,0,0:0:0:0:
448,192,21142,1,0,0:0:0:0:
320,192,21142,1,0,0:0:0:0:
192,192,21142,1,0,0:0:0:0:
64,192,21142,1,0,0:0:0:0:
320,192,21316,128,0,21491:0:0:0:0:
192,192,21491,1,0,0:0:0:0:
64,192,21491,1,0,0:0:0:0:
64,192,21665,1,0,0:0:0:0:
448,192,21665,1,0,0:0:0:0:
320,192,21753,1,0,0:0:0:0:
192,192,21840,128,0,22014:0:0:0:0:
448,192,22014,1,0,0:0:0:0:
64,192,22014,1,0,0:0:0:0:
192,192,22189,1,0,0:0:0:0:
64,192,22189,1,0,0:0:0:0:
448,192,22363,1,0,0:0:0:0:
320,192,22363,1,0,0:0:0:0:
64,192,22450,1,0,0:0:0:0:
320,192,22537,1,0,0:0:0:0:
448,192,22537,1,0,0:0:0:0:
192,192,22537,1,0,0:0:0:0:
64,192,22712,1,0,0:0:0:0:
192,192,22712,1,0,0:0:0:0:
320,192,22886,1,0,0:0:0:0:
448,192,22886,1,0,0:0:0:0:
64,192,22886,1,0,0:0:0:0:
64,192,23061,1,0,0:0:0:0:
192,192,23061,1,0,0:0:0:0:
320,192,23061,1,0,0:0:0:0:
448,192,23235,1,0,0:0:0:0:
192,192,23235,1,0,0:0:0:0:
320,192,23410,128,0,23584:0:0:0:0:
64,192,23584,128,0,23758:0:0:0:0:
320,192,23758,1,0,0:0:0:0:
448,192,23758,1,0,0:0:0:0:
64,192,23933,1,0,0:0:0:0:
448,192,23933,1,0,0:0:0:0:
320,192,23933,1,0,0:0:0:0:
192,192,23933,128,0,24107:0:0:0:0:
448,192,24282,1,0,0:0:0:0:
64,192,24282,1,0,0:0:0:0:
64,192,24456,1,0,0:0:0:0:
320,192,24456,1,0,0:0:0:0:
192,192,24543,1,0,0:0:0:0:
320,192,24630,1,0,0:0:0:0:
64,192,24805,1,0,0:0:0:0:
192,192,24805,1,0,0:0:0:0:
192,192,24979,1,0,0:0:0:0:
320,192,24979,1,0,0:0:0:0:
448,192,25154,1,0,0:0:0:0:
64,192,25154,1,0,0:0:0:0:
64,192,25328,1,0,0:0:0:0:
192,192,25328,1,0,0:0:0:0:
320,192,25328,1,0,0:0:0:0:
448,192,25328,1,0,0:0:0:0:
320,192,25503,1,0,0:0:0:0:
192,192,25503,1,0,0:0:0:0:
448,192,25677,1,0,0:0:0:0:
192,192,25677,1,0,0:0:0:0:
64,192,25677,1,0,0:0:0:0:
320,192,25851,1,0,0:0:0:0:
448,192,25851,1,0,0:0:0:0:
64,192,25939,1,0,0:0:0:0:
192,192,26026,1,0,0:0:0:0:
320,192,26026,1,0,0:0:0:0:
64,192,26375,1,0,0:0:0:0:
448,192,26549,1,0,0:0:0:0:
320,192,26549,1,0,0:0:0:0:
448,192,26723,1,0,0:0:0:0:
320,192,26723,1,0,0:0:0:0:
64,192,26723,1,0,0:0:0:0:
192,192,26723,1,0,0:0:0:0:
192,192,26898,1,0,0:0:0:0:
320,192,27072,1,0,0:0:0:0:
448,192,27072,1,0,0:0:0:0:
64,192,27247,1,0,0:0:0:0:
448,192,27247,1,0,0:0:0:0:
192,192,27334,1,0,0:0:0:0:
320,192,27421,1,0,0:0:0:0:
64,192,27596,1,0,0:0:0:0:
320,192,27596,1,0,0:0:0:0:
64,192,27770,1,0,0:0:0:0:
448,192,27770,1,0,0:0:0:0:
320,192,27944,1,0,0:0:0:0:
192,192,28032,1,0,0:0:0:0:
320,192,28119,1,0,0:0:0:0:
64,192,28119,1,0,0:0:0:0:
448,192,28119,1,0,0:0:0:0:
192,192,28293,1,0,0:0:0:0:
64,192,28293,1,0,0:0:0:0:
320,192,28468,1,0,0:0:0:0:
448,192,28468,1,0,0:0:0:0:
192,192,28468,1,0,0:0:0:0:
448,192,28642,1,0,0:0:0:0:
64,192,28642,1,0,0:0:0:0:
192,192,28816,1,0,0:0:0:0:
64,192,28816,128,0,31433:0:0:0:0:
320,192,29340,1,0,0:0:0:0:
448,192,29340,1,0,0:0:0:0:
192,192,29514,128,0,29863:0:0:0:0:
320,192,29863,1,0,0:0:0:0:
448,192,29863,1,0,0:0:0:0:
192,192,30037,1,0,0:0:0:0:
448,192,30212,1,0,0:0:0:0:
320,192,30386,1,0,0:0:0:0:
192,192,30386,1,0,0:0:0:0:
448,192,30735,1,0,0:0:0:0:
320,192,30910,128,0,31258:0:0:0:0:
192,192,30910,1,0,0:0:0:0:
448,192,31258,1,0,0:0:0:0:
192,192,31258,128,0,31607:0:0:0:0:
64,192,31607,128,0,34223:0:0:0:0:
448,192,31607,128,0,31782:0:0:0:0:
192,192,32130,1,0,0:0:0:0:
320,192,32130,1,0,0:0:0:0:
448,192,32305,128,0,32654:0:0:0:0:
320,192,32654,1,0,0:0:0:0:
192,192,32654,1,0,0:0:0:0:
448,192,32828,1,0,0:0:0:0:
192,192,33003,128,0,33177:0:0:0:0:
320,192,33177,1,0,0:0:0:0:
448,192,33177,1,0,0:0:0:0:
320,192,33526,1,0,0:0:0:0:
192,192,33700,1,0,0:0:0:0:
448,192,33700,128,0,34049:0:0:0:0:
192,192,34049,1,0,0:0:0:0:
320,192,34049,128,0,34398:0:0:0:0:
448,192,34398,1,0,0:0:0:0:
64,192,34398,128,0,34572:0:0:0:0:
320,192,34921,1,0,0:0:0:0:
448,192,34921,1,0,0:0:0:0:
192,192,35096,128,0,35444:0:0:0:0:
320,192,35444,128,0,35619:0:0:0:0:
64,192,35444,1,0,0:0:0:0:
448,192,35619,128,0,35793:0:0:0:0:
64,192,35793,128,0,35968:0:0:0:0:
192,192,35968,1,0,0:0:0:0:
320,192,35968,1,0,0:0:0:0:
192,192,36142,128,0,36491:0:0:0:0:
64,192,36142,128,0,36491:0:0:0:0:
320,192,36491,1,0,0:0:0:0:
448,192,36491,1,0,0:0:0:0:
64,192,36665,5,0,0:0:0:0:
448,192,36665,1,0,0:0:0:0:
192,192,36840,1,0,0:0:0:0:
64,192,36840,1,0,0:0:0:0:
192,192,37014,1,0,0:0:0:0:
64,192,37014,1,0,0:0:0:0:
64,192,37189,5,0,0:0:0:0:
448,192,37189,1,0,0:0:0:0:
320,192,37189,1,0,0:0:0:0:
192,192,37276,1,0,0:0:0:0:
448,192,37363,1,0,0:0:0:0:
64,192,37450,1,0,0:0:0:0:
192,192,37537,1,0,0:0:0:0:
320,192,37537,1,0,0:0:0:0:
448,192,37625,1,0,0:0:0:0:
64,192,37712,1,0,0:0:0:0:
320,192,37799,1,0,0:0:0:0:
64,192,37886,1,0,0:0:0:0:
192,192,37886,1,0,0:0:0:0:
448,192,37886,1,0,0:0:0:0:
320,192,38061,1,0,0:0:0:0:
64,192,38119,1,0,0:0:0:0:
448,192,38177,1,0,0:0:0:0:
192,192,38235,1,0,0:0:0:0:
320,192,38235,1,0,0:0:0:0:
64,192,38351,1,0,0:0:0:0:
448,192,38410,1,0,0:0:0:0:
320,192,38410,1,0,0:0:0:0:
192,192,38497,1,0,0:0:0:0:
64,192,38584,1,0,0:0:0:0:
448,192,38584,1,0,0:0:0:0:
192,192,38758,1,0,0:0:0:0:
64,192,38758,1,0,0:0:0:0:
320,192,38933,1,0,0:0:0:0:
448,192,38933,1,0,0:0:0:0:
192,192,39107,1,0,0:0:0:0:
320,192,39194,1,0,0:0:0:0:
192,192,39282,1,0,0:0:0:0:
64,192,39282,1,0,0:0:0:0:
448,192,39282,1,0,0:0:0:0:
320,192,39456,1,0,0:0:0:0:
64,192,39456,1,0,0:0:0:0:
448,192,39630,1,0,0:0:0:0:
192,192,39718,1,0,0:0:0:0:
320,192,39805,1,0,0:0:0:0:
448,192,39892,1,0,0:0:0:0:
192,192,39979,1,0,0:0:0:0:
64,192,39979,1,0,0:0:0:0:
320,192,40066,1,0,0:0:0:0:
448,192,40154,1,0,0:0:0:0:
64,192,40154,1,0,0:0:0:0:
320,192,40241,1,0,0:0:0:0:
192,192,40328,1,0,0:0:0:0:
448,192,40328,1,0,0:0:0:0:
64,192,40415,1,0,0:0:0:0:
320,192,40503,1,0,0:0:0:0:
192,192,40503,1,0,0:0:0:0:
448,192,40590,1,0,0:0:0:0:
192,192,40677,1,0,0:0:0:0:
64,192,40677,1,0,0:0:0:0:
320,192,40677,1,0,0:0:0:0:
448,192,40851,1,0,0:0:0:0:
64,192,40851,1,0,0:0:0:0:
192,192,41026,1,0,0:0:0:0:
320,192,41026,1,0,0:0:0:0:
64,192,41200,1,0,0:0:0:0:
448,192,41287,1,0,0:0:0:0:
320,192,41375,1,0,0:0:0:0:
192,192,41375,1,0,0:0:0:0:
64,192,41549,1,0,0:0:0:0:
192,192,41549,1,0,0:0:0:0:
320,192,41636,1,0,0:0:0:0:
448,192,41636,1,0,0:0:0:0:
64,192,41723,1,0,0:0:0:0:
192,192,41723,1,0,0:0:0:0:
320,192,41898,1,0,0:0:0:0:
448,192,41898,1,0,0:0:0:0:
64,192,41985,1,0,0:0:0:0:
192,192,41985,1,0,0:0:0:0:
448,192,42072,1,0,0:0:0:0:
320,192,42072,1,0,0:0:0:0:
64,192,42247,1,0,0:0:0:0:
320,192,42247,1,0,0:0:0:0:
192,192,42334,1,0,0:0:0:0:
64,192,42421,1,0,0:0:0:0:
448,192,42421,1,0,0:0:0:0:
192,192,42596,1,0,0:0:0:0:
448,192,42596,1,0,0:0:0:0:
320,192,42596,1,0,0:0:0:0:
64,192,42770,5,0,0:0:0:0:
448,192,42770,1,0,0:0:0:0:
320,192,42770,1,0,0:0:0:0:
192,192,42857,1,0,0:0:0:0:
64,192,42944,1,0,0:0:0:0:
448,192,43032,1,0,0:0:0:0:
320,192,43119,1,0,0:0:0:0:
192,192,43119,1,0,0:0:0:0:
64,192,43206,1,0,0:0:0:0:
448,192,43293,1,0,0:0:0:0:
192,192,43380,1,0,0:0:0:0:
64,192,43468,1,0,0:0:0:0:
320,192,43468,1,0,0:0:0:0:
448,192,43468,1,0,0:0:0:0:
192,192,43642,1,0,0:0:0:0:
64,192,43700,1,0,0:0:0:0:
320,192,43758,1,0,0:0:0:0:
192,192,43816,1,0,0:0:0:0:
448,192,43816,1,0,0:0:0:0:
320,192,43933,1,0,0:0:0:0:
448,192,43991,1,0,0:0:0:0:
64,192,43991,1,0,0:0:0:0:
192,192,44078,1,0,0:0:0:0:
64,192,44165,1,0,0:0:0:0:
320,192,44165,1,0,0:0:0:0:
192,192,44340,1,0,0:0:0:0:
448,192,44340,1,0,0:0:0:0:
64,192,44514,1,0,0:0:0:0:
448,192,44514,1,0,0:0:0:0:
320,192,44689,1,0,0:0:0:0:
192,192,44776,1,0,0:0:0:0:
320,192,44863,1,0,0:0:0:0:
64,192,44863,1,0,0:0:0:0:
448,192,44863,1,0,0:0:0:0:
192,192,45037,1,0,0:0:0:0:
64,192,45037,1,0,0:0:0:0:
448,192,45212,1,0,0:0:0:0:
64,192,45299,1,0,0:0:0:0:
320,192,45386,1,0,0:0:0:0:
192,192,45473,1,0,0:0:0:0:
448,192,45561,1,0,0:0:0:0:
64,192,45561,1,0,0:0:0:0:
320,192,45648,1,0,0:0:0:0:
192,192,45735,1,0,0:0:0:0:
64,192,45735,1,0,0:0:0:0:
320,192,45822,1,0,0:0:0:0:
64,192,45910,1,0,0:0:0:0:
448,192,45910,1,0,0:0:0:0:
192,192,45997,1,0,0:0:0:0:
320,192,46084,1,0,0:0:0:0:
448,192,46084,1,0,0:0:0:0:
64,192,46171,1,0,0:0:0:0:
192,192,46258,1,0,0:0:0:0:
448,192,46258,1,0,0:0:0:0:
320,192,46258,1,0,0:0:0:0:
192,192,46433,1,0,0:0:0:0:
64,192,46433,1,0,0:0:0:0:
448,192,46607,1,0,0:0:0:0:
320,192,46607,1,0,0:0:0:0:
64,192,46782,1,0,0:0:0:0:
192,192,46782,1,0,0:0:0:0:
448,192,46869,1,0,0:0:0:0:
320,192,46956,1,0,0:0:0:0:
192,192,46956,1,0,0:0:0:0:
64,192,47130,1,0,0:0:0:0:
192,192,47130,1,0,0:0:0:0:
320,192,47218,1,0,0:0:0:0:
448,192,47218,1,0,0:0:0:0:
64,192,47305,1,0,0:0:0:0:
192,192,47305,1,0,0:0:0:0:
320,192,47479,1,0,0:0:0:0:
448,192,47479,1,0,0:0:0:0:
64,192,47566,1,0,0:0:0:0:
192,192,47566,1,0,0:0:0:0:
448,192,47654,1,0,0:0:0:0:
320,192,47654,1,0,0:0:0:0:
64,192,47828,1,0,0:0:0:0:
320,192,47828,1,0,0:0:0:0:
192,192,47915,1,0,0:0:0:0:
64,192,48003,1,0,0:0:0:0:
448,192,48003,1,0,0:0:0:0:
192,192,48177,1,0,0:0:0:0:
320,192,48177,1,0,0:0:0:0:
320,192,48351,1,0,0:0:0:0:
448,192,48351,1,0,0:0:0:0:
64,192,48351,1,0,0:0:0:0:
192,192,48439,1,0,0:0:0:0:
320,192,48526,1,0,0:0:0:0:
448,192,48613,1,0,0:0:0:0:
320,192,48700,1,0,0:0:0:0:
192,192,48787,1,0,0:0:0:0:
64,192,48875,1,0,0:0:0:0:
320,192,48875,1,0,0:0:0:0:
448,192,48875,1,0,0:0:0:0:
192,192,48962,1,0,0:0:0:0:
320,192,49049,1,0,0:0:0:0:
448,192,49136,1,0,0:0:0:0:
320,192,49223,1,0,0:0:0:0:
192,192,49311,1,0,0:0:0:0:
64,192,49398,1,0,0:0:0:0:
320,192,49398,1,0,0:0:0:0:
448,192,49398,1,0,0:0:0:0:
192,192,49572,1,0,0:0:0:0:
64,192,49572,1,0,0:0:0:0:
320,192,49660,1,0,0:0:0:0:
448,192,49747,1,0,0:0:0:0:
320,192,49921,1,0,0:0:0:0:
448,192,49921,1,0,0:0:0:0:
64,192,49921,1,0,0:0:0:0:
192,192,50008,1,0,0:0:0:0:
320,192,50096,1,0,0:0:0:0:
64,192,50096,1,0,0:0:0:0:
192,192,50270,1,0,0:0:0:0:
448,192,50357,1,0,0:0:0:0:
192,192,50444,1,0,0:0:0:0:
64,192,50444,1,0,0:0:0:0:
320,192,50444,1,0,0:0:0:0:
64,192,50619,1,0,0:0:0:0:
448,192,50619,1,0,0:0:0:0:
320,192,50793,1,0,0:0:0:0:
448,192,50793,1,0,0:0:0:0:
192,192,50880,1,0,0:0:0:0:
64,192,50968,1,0,0:0:0:0:
320,192,51055,1,0,0:0:0:0:
192,192,51142,1,0,0:0:0:0:
64,192,51142,1,0,0:0:0:0:
448,192,51142,1,0,0:0:0:0:
320,192,51229,1,0,0:0:0:0:
192,192,51316,1,0,0:0:0:0:
64,192,51404,1,0,0:0:0:0:
192,192,51491,1,0,0:0:0:0:
320,192,51578,1,0,0:0:0:0:
448,192,51665,1,0,0:0:0:0:
192,192,51665,1,0,0:0:0:0:
64,192,51665,1,0,0:0:0:0:
320,192,51753,1,0,0:0:0:0:
192,192,51840,1,0,0:0:0:0:
64,192,51927,1,0,0:0:0:0:
192,192,52014,1,0,0:0:0:0:
320,192,52101,1,0,0:0:0:0:
448,192,52189,1,0,0:0:0:0:
192,192,52189,1,0,0:0:0:0:
64,192,52189,1,0,0:0:0:0:
320,192,52363,1,0,0:0:0:0:
192,192,52363,1,0,0:0:0:0:
64,192,52450,1,0,0:0:0:0:
448,192,52537,1,0,0:0:0:0:
320,192,52712,1,0,0:0:0:0:
192,192,52712,1,0,0:0:0:0:
64,192,52712,1,0,0:0:0:0:
448,192,52886,1,0,0:0:0:0:
64,192,52886,1,0,0:0:0:0:
320,192,53061,1,0,0:0:0:0:
192,192,53148,1,0,0:0:0:0:
64,192,53235,1,0,0:0:0:0:
320,192,53235,1,0,0:0:0:0:
448,192,53235,1,0,0:0:0:0:
192,192,53410,1,0,0:0:0:0:
64,192,53410,1,0,0:0:0:0:
448,192,53584,1,0,0:0:0:0:
192,192,53671,1,0,0:0:0:0:
320,192,53671,1,0,0:0:0:0:
64,192,53758,1,0,0:0:0:0:
448,192,53758,1,0,0:0:0:0:
192,192,53846,1,0,0:0:0:0:
320,192,53933,1,0,0:0:0:0:
448,192,53933,1,0,0:0:0:0:
64,192,53933,1,0,0:0:0:0:
192,192,54020,1,0,0:0:0:0:
320,192,54107,1,0,0:0:0:0:
448,192,54194,1,0,0:0:0:0:
320,192,54282,1,0,0:0:0:0:
192,192,54369,1,0,0:0:0:0:
64,192,54456,1,0,0:0:0:0:
320,192,54456,1,0,0:0:0:0:
448,192,54456,1,0,0:0:0:0:
192,192,54543,1,0,0:0:0:0:
320,192,54630,1,0,0:0:0:0:
448,192,54718,1,0,0:0:0:0:
320,192,54805,1,0,0:0:0:0:
192,192,54892,1,0,0:0:0:0:
64,192,54979,1,0,0:0:0:0:
320,192,54979,1,0,0:0:0:0:
448,192,54979,1,0,0:0:0:0:
192,192,55154,1,0,0:0:0:0:
64,192,55154,1,0,0:0:0:0:
320,192,55241,1,0,0:0:0:0:
448,192,55328,1,0,0:0:0:0:
320,192,55503,1,0,0:0:0:0:
448,192,55503,1,0,0:0:0:0:
64,192,55503,1,0,0:0:0:0:
192,192,55590,1,0,0:0:0:0:
320,192,55677,1,0,0:0:0:0:
64,192,55677,1,0,0:0:0:0:
192,192,55851,1,0,0:0:0:0:
448,192,55939,1,0,0:0:0:0:
192,192,56026,1,0,0:0:0:0:
64,192,56026,1,0,0:0:0:0:
320,192,56026,1,0,0:0:0:0:
64,192,56200,1,0,0:0:0:0:
448,192,56200,1,0,0:0:0:0:
320,192,56375,1,0,0:0:0:0:
448,192,56375,1,0,0:0:0:0:
64,192,56462,1,0,0:0:0:0:
192,192,56549,1,0,0:0:0:0:
320,192,56636,1,0,0:0:0:0:
192,192,56723,1,0,0:0:0:0:
64,192,56723,1,0,0:0:0:0:
448,192,56723,1,0,0:0:0:0:
320,192,56811,1,0,0:0:0:0:
64,192,56898,1,0,0:0:0:0:
192,192,56985,1,0,0:0:0:0:
320,192,57072,1,0,0:0:0:0:
64,192,57072,1,0,0:0:0:0:
320,192,57247,1,0,0:0:0:0:
448,192,57421,1,0,0:0:0:0:
64,192,57421,1,0,0:0:0:0:
320,192,57421,1,0,0:0:0:0:
192,192,57508,1,0,0:0:0:0:
448,192,57596,1,0,0:0:0:0:
320,192,57683,1,0,0:0:0:0:
448,192,57770,1,0,0:0:0:0:
192,192,57770,1,0,0:0:0:0:
192,192,57944,1,0,0:0:0:0:
192,192,58119,1,0,0:0:0:0:
64,192,58119,1,0,0:0:0:0:
320,192,58206,1,0,0:0:0:0:
448,192,58206,1,0,0:0:0:0:
192,192,58293,1,0,0:0:0:0:
64,192,58293,1,0,0:0:0:0:
448,192,58468,1,0,0:0:0:0:
64,192,58468,1,0,0:0:0:0:
192,192,58555,1,0,0:0:0:0:
320,192,58555,1,0,0:0:0:0:
448,192,58642,1,0,0:0:0:0:
64,192,58642,1,0,0:0:0:0:
448,192,58816,1,0,0:0:0:0:
192,192,58816,1,0,0:0:0:0:
320,192,58816,1,0,0:0:0:0:
192,192,58991,1,0,0:0:0:0:
64,192,58991,1,0,0:0:0:0:
448,192,59078,1,0,0:0:0:0:
320,192,59165,1,0,0:0:0:0:
64,192,59165,1,0,0:0:0:0:
448,192,59340,1,0,0:0:0:0:
192,192,59340,1,0,0:0:0:0:
320,192,59427,1,0,0:0:0:0:
448,192,59514,1,0,0:0:0:0:
64,192,59514,1,0,0:0:0:0:
64,192,59689,1,0,0:0:0:0:
192,192,59863,1,0,0:0:0:0:
192,192,60037,1,0,0:0:0:0:
448,192,60212,1,0,0:0:0:0:
448,192,60386,1,0,0:0:0:0:
64,192,60561,1,0,0:0:0:0:
64,192,60735,1,0,0:0:0:0:
192,192,60910,1,0,0:0:0:0:
192,192,61084,1,0,0:0:0:0:
448,192,61258,1,0,0:0:0:0:
448,192,61433,1,0,0:0:0:0:
448,192,61607,1,0,0:0:0:0:
320,192,61607,1,0,0:0:0:0:
64,192,61607,1,0,0:0:0:0:
192,192,61607,1,0,0:0:0:0:
64,192,61782,1,0,0:0:0:0:
320,192,61782,1,0,0:0:0:0:
448,192,61782,1,0,0:0:0:0:
192,192,61782,1,0,0:0:0:0:
64,192,61956,1,0,0:0:0:0:
192,192,61956,1,0,0:0:0:0:
448,192,61956,1,0,0:0:0:0:
320,192,61956,1,0,0:0:0:0:
448,192,62130,1,0,0:0:0:0:
320,192,62130,1,0,0:0:0:0:
192,192,62130,1,0,0:0:0:0:
64,192,62130,1,0,0:0:0:0:
448,192,62305,1,0,0:0:0:0:
64,192,62305,1,0,0:0:0:0:
64,192,62479,1,0,0:0:0:0:
192,192,62654,1,0,0:0:0:0:
192,192,62828,1,0,0:0:0:0:
320,192,62828,1,0,0:0:0:0:
320,192,63003,1,0,0:0:0:0:
448,192,63003,1,0,0:0:0:0:
64,192,63003,1,0,0:0:0:0:
192,192,63003,1,0,0:0:0:0:
448,192,63177,1,0,0:0:0:0:
192,192,63351,1,0,0:0:0:0:
64,192,63351,1,0,0:0:0:0:
64,192,63526,1,0,0:0:0:0:
448,192,63526,1,0,0:0:0:0:
320,192,63613,1,0,0:0:0:0:
192,192,63700,1,0,0:0:0:0:
192,192,63875,1,0,0:0:0:0:
448,192,63875,1,0,0:0:0:0:
64,192,64049,1,0,0:0:0:0:
320,192,64049,1,0,0:0:0:0:
448,192,64223,1,0,0:0:0:0:
64,192,64223,1,0,0:0:0:0:
192,192,64311,1,0,0:0:0:0:
64,192,64398,1,0,0:0:0:0:
320,192,64398,1,0,0:0:0:0:
448,192,64398,1,0,0:0:0:0:
192,192,64572,1,0,0:0:0:0:
320,192,64572,1,0,0:0:0:0:
64,192,64747,1,0,0:0:0:0:
448,192,64747,1,0,0:0:0:0:
192,192,64747,1,0,0:0:0:0:
448,192,64921,1,0,0:0:0:0:
64,192,64921,1,0,0:0:0:0:
320,192,65008,1,0,0:0:0:0:
192,192,65096,1,0,0:0:0:0:
64,192,65096,1,0,0:0:0:0:
448,192,65183,1,0,0:0:0:0:
192,192,65270,1,0,0:0:0:0:
64,192,65444,1,0,0:0:0:0:
192,192,65619,1,0,0:0:0:0:
448,192,65619,1,0,0:0:0:0:
192,192,65793,1,0,0:0:0:0:
64,192,65793,1,0,0:0:0:0:
448,192,65793,1,0,0:0:0:0:
320,192,65793,1,0,0:0:0:0:
320,192,65968,1,0,0:0:0:0:
64,192,66142,1,0,0:0:0:0:
192,192,66142,1,0,0:0:0:0:
320,192,66316,1,0,0:0:0:0:
448,192,66316,1,0,0:0:0:0:
192,192,66404,1,0,0:0:0:0:
64,192,66491,1,0,0:0:0:0:
192,192,66665,1,0,0:0:0:0:
320,192,66665,1,0,0:0:0:0:
320,192,66840,1,0,0:0:0:0:
448,192,66840,1,0,0:0:0:0:
192,192,67014,1,0,0:0:0:0:
64,192,67014,1,0,0:0:0:0:
320,192,67189,1,0,0:0:0:0:
448,192,67189,1,0,0:0:0:0:
64,192,67189,1,0,0:0:0:0:
192,192,67189,1,0,0:0:0:0:
320,192,67363,1,0,0:0:0:0:
448,192,67363,1,0,0:0:0:0:
192,192,67537,1,0,0:0:0:0:
320,192,67537,1,0,0:0:0:0:
64,192,67537,1,0,0:0:0:0:
64,192,67712,1,0,0:0:0:0:
448,192,67712,1,0,0:0:0:0:
320,192,67799,1,0,0:0:0:0:
192,192,67886,1,0,0:0:0:0:
448,192,67886,1,0,0:0:0:0:
64,192,67973,1,0,0:0:0:0:
320,192,68061,1,0,0:0:0:0:
192,192,68235,1,0,0:0:0:0:
320,192,68410,1,0,0:0:0:0:
448,192,68410,1,0,0:0:0:0:
448,192,68584,1,0,0:0:0:0:
320,192,68584,1,0,0:0:0:0:
192,192,68584,1,0,0:0:0:0:
64,192,68584,1,0,0:0:0:0:
192,192,68758,1,0,0:0:0:0:
64,192,68933,1,0,0:0:0:0:
448,192,68933,1,0,0:0:0:0:
64,192,69107,1,0,0:0:0:0:
192,192,69107,1,0,0:0:0:0:
320,192,69194,1,0,0:0:0:0:
192,192,69282,1,0,0:0:0:0:
448,192,69282,1,0,0:0:0:0:
64,192,69456,1,0,0:0:0:0:
192,192,69543,5,0,0:0:0:0:
320,192,69543,1,0,0:0:0:0:
64,192,69630,1,0,0:0:0:0:
448,192,69630,1,0,0:0:0:0:
192,192,69805,1,0,0:0:0:0:
320,192,69805,1,0,0:0:0:0:
448,192,69805,1,0,0:0:0:0:
64,192,69979,1,0,0:0:0:0:
192,192,69979,1,0,0:0:0:0:
320,192,69979,1,0,0:0:0:0:
448,192,69979,1,0,0:0:0:0:
192,192,70154,1,0,0:0:0:0:
64,192,70154,1,0,0:0:0:0:
448,192,70328,1,0,0:0:0:0:
64,192,70328,1,0,0:0:0:0:
320,192,70328,1,0,0:0:0:0:
448,192,70503,1,0,0:0:0:0:
192,192,70503,1,0,0:0:0:0:
192,192,70677,5,0,0:0:0:0:
320,192,70677,1,0,0:0:0:0:
64,192,70677,1,0,0:0:0:0:
448,192,70851,128,0,71026:0:0:0:0:
192,192,71026,1,0,0:0:0:0:
64,192,71200,1,0,0:0:0:0:
320,192,71200,1,0,0:0:0:0:
320,192,71375,1,0,0:0:0:0:
64,192,71375,1,0,0:0:0:0:
448,192,71375,1,0,0:0:0:0:
192,192,71462,1,0,0:0:0:0:
320,192,71549,1,0,0:0:0:0:
64,192,71723,1,0,0:0:0:0:
448,192,71723,1,0,0:0:0:0:
320,192,71898,1,0,0:0:0:0:
448,192,71898,1,0,0:0:0:0:
192,192,71985,1,0,0:0:0:0:
320,192,72072,1,0,0:0:0:0:
192,192,72160,1,0,0:0:0:0:
64,192,72247,1,0,0:0:0:0:
320,192,72247,1,0,0:0:0:0:
192,192,72334,1,0,0:0:0:0:
448,192,72421,1,0,0:0:0:0:
320,192,72421,1,0,0:0:0:0:
192,192,72508,1,0,0:0:0:0:
320,192,72596,1,0,0:0:0:0:
64,192,72596,1,0,0:0:0:0:
192,192,72683,1,0,0:0:0:0:
64,192,72770,1,0,0:0:0:0:
448,192,72770,1,0,0:0:0:0:
320,192,72770,1,0,0:0:0:0:
192,192,72944,1,0,0:0:0:0:
64,192,72944,1,0,0:0:0:0:
320,192,73119,1,0,0:0:0:0:
448,192,73119,1,0,0:0:0:0:
192,192,73119,1,0,0:0:0:0:
64,192,73206,1,0,0:0:0:0:
320,192,73293,1,0,0:0:0:0:
448,192,73293,1,0,0:0:0:0:
64,192,73380,1,0,0:0:0:0:
448,192,73468,128,0,73816:0:0:0:0:
192,192,73468,128,0,73816:0:0:0:0:
64,192,73642,128,0,73816:0:0:0:0:
320,192,73816,128,0,73991:0:0:0:0:
192,192,73991,1,0,0:0:0:0:
448,192,73991,1,0,0:0:0:0:
320,192,74165,1,0,0:0:0:0:
192,192,74165,1,0,0:0:0:0:
64,192,74165,128,0,74340:0:0:0:0:
448,192,74165,128,0,74340:0:0:0:0:
320,192,74340,128,0,74514:0:0:0:0:
64,192,74514,1,0,0:0:0:0:
192,192,74514,128,0,74689:0:0:0:0:
320,192,74689,1,0,0:0:0:0:
448,192,74689,1,0,0:0:0:0:
192,192,74776,1,0,0:0:0:0:
448,192,74863,1,0,0:0:0:0:
64,192,74950,1,0,0:0:0:0:
448,192,75037,1,0,0:0:0:0:
320,192,75037,1,0,0:0:0:0:
64,192,75125,1,0,0:0:0:0:
192,192,75212,1,0,0:0:0:0:
448,192,75212,1,0,0:0:0:0:
64,192,75299,1,0,0:0:0:0:
448,192,75386,1,0,0:0:0:0:
320,192,75386,1,0,0:0:0:0:
192,192,75473,1,0,0:0:0:0:
64,192,75561,1,0,0:0:0:0:
320,192,75561,1,0,0:0:0:0:
448,192,75561,1,0,0:0:0:0:
64,192,75735,1,0,0:0:0:0:
192,192,75735,1,0,0:0:0:0:
320,192,75822,1,0,0:0:0:0:
448,192,75910,128,0,75997:0:0:0:0:
192,192,75910,128,0,75997:0:0:0:0:
64,192,75910,128,0,75997:0:0:0:0:
64,192,76084,128,0,76171:0:0:0:0:
320,192,76084,128,0,76171:0:0:0:0:
448,192,76084,128,0,76171:0:0:0:0:
192,192,76258,1,0,0:0:0:0:
64,192,76258,1,0,0:0:0:0:
192,192,76433,128,0,76607:0:0:0:0:
64,192,76607,128,0,76782:0:0:0:0:
320,192,76782,1,0,0:0:0:0:
448,192,76782,1,0,0:0:0:0:
64,192,76956,1,0,0:0:0:0:
448,192,76956,1,0,0:0:0:0:
320,192,76956,1,0,0:0:0:0:
192,192,76956,128,0,77130:0:0:0:0:
448,192,77305,1,0,0:0:0:0:
64,192,77305,1,0,0:0:0:0:
64,192,77479,1,0,0:0:0:0:
320,192,77479,1,0,0:0:0:0:
192,192,77566,1,0,0:0:0:0:
320,192,77654,1,0,0:0:0:0:
64,192,77828,1,0,0:0:0:0:
192,192,77828,1,0,0:0:0:0:
192,192,78003,1,0,0:0:0:0:
448,192,78003,1,0,0:0:0:0:
320,192,78090,1,0,0:0:0:0:
448,192,78177,1,0,0:0:0:0:
64,192,78177,1,0,0:0:0:0:
320,192,78264,1,0,0:0:0:0:
64,192,78351,1,0,0:0:0:0:
192,192,78351,1,0,0:0:0:0:
448,192,78351,1,0,0:0:0:0:
64,192,78526,1,0,0:0:0:0:
320,192,78526,1,0,0:0:0:0:
64,192,78700,1,0,0:0:0:0:
448,192,78700,1,0,0:0:0:0:
192,192,78700,1,0,0:0:0:0:
320,192,78787,1,0,0:0:0:0:
448,192,78875,1,0,0:0:0:0:
192,192,78875,1,0,0:0:0:0:
64,192,78962,1,0,0:0:0:0:
320,192,79049,128,0,79398:0:0:0:0:
448,192,79049,128,0,79398:0:0:0:0:
64,192,79398,1,0,0:0:0:0:
448,192,79572,1,0,0:0:0:0:
320,192,79572,1,0,0:0:0:0:
448,192,79747,1,0,0:0:0:0:
320,192,79747,1,0,0:0:0:0:
64,192,79747,1,0,0:0:0:0:
192,192,79747,1,0,0:0:0:0:
192,192,79921,1,0,0:0:0:0:
320,192,80096,1,0,0:0:0:0:
448,192,80096,1,0,0:0:0:0:
64,192,80270,1,0,0:0:0:0:
448,192,80270,1,0,0:0:0:0:
192,192,80357,1,0,0:0:0:0:
320,192,80444,1,0,0:0:0:0:
192,192,80532,1,0,0:0:0:0:
64,192,80619,1,0,0:0:0:0:
320,192,80619,1,0,0:0:0:0:
192,192,80706,1,0,0:0:0:0:
64,192,80793,1,0,0:0:0:0:
448,192,80793,1,0,0:0:0:0:
320,192,80880,1,0,0:0:0:0:
192,192,80968,1,0,0:0:0:0:
448,192,80968,1,0,0:0:0:0:
320,192,81055,1,0,0:0:0:0:
64,192,81142,1,0,0:0:0:0:
448,192,81142,1,0,0:0:0:0:
192,192,81142,1,0,0:0:0:0:
64,192,81316,1,0,0:0:0:0:
320,192,81316,1,0,0:0:0:0:
320,192,81491,1,0,0:0:0:0:
192,192,81491,1,0,0:0:0:0:
448,192,81491,1,0,0:0:0:0:
448,192,81665,1,0,0:0:0:0:
64,192,81665,1,0,0:0:0:0:
320,192,81753,1,0,0:0:0:0:
192,192,81840,1,0,0:0:0:0:
64,192,81840,128,0,84456:0:0:0:0:
320,192,82363,1,0,0:0:0:0:
448,192,82363,1,0,0:0:0:0:
192,192,82537,128,0,82886:0:0:0:0:
320,192,82886,1,0,0:0:0:0:
448,192,82886,1,0,0:0:0:0:
192,192,83061,1,0,0:0:0:0:
448,192,83235,1,0,0:0:0:0:
320,192,83410,1,0,0:0:0:0:
192,192,83410,1,0,0:0:0:0:
448,192,83758,1,0,0:0:0:0:
320,192,83933,128,0,84282:0:0:0:0:
192,192,83933,1,0,0:0:0:0:
448,192,84282,1,0,0:0:0:0:
192,192,84282,128,0,84630:0:0:0:0:
64,192,84630,128,0,84805:0:0:0:0:
448,192,84630,1,0,0:0:0:0:
320,192,85154,1,0,0:0:0:0:
448,192,85154,1,0,0:0:0:0:
192,192,85328,128,0,85677:0:0:0:0:
320,192,85677,128,0,85851:0:0:0:0:
64,192,85677,1,0,0:0:0:0:
448,192,85851,128,0,86026:0:0:0:0:
64,192,86026,128,0,86200:0:0:0:0:
192,192,86200,1,0,0:0:0:0:
320,192,86200,1,0,0:0:0:0:
192,192,86375,128,0,86723:0:0:0:0:
64,192,86375,128,0,86723:0:0:0:0:
320,192,86723,1,0,0:0:0:0:
448,192,86723,1,0,0:0:0:0:
64,192,86898,5,0,0:0:0:0:
448,192,86898,1,0,0:0:0:0:
192,192,87072,1,0,0:0:0:0:
64,192,87072,1,0,0:0:0:0:
192,192,87247,1,0,0:0:0:0:
64,192,87247,1,0,0:0:0:0:
64,192,87421,5,0,0:0:0:0:
320,192,87421,1,0,0:0:0:0:
448,192,87421,1,0,0:0:0:0:
192,192,87508,1,0,0:0:0:0:
448,192,87596,1,0,0:0:0:0:
64,192,87683,1,0,0:0:0:0:
448,192,87770,1,0,0:0:0:0:
192,192,87770,1,0,0:0:0:0:
320,192,87857,1,0,0:0:0:0:
64,192,87944,1,0,0:0:0:0:
320,192,88032,1,0,0:0:0:0:
64,192,88119,1,0,0:0:0:0:
192,192,88119,1,0,0:0:0:0:
448,192,88119,1,0,0:0:0:0:
320,192,88293,1,0,0:0:0:0:
64,192,88351,1,0,0:0:0:0:
448,192,88410,1,0,0:0:0:0:
192,192,88468,1,0,0:0:0:0:
320,192,88468,1,0,0:0:0:0:
64,192,88584,1,0,0:0:0:0:
448,192,88642,1,0,0:0:0:0:
320,192,88642,1,0,0:0:0:0:
192,192,88729,1,0,0:0:0:0:
64,192,88816,1,0,0:0:0:0:
448,192,88816,1,0,0:0:0:0:
64,192,88991,1,0,0:0:0:0:
192,192,88991,1,0,0:0:0:0:
320,192,89165,1,0,0:0:0:0:
448,192,89165,1,0,0:0:0:0:
192,192,89340,1,0,0:0:0:0:
320,192,89427,1,0,0:0:0:0:
192,192,89514,1,0,0:0:0:0:
64,192,89514,1,0,0:0:0:0:
448,192,89514,1,0,0:0:0:0:
320,192,89689,1,0,0:0:0:0:
64,192,89689,1,0,0:0:0:0:
448,192,89863,1,0,0:0:0:0:
192,192,89950,1,0,0:0:0:0:
320,192,90037,1,0,0:0:0:0:
448,192,90125,1,0,0:0:0:0:
192,192,90212,1,0,0:0:0:0:
64,192,90212,1,0,0:0:0:0:
320,192,90299,1,0,0:0:0:0:
448,192,90386,1,0,0:0:0:0:
64,192,90386,1,0,0:0:0:0:
320,192,90473,1,0,0:0:0:0:
192,192,90561,1,0,0:0:0:0:
448,192,90561,1,0,0:0:0:0:
64,192,90648,1,0,0:0:0:0:
320,192,90735,1,0,0:0:0:0:
192,192,90735,1,0,0:0:0:0:
448,192,90822,1,0,0:0:0:0:
192,192,90910,1,0,0:0:0:0:
64,192,90910,1,0,0:0:0:0:
320,192,90910,1,0,0:0:0:0:
448,192,91084,1,0,0:0:0:0:
64,192,91084,1,0,0:0:0:0:
192,192,91258,1,0,0:0:0:0:
320,192,91258,1,0,0:0:0:0:
64,192,91433,1,0,0:0:0:0:
448,192,91520,1,0,0:0:0:0:
320,192,91607,1,0,0:0:0:0:
192,192,91607,1,0,0:0:0:0:
64,192,91782,1,0,0:0:0:0:
192,192,91782,1,0,0:0:0:0:
320,192,91869,1,0,0:0:0:0:
448,192,91869,1,0,0:0:0:0:
64,192,91956,1,0,0:0:0:0:
192,192,91956,1,0,0:0:0:0:
320,192,92130,1,0,0:0:0:0:
448,192,92130,1,0,0:0:0:0:
64,192,92218,1,0,0:0:0:0:
192,192,92218,1,0,0:0:0:0:
448,192,92305,1,0,0:0:0:0:
320,192,92305,1,0,0:0:0:0:
64,192,92479,1,0,0:0:0:0:
320,192,92479,1,0,0:0:0:0:
192,192,92566,1,0,0:0:0:0:
64,192,92654,1,0,0:0:0:0:
448,192,92654,1,0,0:0:0:0:
192,192,92828,1,0,0:0:0:0:
448,192,92828,1,0,0:0:0:0:
320,192,92828,1,0,0:0:0:0:
64,192,93003,5,0,0:0:0:0:
448,192,93003,1,0,0:0:0:0:
320,192,93003,1,0,0:0:0:0:
192,192,93090,1,0,0:0:0:0:
64,192,93177,1,0,0:0:0:0:
448,192,93264,1,0,0:0:0:0:
320,192,93351,1,0,0:0:0:0:
192,192,93351,1,0,0:0:0:0:
64,192,93439,1,0,0:0:0:0:
448,192,93526,1,0,0:0:0:0:
192,192,93613,1,0,0:0:0:0:
64,192,93700,1,0,0:0:0:0:
320,192,93700,1,0,0:0:0:0:
448,192,93700,1,0,0:0:0:0:
192,192,93875,1,0,0:0:0:0:
64,192,93933,1,0,0:0:0:0:
320,192,93991,1,0,0:0:0:0:
192,192,94049,1,0,0:0:0:0:
448,192,94049,1,0,0:0:0:0:
320,192,94165,1,0,0:0:0:0:
448,192,94223,1,0,0:0:0:0:
64,192,94223,1,0,0:0:0:0:
192,192,94311,1,0,0:0:0:0:
64,192,94398,1,0,0:0:0:0:
320,192,94398,1,0,0:0:0:0:
192,192,94572,1,0,0:0:0:0:
448,192,94572,1,0,0:0:0:0:
64,192,94747,1,0,0:0:0:0:
448,192,94747,1,0,0:0:0:0:
320,192,94921,1,0,0:0:0:0:
192,192,95008,1,0,0:0:0:0:
320,192,95096,1,0,0:0:0:0:
64,192,95096,1,0,0:0:0:0:
448,192,95096,1,0,0:0:0:0:
192,192,95270,1,0,0:0:0:0:
64,192,95270,1,0,0:0:0:0:
448,192,95444,1,0,0:0:0:0:
64,192,95532,1,0,0:0:0:0:
320,192,95619,1,0,0:0:0:0:
192,192,95706,1,0,0:0:0:0:
448,192,95793,1,0,0:0:0:0:
64,192,95793,1,0,0:0:0:0:
320,192,95880,1,0,0:0:0:0:
192,192,95968,1,0,0:0:0:0:
64,192,95968,1,0,0:0:0:0:
320,192,96055,1,0,0:0:0:0:
64,192,96142,1,0,0:0:0:0:
448,192,96142,1,0,0:0:0:0:
192,192,96229,1,0,0:0:0:0:
320,192,96316,1,0,0:0:0:0:
448,192,96316,1,0,0:0:0:0:
64,192,96404,1,0,0:0:0:0:
192,192,96491,1,0,0:0:0:0:
448,192,96491,1,0,0:0:0:0:
320,192,96491,1,0,0:0:0:0:
192,192,96665,1,0,0:0:0:0:
64,192,96665,1,0,0:0:0:0:
448,192,96840,1,0,0:0:0:0:
320,192,96840,1,0,0:0:0:0:
64,192,97014,1,0,0:0:0:0:
192,192,97014,1,0,0:0:0:0:
448,192,97101,1,0,0:0:0:0:
320,192,97189,1,0,0:0:0:0:
192,192,97189,1,0,0:0:0:0:
64,192,97363,1,0,0:0:0:0:
192,192,97363,1,0,0:0:0:0:
320,192,97450,1,0,0:0:0:0:
448,192,97450,1,0,0:0:0:0:
64,192,97537,1,0,0:0:0:0:
192,192,97537,1,0,0:0:0:0:
320,192,97712,1,0,0:0:0:0:
448,192,97712,1,0,0:0:0:0:
64,192,97799,1,0,0:0:0:0:
192,192,97799,1,0,0:0:0:0:
448,192,97886,1,0,0:0:0:0:
320,192,97886,1,0,0:0:0:0:
64,192,98061,1,0,0:0:0:0:
320,192,98061,1,0,0:0:0:0:
192,192,98148,1,0,0:0:0:0:
64,192,98235,1,0,0:0:0:0:
448,192,98235,1,0,0:0:0:0:
192,192,98410,1,0,0:0:0:0:
320,192,98410,1,0,0:0:0:0:
320,192,98584,1,0,0:0:0:0:
448,192,98584,1,0,0:0:0:0:
64,192,98584,1,0,0:0:0:0:
192,192,98671,1,0,0:0:0:0:
320,192,98758,1,0,0:0:0:0:
448,192,98846,1,0,0:0:0:0:
320,192,98933,1,0,0:0:0:0:
192,192,99020,1,0,0:0:0:0:
64,192,99107,1,0,0:0:0:0:
320,192,99107,1,0,0:0:0:0:
448,192,99107,1,0,0:0:0:0:
192,192,99194,1,0,0:0:0:0:
320,192,99282,1,0,0:0:0:0:
448,192,99369,1,0,0:0:0:0:
320,192,99456,1,0,0:0:0:0:
192,192,99543,1,0,0:0:0:0:
64,192,99630,1,0,0:0:0:0:
320,192,99630,1,0,0:0:0:0:
448,192,99630,1,0,0:0:0:0:
192,192,99805,1,0,0:0:0:0:
64,192,99805,1,0,0:0:0:0:
320,192,99892,1,0,0:0:0:0:
448,192,99979,1,0,0:0:0:0:
320,192,100154,1,0,0:0:0:0:
448,192,100154,1,0,0:0:0:0:
64,192,100154,1,0,0:0:0:0:
192,192,100241,1,0,0:0:0:0:
320,192,100328,1,0,0:0:0:0:
64,192,100328,1,0,0:0:0:0:
192,192,100503,1,0,0:0:0:0:
448,192,100590,1,0,0:0:0:0:
192,192,100677,1,0,0:0:0:0:
64,192,100677,1,0,0:0:0:0:
320,192,100677,1,0,0:0:0:0:
64,192,100851,1,0,0:0:0:0:
448,192,100851,1,0,0:0:0:0:
320,192,101026,1,0,0:0:0:0:
448,192,101026,1,0,0:0:0:0:
192,192,101113,1,0,0:0:0:0:
64,192,101200,1,0,0:0:0:0:
320,192,101287,1,0,0:0:0:0:
192,192,101375,1,0,0:0:0:0:
64,192,101375,1,0,0:0:0:0:
448,192,101375,1,0,0:0:0:0:
320,192,101462,1,0,0:0:0:0:
192,192,101549,1,0,0:0:0:0:
64,192,101636,1,0,0:0:0:0:
192,192,101723,1,0,0:0:0:0:
320,192,101811,1,0,0:0:0:0:
448,192,101898,1,0,0:0:0:0:
192,192,101898,1,0,0:0:0:0:
64,192,101898,1,0,0:0:0:0:
320,192,101985,1,0,0:0:0:0:
192,192,102072,1,0,0:0:0:0:
64,192,102160,1,0,0:0:0:0:
192,192,102247,1,0,0:0:0:0:
320,192,102334,1,0,0:0:0:0:
448,192,102421,1,0,0:0:0:0:
192,192,102421,1,0,0:0:0:0:
64,192,102421,1,0,0:0:0:0:
320,192,102596,1,0,0:0:0:0:
192,192,102596,1,0,0:0:0:0:
64,192,102683,1,0,0:0:0:0:
448,192,102770,1,0,0:0:0:0:
320,192,102944,1,0,0:0:0:0:
192,192,102944,1,0,0:0:0:0:
64,192,102944,1,0,0:0:0:0:
448,192,103119,1,0,0:0:0:0:
64,192,103119,1,0,0:0:0:0:
320,192,103293,1,0,0:0:0:0:
192,192,103380,1,0,0:0:0:0:
64,192,103468,1,0,0:0:0:0:
320,192,103468,1,0,0:0:0:0:
448,192,103468,1,0,0:0:0:0:
192,192,103642,1,0,0:0:0:0:
64,192,103642,1,0,0:0:0:0:
448,192,103816,1,0,0:0:0:0:
192,192,103904,1,0,0:0:0:0:
320,192,103904,1,0,0:0:0:0:
64,192,103991,1,0,0:0:0:0:
448,192,103991,1,0,0:0:0:0:
192,192,104078,1,0,0:0:0:0:
320,192,104165,1,0,0:0:0:0:
448,192,104165,1,0,0:0:0:0:
64,192,104165,1,0,0:0:0:0:
192,192,104253,1,0,0:0:0:0:
320,192,104340,1,0,0:0:0:0:
448,192,104427,1,0,0:0:0:0:
320,192,104514,1,0,0:0:0:0:
192,192,104601,1,0,0:0:0:0:
64,192,104689,1,0,0:0:0:0:
320,192,104689,1,0,0:0:0:0:
448,192,104689,1,0,0:0:0:0:
192,192,104776,1,0,0:0:0:0:
320,192,104863,1,0,0:0:0:0:
448,192,104950,1,0,0:0:0:0:
320,192,105037,1,0,0:0:0:0:
192,192,105125,1,0,0:0:0:0:
64,192,105212,1,0,0:0:0:0:
320,192,105212,1,0,0:0:0:0:
448,192,105212,1,0,0:0:0:0:
192,192,105386,1,0,0:0:0:0:
64,192,105386,1,0,0:0:0:0:
320,192,105473,1,0,0:0:0:0:
448,192,105561,1,0,0:0:0:0:
320,192,105735,1,0,0:0:0:0:
448,192,105735,1,0,0:0:0:0:
64,192,105735,1,0,0:0:0:0:
192,192,105822,1,0,0:0:0:0:
320,192,105910,1,0,0:0:0:0:
64,192,105910,1,0,0:0:0:0:
192,192,106084,1,0,0:0:0:0:
448,192,106171,1,0,0:0:0:0:
192,192,106258,1,0,0:0:0:0:
64,192,106258,1,0,0:0:0:0:
320,192,106258,1,0,0:0:0:0:
64,192,106433,1,0,0:0:0:0:
448,192,106433,1,0,0:0:0:0:
320,192,106607,1,0,0:0:0:0:
448,192,106607,1,0,0:0:0:0:
64,192,106694,1,0,0:0:0:0:
192,192,106782,1,0,0:0:0:0:
320,192,106869,1,0,0:0:0:0:
192,192,106956,1,0,0:0:0:0:
64,192,106956,1,0,0:0:0:0:
448,192,106956,1,0,0:0:0:0:
320,192,107043,1,0,0:0:0:0:
64,192,107130,1,0,0:0:0:0:
192,192,107218,1,0,0:0:0:0:
320,192,107305,1,0,0:0:0:0:
64,192,107305,1,0,0:0:0:0:
320,192,107479,1,0,0:0:0:0:
448,192,107654,1,0,0:0:0:0:
64,192,107654,1,0,0:0:0:0:
320,192,107654,1,0,0:0:0:0:
192,192,107741,1,0,0:0:0:0:
448,192,107828,1,0,0:0:0:0:
320,192,107915,1,0,0:0:0:0:
448,192,108003,1,0,0:0:0:0:
192,192,108003,1,0,0:0:0:0:
192,192,108177,1,0,0:0:0:0:
192,192,108351,1,0,0:0:0:0:
64,192,108351,1,0,0:0:0:0:
320,192,108439,1,0,0:0:0:0:
448,192,108439,1,0,0:0:0:0:
192,192,108526,1,0,0:0:0:0:
64,192,108526,1,0,0:0:0:0:
448,192,108700,1,0,0:0:0:0:
64,192,108700,1,0,0:0:0:0:
192,192,108787,1,0,0:0:0:0:
320,192,108787,1,0,0:0:0:0:
448,192,108875,1,0,0:0:0:0:
64,192,108875,1,0,0:0:0:0:
448,192,109049,1,0,0:0:0:0:
192,192,109049,1,0,0:0:0:0:
320,192,109049,1,0,0:0:0:0:
192,192,109223,1,0,0:0:0:0:
64,192,109223,1,0,0:0:0:0:
320,192,109311,1,0,0:0:0:0:
448,192,109398,1,0,0:0:0:0:
64,192,109398,1,0,0:0:0:0:
192,192,109572,1,0,0:0:0:0:
320,192,109572,1,0,0:0:0:0:
448,192,109747,1,0,0:0:0:0:
64,192,109747,1,0,0:0:0:0:
192,192,109747,1,0,0:0:0:0:
64,192,110096,1,0,0:0:0:0:
320,192,110096,1,0,0:0:0:0:
448,192,110096,1,0,0:0:0:0:
448,192,110444,1,0,0:0:0:0:
320,192,110444,1,0,0:0:0:0:
192,192,110444,1,0,0:0:0:0:
320,192,110793,1,0,0:0:0:0:
192,192,110793,1,0,0:0:0:0:
64,192,110793,1,0,0:0:0:0:
320,192,111142,1,0,0:0:0:0:
448,192,111142,1,0,0:0:0:0:
192,192,111229,1,0,0:0:0:0:
64,192,111229,1,0,0:0:0:0:
320,192,111316,1,0,0:0:0:0:
448,192,111316,1,0,0:0:0:0:
64,192,111491,1,0,0:0:0:0:
448,192,111491,1,0,0:0:0:0:
192,192,111578,1,0,0:0:0:0:
320,192,111578,1,0,0:0:0:0:
64,192,111665,1,0,0:0:0:0:
448,192,111665,1,0,0:0:0:0:
64,192,111840,1,0,0:0:0:0:
320,192,111840,1,0,0:0:0:0:
192,192,111840,1,0,0:0:0:0:
448,192,112014,1,0,0:0:0:0:
320,192,112014,1,0,0:0:0:0:
64,192,112189,1,0,0:0:0:0:
192,192,112189,1,0,0:0:0:0:
448,192,112189,1,0,0:0:0:0:
64,192,112537,1,0,0:0:0:0:
320,192,112537,1,0,0:0:0:0:
448,192,112537,1,0,0:0:0:0:
64,192,112886,1,0,0:0:0:0:
192,192,112886,1,0,0:0:0:0:
448,192,112886,1,0,0:0:0:0:
320,192,113235,1,0,0:0:0:0:
448,192,113235,1,0,0:0:0:0:
192,192,113235,1,0,0:0:0:0:
320,192,113584,1,0,0:0:0:0:
192,192,113584,1,0,0:0:0:0:
64,192,113584,1,0,0:0:0:0:
64,192,113933,1,0,0:0:0:0:
320,192,113933,1,0,0:0:0:0:
192,192,114020,1,0,0:0:0:0:
448,192,114020,1,0,0:0:0:0:
320,192,114107,1,0,0:0:0:0:
64,192,114107,1,0,0:0:0:0:
192,192,114282,1,0,0:0:0:0:
64,192,114282,1,0,0:0:0:0:
320,192,114369,1,0,0:0:0:0:
448,192,114369,1,0,0:0:0:0:
192,192,114456,1,0,0:0:0:0:
64,192,114456,1,0,0:0:0:0:
448,192,114718,128,0,114892:0:0:0:0:
320,192,114718,128,0,114979:0:0:0:0:
192,192,114718,128,0,115066:0:0:0:0:
64,192,114718,128,0,115328:0:0:0:0:
64,192,115386,1,0,0:0:0:0:
448,192,115386,1,0,0:0:0:0:
192,192,115677,128,0,115851:0:0:0:0:
448,192,115851,128,0,116026:0:0:0:0:
192,192,116026,1,0,0:0:0:0:
64,192,116026,128,0,116375:0:0:0:0:
448,192,116200,1,0,0:0:0:0:
320,192,116375,128,0,116549:0:0:0:0:
448,192,116549,128,0,116723:0:0:0:0:
320,192,116723,1,0,0:0:0:0:
192,192,116723,1,0,0:0:0:0:
64,192,116898,1,0,0:0:0:0:
64,192,117072,128,0,117247:0:0:0:0:
448,192,117247,128,0,117421:0:0:0:0:
192,192,117421,1,0,0:0:0:0:
320,192,117421,128,0,117770:0:0:0:0:
192,192,117770,128,0,118119:0:0:0:0:
448,192,117944,1,0,0:0:0:0:
64,192,118119,1,0,0:0:0:0:
320,192,118119,1,0,0:0:0:0:
192,192,118468,128,0,118642:0:0:0:0:
448,192,118642,128,0,118816:0:0:0:0:
192,192,118816,1,0,0:0:0:0:
64,192,118816,128,0,119165:0:0:0:0:
448,192,118991,1,0,0:0:0:0:
320,192,119165,128,0,119340:0:0:0:0:
448,192,119340,128,0,119514:0:0:0:0:
320,192,119514,1,0,0:0:0:0:
192,192,119514,1,0,0:0:0:0:
64,192,119689,1,0,0:0:0:0:
64,192,119863,128,0,120037:0:0:0:0:
448,192,120037,128,0,120212:0:0:0:0:
192,192,120212,1,0,0:0:0:0:
320,192,120212,128,0,120561:0:0:0:0:
192,192,120561,128,0,120910:0:0:0:0:
64,192,120735,1,0,0:0:0:0:
448,192,120735,1,0,0:0:0:0:
320,192,120910,1,0,0:0:0:0:
448,192,120910,1,0,0:0:0:0:
192,192,121258,128,0,121433:0:0:0:0:
320,192,121433,1,0,0:0:0:0:
448,192,121433,1,0,0:0:0:0:
192,192,121607,1,0,0:0:0:0:
448,192,121607,1,0,0:0:0:0:
64,192,121607,1,0,0:0:0:0:
320,192,121607,1,0,0:0:0:0:
64,192,121782,1,0,0:0:0:0:
192,192,121956,1,0,0:0:0:0:
320,192,121956,1,0,0:0:0:0:
448,192,122130,1,0,0:0:0:0:
320,192,122130,1,0,0:0:0:0:
64,192,122218,1,0,0:0:0:0:
192,192,122305,1,0,0:0:0:0:
320,192,122479,1,0,0:0:0:0:
448,192,122479,1,0,0:0:0:0:
192,192,122654,1,0,0:0:0:0:
64,192,122654,1,0,0:0:0:0:
64,192,122828,1,0,0:0:0:0:
448,192,122828,1,0,0:0:0:0:
448,192,123003,1,0,0:0:0:0:
320,192,123003,1,0,0:0:0:0:
192,192,123003,1,0,0:0:0:0:
64,192,123003,1,0,0:0:0:0:
320,192,123177,1,0,0:0:0:0:
192,192,123177,1,0,0:0:0:0:
64,192,123351,1,0,0:0:0:0:
448,192,123351,1,0,0:0:0:0:
448,192,123526,1,0,0:0:0:0:
192,192,123526,1,0,0:0:0:0:
320,192,123613,1,0,0:0:0:0:
448,192,123700,1,0,0:0:0:0:
192,192,123700,1,0,0:0:0:0:
64,192,123700,1,0,0:0:0:0:
320,192,123875,1,0,0:0:0:0:
64,192,124049,128,0,124223:0:0:0:0:
192,192,124223,1,0,0:0:0:0:
320,192,124223,1,0,0:0:0:0:
448,192,124398,1,0,0:0:0:0:
320,192,124398,1,0,0:0:0:0:
64,192,124398,1,0,0:0:0:0:
192,192,124398,1,0,0:0:0:0:
448,192,124572,1,0,0:0:0:0:
320,192,124747,1,0,0:0:0:0:
192,192,124747,1,0,0:0:0:0:
64,192,124921,1,0,0:0:0:0:
192,192,124921,1,0,0:0:0:0:
448,192,124921,1,0,0:0:0:0:
320,192,125096,1,0,0:0:0:0:
192,192,125270,1,0,0:0:0:0:
64,192,125270,1,0,0:0:0:0:
64,192,125444,1,0,0:0:0:0:
448,192,125444,1,0,0:0:0:0:
320,192,125619,1,0,0:0:0:0:
192,192,125706,1,0,0:0:0:0:
448,192,125793,1,0,0:0:0:0:
320,192,125793,1,0,0:0:0:0:
64,192,125793,1,0,0:0:0:0:
448,192,125968,128,0,126142:0:0:0:0:
64,192,125968,128,0,126142:0:0:0:0:
192,192,126142,1,0,0:0:0:0:
320,192,126142,128,0,126316:0:0:0:0:
448,192,126316,1,0,0:0:0:0:
64,192,126316,1,0,0:0:0:0:
192,192,126404,1,0,0:0:0:0:
448,192,126491,128,0,126840:0:0:0:0:
320,192,126491,128,0,126840:0:0:0:0:
64,192,126665,1,0,0:0:0:0:
192,192,126840,1,0,0:0:0:0:
320,192,127014,1,0,0:0:0:0:
64,192,127014,1,0,0:0:0:0:
448,192,127189,1,0,0:0:0:0:
320,192,127189,1,0,0:0:0:0:
192,192,127189,1,0,0:0:0:0:
64,192,127189,1,0,0:0:0:0:
192,192,127363,1,0,0:0:0:0:
448,192,127537,1,0,0:0:0:0:
320,192,127537,1,0,0:0:0:0:
192,192,127712,1,0,0:0:0:0:
64,192,127712,1,0,0:0:0:0:
448,192,127799,1,0,0:0:0:0:
320,192,127886,1,0,0:0:0:0:
64,192,128061,1,0,0:0:0:0:
448,192,128061,1,0,0:0:0:0:
64,192,128235,1,0,0:0:0:0:
192,192,128235,1,0,0:0:0:0:
320,192,128410,1,0,0:0:0:0:
448,192,128410,1,0,0:0:0:0:
448,192,128584,1,0,0:0:0:0:
320,192,128584,1,0,0:0:0:0:
192,192,128584,1,0,0:0:0:0:
64,192,128584,1,0,0:0:0:0:
64,192,128758,1,0,0:0:0:0:
192,192,128758,1,0,0:0:0:0:
320,192,128933,1,0,0:0:0:0:
448,192,128933,1,0,0:0:0:0:
192,192,128933,1,0,0:0:0:0:
64,192,129107,1,0,0:0:0:0:
448,192,129107,1,0,0:0:0:0:
320,192,129194,1,0,0:0:0:0:
64,192,129282,1,0,0:0:0:0:
192,192,129282,128,0,129456:0:0:0:0:
448,192,129456,128,0,129630:0:0:0:0:
64,192,129630,128,0,129805:0:0:0:0:
320,192,129805,1,0,0:0:0:0:
448,192,129805,1,0,0:0:0:0:
320,192,129979,1,0,0:0:0:0:
448,192,129979,1,0,0:0:0:0:
192,192,129979,1,0,0:0:0:0:
64,192,129979,1,0,0:0:0:0:
192,192,130154,1,0,0:0:0:0:
64,192,130328,1,0,0:0:0:0:
320,192,130328,1,0,0:0:0:0:
448,192,130503,1,0,0:0:0:0:
64,192,130503,1,0,0:0:0:0:
320,192,130590,1,0,0:0:0:0:
192,192,130677,1,0,0:0:0:0:
448,192,130677,1,0,0:0:0:0:
64,192,130851,1,0,0:0:0:0:
320,192,130851,1,0,0:0:0:0:
64,192,131026,1,0,0:0:0:0:
448,192,131026,1,0,0:0:0:0:
192,192,131200,1,0,0:0:0:0:
448,192,131200,1,0,0:0:0:0:
320,192,131287,1,0,0:0:0:0:
448,192,131375,128,0,131462:0:0:0:0:
64,192,131375,128,0,131462:0:0:0:0:
192,192,131375,128,0,131462:0:0:0:0:
192,192,131549,128,0,131636:0:0:0:0:
320,192,131549,128,0,131636:0:0:0:0:
448,192,131549,128,0,131636:0:0:0:0:
64,192,131723,128,0,131811:0:0:0:0:
192,192,131723,128,0,131811:0:0:0:0:
320,192,131723,128,0,131811:0:0:0:0:
448,192,131898,128,0,131985:0:0:0:0:
320,192,131898,128,0,131985:0:0:0:0:
64,192,131898,128,0,131985:0:0:0:0:
192,192,132072,1,0,0:0:0:0:
320,192,132072,1,0,0:0:0:0:
64,192,132247,1,0,0:0:0:0:
320,192,132421,1,0,0:0:0:0:
448,192,132596,1,0,0:0:0:0:
192,192,132596,1,0,0:0:0:0:
448,192,132770,1,0,0:0:0:0:
192,192,132770,1,0,0:0:0:0:
320,192,132770,128,0,132857:0:0:0:0:
64,192,132770,128,0,132857:0:0:0:0:
64,192,132944,128,0,133032:0:0:0:0:
320,192,132944,128,0,133032:0:0:0:0:
320,192,133119,128,0,133206:0:0:0:0:
64,192,133119,128,0,133206:0:0:0:0:
64,192,133293,128,0,133380:0:0:0:0:
320,192,133293,128,0,133380:0:0:0:0:
320,192,133468,1,0,0:0:0:0:
64,192,133642,1,0,0:0:0:0:
448,192,133642,1,0,0:0:0:0:
448,192,133816,1,0,0:0:0:0:
320,192,133816,1,0,0:0:0:0:
192,192,133991,1,0,0:0:0:0:
64,192,133991,1,0,0:0:0:0:
448,192,134165,1,0,0:0:0:0:
192,192,134165,1,0,0:0:0:0:
320,192,134165,1,0,0:0:0:0:
64,192,134165,1,0,0:0:0:0:
448,192,134340,1,0,0:0:0:0:
320,192,134340,1,0,0:0:0:0:
192,192,134514,1,0,0:0:0:0:
64,192,134514,1,0,0:0:0:0:
448,192,134689,1,0,0:0:0:0:
320,192,134689,1,0,0:0:0:0:
64,192,134776,1,0,0:0:0:0:
448,192,134863,1,0,0:0:0:0:
192,192,134863,1,0,0:0:0:0:
320,192,134863,1,0,0:0:0:0:
320,192,135037,1,0,0:0:0:0:
192,192,135212,1,0,0:0:0:0:
320,192,135386,1,0,0:0:0:0:
64,192,135386,1,0,0:0:0:0:
192,192,135561,1,0,0:0:0:0:
448,192,135561,1,0,0:0:0:0:
320,192,135561,1,0,0:0:0:0:
64,192,135561,1,0,0:0:0:0:
448,192,135735,1,0,0:0:0:0:
192,192,135910,1,0,0:0:0:0:
64,192,135910,1,0,0:0:0:0:
448,192,136084,1,0,0:0:0:0:
320,192,136084,1,0,0:0:0:0:
192,192,136171,1,0,0:0:0:0:
64,192,136258,1,0,0:0:0:0:
448,192,136258,1,0,0:0:0:0:
320,192,136433,1,0,0:0:0:0:
448,192,136433,1,0,0:0:0:0:
320,192,136607,5,0,0:0:0:0:
192,192,136607,1,0,0:0:0:0:
64,192,136782,1,0,0:0:0:0:
192,192,136782,1,0,0:0:0:0:
64,192,136956,1,0,0:0:0:0:
192,192,136956,1,0,0:0:0:0:
320,192,136956,1,0,0:0:0:0:
448,192,136956,1,0,0:0:0:0:
448,192,137130,1,0,0:0:0:0:
320,192,137130,1,0,0:0:0:0:
448,192,137305,1,0,0:0:0:0:
64,192,137305,128,0,137392:0:0:0:0:
192,192,137305,128,0,137392:0:0:0:0:
64,192,137479,128,0,137566:0:0:0:0:
192,192,137479,128,0,137566:0:0:0:0:
320,192,137654,5,0,0:0:0:0:
448,192,137654,1,0,0:0:0:0:
192,192,137741,1,0,0:0:0:0:
64,192,137741,1,0,0:0:0:0:
448,192,137828,1,0,0:0:0:0:
320,192,137828,1,0,0:0:0:0:
64,192,138003,1,0,0:0:0:0:
320,192,138003,1,0,0:0:0:0:
192,192,138090,1,0,0:0:0:0:
448,192,138090,1,0,0:0:0:0:
320,192,138177,1,0,0:0:0:0:
64,192,138177,1,0,0:0:0:0:
64,192,138351,1,0,0:0:0:0:
448,192,138351,1,0,0:0:0:0:
192,192,138439,1,0,0:0:0:0:
320,192,138439,1,0,0:0:0:0:
64,192,138526,1,0,0:0:0:0:
448,192,138526,1,0,0:0:0:0:
192,192,138700,1,0,0:0:0:0:
64,192,138700,1,0,0:0:0:0:
320,192,138787,1,0,0:0:0:0:
448,192,138787,1,0,0:0:0:0:
192,192,138875,1,0,0:0:0:0:
64,192,138875,1,0,0:0:0:0:
448,192,139049,1,0,0:0:0:0:
192,192,139049,1,0,0:0:0:0:
64,192,139136,1,0,0:0:0:0:
320,192,139136,1,0,0:0:0:0:
192,192,139223,1,0,0:0:0:0:
448,192,139223,1,0,0:0:0:0:
320,192,139398,1,0,0:0:0:0:
192,192,139398,1,0,0:0:0:0:
448,192,139485,1,0,0:0:0:0:
64,192,139485,1,0,0:0:0:0:
320,192,139572,1,0,0:0:0:0:
192,192,139572,1,0,0:0:0:0:
320,192,139747,1,0,0:0:0:0:
448,192,139747,1,0,0:0:0:0:
64,192,139747,1,0,0:0:0:0:
192,192,139921,1,0,0:0:0:0:
64,192,139921,1,0,0:0:0:0:
192,192,140096,1,0,0:0:0:0:
64,192,140096,1,0,0:0:0:0:
448,192,140096,1,0,0:0:0:0:
192,192,140270,1,0,0:0:0:0:
64,192,140270,1,0,0:0:0:0:
64,192,140444,5,0,0:0:0:0:
448,192,140444,1,0,0:0:0:0:
320,192,140444,1,0,0:0:0:0:
192,192,140532,1,0,0:0:0:0:
448,192,140619,1,0,0:0:0:0:
64,192,140706,1,0,0:0:0:0:
320,192,140793,1,0,0:0:0:0:
192,192,140793,1,0,0:0:0:0:
448,192,140880,1,0,0:0:0:0:
64,192,140968,1,0,0:0:0:0:
320,192,141055,1,0,0:0:0:0:
64,192,141142,1,0,0:0:0:0:
192,192,141142,1,0,0:0:0:0:
448,192,141142,1,0,0:0:0:0:
320,192,141316,1,0,0:0:0:0:
64,192,141375,1,0,0:0:0:0:
448,192,141433,1,0,0:0:0:0:
192,192,141491,1,0,0:0:0:0:
320,192,141491,1,0,0:0:0:0:
64,192,141607,1,0,0:0:0:0:
448,192,141665,1,0,0:0:0:0:
320,192,141665,1,0,0:0:0:0:
192,192,141753,1,0,0:0:0:0:
64,192,141840,1,0,0:0:0:0:
448,192,141840,1,0,0:0:0:0:
192,192,142014,1,0,0:0:0:0:
64,192,142014,1,0,0:0:0:0:
320,192,142189,1,0,0:0:0:0:
448,192,142189,1,0,0:0:0:0:
192,192,142363,1,0,0:0:0:0:
320,192,142450,1,0,0:0:0:0:
192,192,142537,1,0,0:0:0:0:
64,192,142537,1,0,0:0:0:0:
448,192,142537,1,0,0:0:0:0:
320,192,142712,1,0,0:0:0:0:
64,192,142712,1,0,0:0:0:0:
448,192,142886,1,0,0:0:0:0:
192,192,142973,1,0,0:0:0:0:
320,192,143061,1,0,0:0:0:0:
448,192,143148,1,0,0:0:0:0:
192,192,143235,1,0,0:0:0:0:
64,192,143235,1,0,0:0:0:0:
320,192,143322,1,0,0:0:0:0:
448,192,143410,1,0,0:0:0:0:
64,192,143410,1,0,0:0:0:0:
320,192,143497,1,0,0:0:0:0:
192,192,143584,1,0,0:0:0:0:
448,192,143584,1,0,0:0:0:0:
64,192,143671,1,0,0:0:0:0:
320,192,143758,1,0,0:0:0:0:
192,192,143758,1,0,0:0:0:0:
448,192,143846,1,0,0:0:0:0:
192,192,143933,1,0,0:0:0:0:
64,192,143933,1,0,0:0:0:0:
320,192,143933,1,0,0:0:0:0:
448,192,144107,1,0,0:0:0:0:
64,192,144107,1,0,0:0:0:0:
192,192,144282,1,0,0:0:0:0:
320,192,144282,1,0,0:0:0:0:
64,192,144456,1,0,0:0:0:0:
448,192,144543,1,0,0:0:0:0:
320,192,144630,1,0,0:0:0:0:
192,192,144630,1,0,0:0:0:0:
64,192,144805,1,0,0:0:0:0:
192,192,144805,1,0,0:0:0:0:
320,192,144892,1,0,0:0:0:0:
448,192,144892,1,0,0:0:0:0:
64,192,144979,1,0,0:0:0:0:
192,192,144979,1,0,0:0:0:0:
320,192,145154,1,0,0:0:0:0:
448,192,145154,1,0,0:0:0:0:
64,192,145241,1,0,0:0:0:0:
192,192,145241,1,0,0:0:0:0:
448,192,145328,1,0,0:0:0:0:
320,192,145328,1,0,0:0:0:0:
64,192,145503,1,0,0:0:0:0:
320,192,145503,1,0,0:0:0:0:
192,192,145590,1,0,0:0:0:0:
64,192,145677,1,0,0:0:0:0:
448,192,145677,1,0,0:0:0:0:
192,192,145851,1,0,0:0:0:0:
64,192,145851,1,0,0:0:0:0:
320,192,145851,1,0,0:0:0:0:
192,192,146026,5,0,0:0:0:0:
448,192,146026,1,0,0:0:0:0:
320,192,146026,1,0,0:0:0:0:
64,192,146113,1,0,0:0:0:0:
192,192,146200,1,0,0:0:0:0:
448,192,146287,1,0,0:0:0:0:
320,192,146375,1,0,0:0:0:0:
64,192,146375,1,0,0:0:0:0:
192,192,146462,1,0,0:0:0:0:
448,192,146549,1,0,0:0:0:0:
192,192,146636,1,0,0:0:0:0:
64,192,146723,1,0,0:0:0:0:
320,192,146723,1,0,0:0:0:0:
448,192,146723,1,0,0:0:0:0:
192,192,146898,1,0,0:0:0:0:
64,192,146956,1,0,0:0:0:0:
320,192,147014,1,0,0:0:0:0:
192,192,147072,1,0,0:0:0:0:
448,192,147072,1,0,0:0:0:0:
320,192,147189,1,0,0:0:0:0:
448,192,147247,1,0,0:0:0:0:
64,192,147247,1,0,0:0:0:0:
192,192,147334,1,0,0:0:0:0:
64,192,147421,1,0,0:0:0:0:
320,192,147421,1,0,0:0:0:0:
192,192,147596,1,0,0:0:0:0:
448,192,147596,1,0,0:0:0:0:
64,192,147770,1,0,0:0:0:0:
448,192,147770,1,0,0:0:0:0:
320,192,147944,1,0,0:0:0:0:
192,192,148032,1,0,0:0:0:0:
320,192,148119,1,0,0:0:0:0:
64,192,148119,1,0,0:0:0:0:
448,192,148119,1,0,0:0:0:0:
192,192,148293,1,0,0:0:0:0:
64,192,148293,1,0,0:0:0:0:
448,192,148468,1,0,0:0:0:0:
64,192,148555,1,0,0:0:0:0:
320,192,148642,1,0,0:0:0:0:
192,192,148729,1,0,0:0:0:0:
448,192,148816,1,0,0:0:0:0:
64,192,148816,1,0,0:0:0:0:
320,192,148904,1,0,0:0:0:0:
192,192,148991,1,0,0:0:0:0:
64,192,148991,1,0,0:0:0:0:
320,192,149078,1,0,0:0:0:0:
64,192,149165,1,0,0:0:0:0:
448,192,149165,1,0,0:0:0:0:
192,192,149253,1,0,0:0:0:0:
320,192,149340,1,0,0:0:0:0:
448,192,149340,1,0,0:0:0:0:
64,192,149427,1,0,0:0:0:0:
192,192,149514,1,0,0:0:0:0:
448,192,149514,1,0,0:0:0:0:
320,192,149514,1,0,0:0:0:0:
192,192,149689,1,0,0:0:0:0:
64,192,149689,1,0,0:0:0:0:
448,192,149863,1,0,0:0:0:0:
320,192,149863,1,0,0:0:0:0:
64,192,150037,1,0,0:0:0:0:
448,192,150125,1,0,0:0:0:0:
320,192,150212,1,0,0:0:0:0:
192,192,150212,1,0,0:0:0:0:
64,192,150386,1,0,0:0:0:0:
192,192,150386,1,0,0:0:0:0:
320,192,150473,1,0,0:0:0:0:
448,192,150473,1,0,0:0:0:0:
64,192,150561,1,0,0:0:0:0:
192,192,150561,1,0,0:0:0:0:
320,192,150735,1,0,0:0:0:0:
448,192,150735,1,0,0:0:0:0:
64,192,150822,1,0,0:0:0:0:
192,192,150822,1,0,0:0:0:0:
448,192,150910,1,0,0:0:0:0:
320,192,150910,1,0,0:0:0:0:
64,192,151084,1,0,0:0:0:0:
192,192,151084,1,0,0:0:0:0:
320,192,151171,1,0,0:0:0:0:
64,192,151258,1,0,0:0:0:0:
448,192,151258,1,0,0:0:0:0:
192,192,151433,1,0,0:0:0:0:
320,192,151433,1,0,0:0:0:0:
320,192,151607,1,0,0:0:0:0:
448,192,151607,1,0,0:0:0:0:
64,192,151607,1,0,0:0:0:0:
192,192,151694,1,0,0:0:0:0:
320,192,151782,1,0,0:0:0:0:
448,192,151869,1,0,0:0:0:0:
320,192,151956,1,0,0:0:0:0:
192,192,152043,1,0,0:0:0:0:
64,192,152130,1,0,0:0:0:0:
320,192,152130,1,0,0:0:0:0:
448,192,152130,1,0,0:0:0:0:
192,192,152218,1,0,0:0:0:0:
320,192,152305,1,0,0:0:0:0:
448,192,152392,1,0,0:0:0:0:
320,192,152479,1,0,0:0:0:0:
192,192,152566,1,0,0:0:0:0:
64,192,152654,1,0,0:0:0:0:
320,192,152654,1,0,0:0:0:0:
448,192,152654,1,0,0:0:0:0:
192,192,152828,1,0,0:0:0:0:
64,192,152828,1,0,0:0:0:0:
320,192,152915,1,0,0:0:0:0:
448,192,153003,1,0,0:0:0:0:
320,192,153177,1,0,0:0:0:0:
448,192,153177,1,0,0:0:0:0:
64,192,153177,1,0,0:0:0:0:
192,192,153264,1,0,0:0:0:0:
320,192,153351,1,0,0:0:0:0:
64,192,153351,1,0,0:0:0:0:
192,192,153526,1,0,0:0:0:0:
448,192,153613,1,0,0:0:0:0:
192,192,153700,1,0,0:0:0:0:
64,192,153700,1,0,0:0:0:0:
320,192,153700,1,0,0:0:0:0:
64,192,153875,1,0,0:0:0:0:
448,192,153875,1,0,0:0:0:0:
320,192,154049,1,0,0:0:0:0:
448,192,154049,1,0,0:0:0:0:
192,192,154136,1,0,0:0:0:0:
64,192,154223,1,0,0:0:0:0:
320,192,154311,1,0,0:0:0:0:
192,192,154398,1,0,0:0:0:0:
64,192,154398,1,0,0:0:0:0:
448,192,154398,1,0,0:0:0:0:
320,192,154485,1,0,0:0:0:0:
192,192,154572,1,0,0:0:0:0:
64,192,154660,1,0,0:0:0:0:
192,192,154747,1,0,0:0:0:0:
320,192,154834,1,0,0:0:0:0:
448,192,154921,1,0,0:0:0:0:
192,192,154921,1,0,0:0:0:0:
64,192,154921,1,0,0:0:0:0:
320,192,155008,1,0,0:0:0:0:
192,192,155096,1,0,0:0:0:0:
64,192,155183,1,0,0:0:0:0:
192,192,155270,1,0,0:0:0:0:
320,192,155357,1,0,0:0:0:0:
448,192,155444,1,0,0:0:0:0:
192,192,155444,1,0,0:0:0:0:
64,192,155444,1,0,0:0:0:0:
320,192,155619,1,0,0:0:0:0:
192,192,155619,1,0,0:0:0:0:
64,192,155706,1,0,0:0:0:0:
448,192,155793,1,0,0:0:0:0:
320,192,155968,1,0,0:0:0:0:
192,192,155968,1,0,0:0:0:0:
64,192,155968,1,0,0:0:0:0:
448,192,156142,1,0,0:0:0:0:
64,192,156142,1,0,0:0:0:0:
320,192,156316,1,0,0:0:0:0:
192,192,156404,1,0,0:0:0:0:
64,192,156491,1,0,0:0:0:0:
320,192,156491,1,0,0:0:0:0:
448,192,156491,1,0,0:0:0:0:
192,192,156665,1,0,0:0:0:0:
64,192,156665,1,0,0:0:0:0:
448,192,156840,1,0,0:0:0:0:
192,192,156927,1,0,0:0:0:0:
320,192,156927,1,0,0:0:0:0:
64,192,157014,1,0,0:0:0:0:
448,192,157014,1,0,0:0:0:0:
192,192,157101,1,0,0:0:0:0:
320,192,157189,1,0,0:0:0:0:
448,192,157189,1,0,0:0:0:0:
64,192,157189,1,0,0:0:0:0:
192,192,157276,1,0,0:0:0:0:
320,192,157363,1,0,0:0:0:0:
448,192,157450,1,0,0:0:0:0:
320,192,157537,1,0,0:0:0:0:
192,192,157625,1,0,0:0:0:0:
64,192,157712,1,0,0:0:0:0:
320,192,157712,1,0,0:0:0:0:
448,192,157712,1,0,0:0:0:0:
192,192,157799,1,0,0:0:0:0:
320,192,157886,1,0,0:0:0:0:
448,192,157973,1,0,0:0:0:0:
320,192,158061,1,0,0:0:0:0:
192,192,158148,1,0,0:0:0:0:
64,192,158235,1,0,0:0:0:0:
320,192,158235,1,0,0:0:0:0:
448,192,158235,1,0,0:0:0:0:
192,192,158410,1,0,0:0:0:0:
64,192,158410,1,0,0:0:0:0:
320,192,158497,1,0,0:0:0:0:
448,192,158584,1,0,0:0:0:0:
320,192,158758,1,0,0:0:0:0:
448,192,158758,1,0,0:0:0:0:
64,192,158758,1,0,0:0:0:0:
192,192,158846,1,0,0:0:0:0:
320,192,158933,1,0,0:0:0:0:
64,192,158933,1,0,0:0:0:0:
192,192,159107,1,0,0:0:0:0:
448,192,159194,1,0,0:0:0:0:
192,192,159282,1,0,0:0:0:0:
64,192,159282,1,0,0:0:0:0:
320,192,159282,1,0,0:0:0:0:
64,192,159456,1,0,0:0:0:0:
448,192,159456,1,0,0:0:0:0:
320,192,159630,1,0,0:0:0:0:
448,192,159630,1,0,0:0:0:0:
192,192,159718,1,0,0:0:0:0:
64,192,159805,1,0,0:0:0:0:
320,192,159892,1,0,0:0:0:0:
192,192,159979,1,0,0:0:0:0:
448,192,159979,1,0,0:0:0:0:
64,192,160066,1,0,0:0:0:0:
320,192,160154,1,0,0:0:0:0:
448,192,160154,1,0,0:0:0:0:
64,192,160241,1,0,0:0:0:0:
192,192,160328,1,0,0:0:0:0:
320,192,160328,1,0,0:0:0:0:
448,192,160415,1,0,0:0:0:0:
64,192,160503,1,0,0:0:0:0:
192,192,160503,1,0,0:0:0:0:
320,192,160590,1,0,0:0:0:0:
64,192,160677,1,0,0:0:0:0:
448,192,160677,1,0,0:0:0:0:
192,192,160677,1,0,0:0:0:0:
320,192,160851,1,0,0:0:0:0:
448,192,160851,1,0,0:0:0:0:
192,192,161026,1,0,0:0:0:0:
64,192,161026,1,0,0:0:0:0:
64,192,161200,1,0,0:0:0:0:
320,192,161200,1,0,0:0:0:0:
192,192,161287,1,0,0:0:0:0:
320,192,161375,1,0,0:0:0:0:
448,192,161375,1,0,0:0:0:0:
64,192,161549,1,0,0:0:0:0:
448,192,161549,1,0,0:0:0:0:
192,192,161636,1,0,0:0:0:0:
320,192,161723,1,0,0:0:0:0:
64,192,161723,1,0,0:0:0:0:
448,192,161811,1,0,0:0:0:0:
192,192,161898,1,0,0:0:0:0:
64,192,161898,1,0,0:0:0:0:
320,192,161985,1,0,0:0:0:0:
448,192,162072,1,0,0:0:0:0:
192,192,162072,1,0,0:0:0:0:
64,192,162072,1,0,0:0:0:0:
192,192,162247,1,0,0:0:0:0:
320,192,162247,1,0,0:0:0:0:
64,192,162421,1,0,0:0:0:0:
448,192,162421,1,0,0:0:0:0:
192,192,162596,1,0,0:0:0:0:
320,192,162596,1,0,0:0:0:0:
64,192,162770,5,0,0:0:0:0:
448,192,162770,1,0,0:0:0:0:
320,192,162770,1,0,0:0:0:0:
192,192,162857,1,0,0:0:0:0:
448,192,162944,1,0,0:0:0:0:
64,192,163032,1,0,0:0:0:0:
320,192,163119,1,0,0:0:0:0:
192,192,163119,1,0,0:0:0:0:
448,192,163206,1,0,0:0:0:0:
64,192,163293,1,0,0:0:0:0:
320,192,163380,1,0,0:0:0:0:
64,192,163468,1,0,0:0:0:0:
192,192,163468,1,0,0:0:0:0:
448,192,163468,1,0,0:0:0:0:
320,192,163642,1,0,0:0:0:0:
64,192,163700,1,0,0:0:0:0:
448,192,163758,1,0,0:0:0:0:
192,192,163816,1,0,0:0:0:0:
320,192,163816,1,0,0:0:0:0:
64,192,163933,1,0,0:0:0:0:
448,192,163991,1,0,0:0:0:0:
320,192,163991,1,0,0:0:0:0:
192,192,164078,1,0,0:0:0:0:
64,192,164165,1,0,0:0:0:0:
448,192,164165,1,0,0:0:0:0:
192,192,164340,1,0,0:0:0:0:
64,192,164340,1,0,0:0:0:0:
320,192,164514,1,0,0:0:0:0:
448,192,164514,1,0,0:0:0:0:
192,192,164689,1,0,0:0:0:0:
320,192,164776,1,0,0:0:0:0:
192,192,164863,1,0,0:0:0:0:
64,192,164863,1,0,0:0:0:0:
448,192,164863,1,0,0:0:0:0:
320,192,165037,1,0,0:0:0:0:
64,192,165037,1,0,0:0:0:0:
448,192,165212,1,0,0:0:0:0:
192,192,165299,1,0,0:0:0:0:
320,192,165386,1,0,0:0:0:0:
448,192,165473,1,0,0:0:0:0:
192,192,165561,1,0,0:0:0:0:
64,192,165561,1,0,0:0:0:0:
320,192,165648,1,0,0:0:0:0:
448,192,165735,1,0,0:0:0:0:
64,192,165735,1,0,0:0:0:0:
320,192,165822,1,0,0:0:0:0:
192,192,165910,1,0,0:0:0:0:
448,192,165910,1,0,0:0:0:0:
64,192,165997,1,0,0:0:0:0:
320,192,166084,1,0,0:0:0:0:
192,192,166084,1,0,0:0:0:0:
448,192,166171,1,0,0:0:0:0:
192,192,166258,1,0,0:0:0:0:
64,192,166258,1,0,0:0:0:0:
320,192,166258,1,0,0:0:0:0:
448,192,166433,1,0,0:0:0:0:
64,192,166433,1,0,0:0:0:0:
192,192,166607,1,0,0:0:0:0:
448,192,166607,1,0,0:0:0:0:
64,192,166782,1,0,0:0:0:0:
320,192,166782,1,0,0:0:0:0:
448,192,166869,1,0,0:0:0:0:
320,192,166956,1,0,0:0:0:0:
192,192,166956,1,0,0:0:0:0:
64,192,167130,1,0,0:0:0:0:
192,192,167130,1,0,0:0:0:0:
320,192,167218,1,0,0:0:0:0:
448,192,167218,1,0,0:0:0:0:
64,192,167305,1,0,0:0:0:0:
192,192,167305,1,0,0:0:0:0:
320,192,167479,1,0,0:0:0:0:
448,192,167479,1,0,0:0:0:0:
64,192,167566,1,0,0:0:0:0:
192,192,167566,1,0,0:0:0:0:
448,192,167654,1,0,0:0:0:0:
320,192,167654,1,0,0:0:0:0:
64,192,167828,1,0,0:0:0:0:
320,192,167828,1,0,0:0:0:0:
192,192,167915,1,0,0:0:0:0:
64,192,168003,1,0,0:0:0:0:
448,192,168003,1,0,0:0:0:0:
192,192,168177,1,0,0:0:0:0:
448,192,168177,1,0,0:0:0:0:
320,192,168177,1,0,0:0:0:0:
64,192,168351,5,0,0:0:0:0:
448,192,168351,1,0,0:0:0:0:
320,192,168351,1,0,0:0:0:0:
192,192,168439,1,0,0:0:0:0:
64,192,168526,1,0,0:0:0:0:
448,192,168613,1,0,0:0:0:0:
320,192,168700,1,0,0:0:0:0:
192,192,168700,1,0,0:0:0:0:
64,192,168787,1,0,0:0:0:0:
448,192,168875,1,0,0:0:0:0:
192,192,168962,1,0,0:0:0:0:
64,192,169049,1,0,0:0:0:0:
320,192,169049,1,0,0:0:0:0:
448,192,169049,1,0,0:0:0:0:
192,192,169223,1,0,0:0:0:0:
64,192,169282,1,0,0:0:0:0:
320,192,169340,1,0,0:0:0:0:
192,192,169398,1,0,0:0:0:0:
448,192,169398,1,0,0:0:0:0:
320,192,169514,1,0,0:0:0:0:
448,192,169572,1,0,0:0:0:0:
64,192,169572,1,0,0:0:0:0:
192,192,169660,1,0,0:0:0:0:
64,192,169747,1,0,0:0:0:0:
320,192,169747,1,0,0:0:0:0:
192,192,169921,1,0,0:0:0:0:
448,192,169921,1,0,0:0:0:0:
64,192,170096,1,0,0:0:0:0:
448,192,170096,1,0,0:0:0:0:
320,192,170270,1,0,0:0:0:0:
192,192,170357,1,0,0:0:0:0:
320,192,170444,1,0,0:0:0:0:
64,192,170444,1,0,0:0:0:0:
448,192,170444,1,0,0:0:0:0:
192,192,170619,1,0,0:0:0:0:
64,192,170619,1,0,0:0:0:0:
448,192,170793,1,0,0:0:0:0:
64,192,170880,1,0,0:0:0:0:
320,192,170968,1,0,0:0:0:0:
192,192,171055,1,0,0:0:0:0:
448,192,171142,1,0,0:0:0:0:
64,192,171142,1,0,0:0:0:0:
320,192,171229,1,0,0:0:0:0:
192,192,171316,1,0,0:0:0:0:
64,192,171316,1,0,0:0:0:0:
320,192,171404,1,0,0:0:0:0:
64,192,171491,1,0,0:0:0:0:
448,192,171491,1,0,0:0:0:0:
192,192,171578,1,0,0:0:0:0:
320,192,171665,1,0,0:0:0:0:
448,192,171665,1,0,0:0:0:0:
64,192,171753,1,0,0:0:0:0:
192,192,171840,1,0,0:0:0:0:
448,192,171840,1,0,0:0:0:0:
320,192,171840,1,0,0:0:0:0:
192,192,172014,1,0,0:0:0:0:
64,192,172014,1,0,0:0:0:0:
448,192,172189,1,0,0:0:0:0:
320,192,172189,1,0,0:0:0:0:
64,192,172363,1,0,0:0:0:0:
192,192,172363,1,0,0:0:0:0:
448,192,172450,1,0,0:0:0:0:
320,192,172537,1,0,0:0:0:0:
192,192,172537,1,0,0:0:0:0:
64,192,172712,1,0,0:0:0:0:
192,192,172712,1,0,0:0:0:0:
320,192,172799,1,0,0:0:0:0:
448,192,172799,1,0,0:0:0:0:
64,192,172886,1,0,0:0:0:0:
192,192,172886,1,0,0:0:0:0:
320,192,173061,1,0,0:0:0:0:
448,192,173061,1,0,0:0:0:0:
64,192,173148,1,0,0:0:0:0:
192,192,173148,1,0,0:0:0:0:
448,192,173235,1,0,0:0:0:0:
320,192,173235,1,0,0:0:0:0:
64,192,173410,1,0,0:0:0:0:
192,192,173410,1,0,0:0:0:0:
320,192,173497,1,0,0:0:0:0:
64,192,173584,1,0,0:0:0:0:
448,192,173584,1,0,0:0:0:0:
192,192,173758,1,0,0:0:0:0:
320,192,173758,1,0,0:0:0:0:
320,192,173933,1,0,0:0:0:0:
448,192,173933,1,0,0:0:0:0:
64,192,173933,1,0,0:0:0:0:
192,192,174020,1,0,0:0:0:0:
320,192,174107,1,0,0:0:0:0:
448,192,174194,1,0,0:0:0:0:
320,192,174282,1,0,0:0:0:0:
192,192,174369,1,0,0:0:0:0:
64,192,174456,1,0,0:0:0:0:
320,192,174456,1,0,0:0:0:0:
448,192,174456,1,0,0:0:0:0:
192,192,174543,1,0,0:0:0:0:
320,192,174630,1,0,0:0:0:0:
448,192,174718,1,0,0:0:0:0:
320,192,174805,1,0,0:0:0:0:
192,192,174892,1,0,0:0:0:0:
64,192,174979,1,0,0:0:0:0:
320,192,174979,1,0,0:0:0:0:
448,192,174979,1,0,0:0:0:0:
192,192,175154,1,0,0:0:0:0:
64,192,175154,1,0,0:0:0:0:
320,192,175241,1,0,0:0:0:0:
448,192,175328,1,0,0:0:0:0:
320,192,175503,1,0,0:0:0:0:
448,192,175503,1,0,0:0:0:0:
64,192,175503,1,0,0:0:0:0:
192,192,175590,1,0,0:0:0:0:
320,192,175677,1,0,0:0:0:0:
64,192,175677,1,0,0:0:0:0:
192,192,175851,1,0,0:0:0:0:
448,192,175939,1,0,0:0:0:0:
192,192,176026,1,0,0:0:0:0:
64,192,176026,1,0,0:0:0:0:
320,192,176026,1,0,0:0:0:0:
64,192,176200,1,0,0:0:0:0:
448,192,176200,1,0,0:0:0:0:
320,192,176375,1,0,0:0:0:0:
448,192,176375,1,0,0:0:0:0:
192,192,176462,1,0,0:0:0:0:
64,192,176549,1,0,0:0:0:0:
320,192,176636,1,0,0:0:0:0:
192,192,176723,1,0,0:0:0:0:
64,192,176723,1,0,0:0:0:0:
448,192,176723,1,0,0:0:0:0:
320,192,176811,1,0,0:0:0:0:
192,192,176898,1,0,0:0:0:0:
64,192,176985,1,0,0:0:0:0:
192,192,177072,1,0,0:0:0:0:
320,192,177160,1,0,0:0:0:0:
448,192,177247,1,0,0:0:0:0:
192,192,177247,1,0,0:0:0:0:
64,192,177247,1,0,0:0:0:0:
320,192,177334,1,0,0:0:0:0:
192,192,177421,1,0,0:0:0:0:
64,192,177508,1,0,0:0:0:0:
192,192,177596,1,0,0:0:0:0:
320,192,177683,1,0,0:0:0:0:
448,192,177770,1,0,0:0:0:0:
192,192,177770,1,0,0:0:0:0:
64,192,177770,1,0,0:0:0:0:
320,192,177944,1,0,0:0:0:0:
192,192,177944,1,0,0:0:0:0:
64,192,178032,1,0,0:0:0:0:
448,192,178119,1,0,0:0:0:0:
320,192,178293,1,0,0:0:0:0:
192,192,178293,1,0,0:0:0:0:
64,192,178293,1,0,0:0:0:0:
448,192,178468,1,0,0:0:0:0:
64,192,178468,1,0,0:0:0:0:
320,192,178642,1,0,0:0:0:0:
192,192,178729,1,0,0:0:0:0:
64,192,178816,1,0,0:0:0:0:
320,192,178816,1,0,0:0:0:0:
448,192,178816,1,0,0:0:0:0:
192,192,178991,1,0,0:0:0:0:
64,192,178991,1,0,0:0:0:0:
448,192,179165,1,0,0:0:0:0:
192,192,179253,1,0,0:0:0:0:
320,192,179253,1,0,0:0:0:0:
64,192,179340,1,0,0:0:0:0:
448,192,179340,1,0,0:0:0:0:
192,192,179427,1,0,0:0:0:0:
320,192,179514,1,0,0:0:0:0:
448,192,179514,1,0,0:0:0:0:
64,192,179514,1,0,0:0:0:0:
192,192,179601,1,0,0:0:0:0:
320,192,179689,1,0,0:0:0:0:
448,192,179776,1,0,0:0:0:0:
320,192,179863,1,0,0:0:0:0:
192,192,179950,1,0,0:0:0:0:
64,192,180037,1,0,0:0:0:0:
320,192,180037,1,0,0:0:0:0:
448,192,180037,1,0,0:0:0:0:
192,192,180125,1,0,0:0:0:0:
320,192,180212,1,0,0:0:0:0:
448,192,180299,1,0,0:0:0:0:
320,192,180386,1,0,0:0:0:0:
192,192,180473,1,0,0:0:0:0:
64,192,180561,1,0,0:0:0:0:
320,192,180561,1,0,0:0:0:0:
448,192,180561,1,0,0:0:0:0:
192,192,180735,1,0,0:0:0:0:
64,192,180735,1,0,0:0:0:0:
320,192,180822,1,0,0:0:0:0:
448,192,180910,1,0,0:0:0:0:
320,192,181084,1,0,0:0:0:0:
448,192,181084,1,0,0:0:0:0:
64,192,181084,1,0,0:0:0:0:
192,192,181171,1,0,0:0:0:0:
320,192,181258,1,0,0:0:0:0:
64,192,181258,1,0,0:0:0:0:
192,192,181433,1,0,0:0:0:0:
448,192,181520,1,0,0:0:0:0:
192,192,181607,1,0,0:0:0:0:
64,192,181607,1,0,0:0:0:0:
320,192,181607,1,0,0:0:0:0:
64,192,181782,1,0,0:0:0:0:
448,192,181782,1,0,0:0:0:0:
320,192,181956,1,0,0:0:0:0:
448,192,181956,1,0,0:0:0:0:
64,192,182043,1,0,0:0:0:0:
192,192,182130,1,0,0:0:0:0:
320,192,182218,1,0,0:0:0:0:
192,192,182305,1,0,0:0:0:0:
64,192,182305,1,0,0:0:0:0:
448,192,182305,1,0,0:0:0:0:
320,192,182392,1,0,0:0:0:0:
64,192,182479,1,0,0:0:0:0:
192,192,182566,1,0,0:0:0:0:
320,192,182654,1,0,0:0:0:0:
64,192,182654,1,0,0:0:0:0:
448,192,182654,1,0,0:0:0:0:
320,192,182828,1,0,0:0:0:0:
192,192,182828,1,0,0:0:0:0:
448,192,183003,1,0,0:0:0:0:
64,192,183003,1,0,0:0:0:0:
320,192,183003,1,0,0:0:0:0:
192,192,183090,1,0,0:0:0:0:
448,192,183177,1,0,0:0:0:0:
320,192,183264,1,0,0:0:0:0:
448,192,183351,1,0,0:0:0:0:
192,192,183351,1,0,0:0:0:0:
64,192,183351,1,0,0:0:0:0:
320,192,183526,1,0,0:0:0:0:
192,192,183526,1,0,0:0:0:0:
192,192,183700,1,0,0:0:0:0:
64,192,183700,1,0,0:0:0:0:
320,192,183787,1,0,0:0:0:0:
448,192,183787,1,0,0:0:0:0:
192,192,183875,1,0,0:0:0:0:
64,192,183875,1,0,0:0:0:0:
448,192,184049,1,0,0:0:0:0:
64,192,184049,1,0,0:0:0:0:
192,192,184136,1,0,0:0:0:0:
320,192,184136,1,0,0:0:0:0:
448,192,184223,1,0,0:0:0:0:
64,192,184223,1,0,0:0:0:0:
448,192,184398,1,0,0:0:0:0:
192,192,184398,1,0,0:0:0:0:
64,192,184398,1,0,0:0:0:0:
320,192,184485,1,0,0:0:0:0:
192,192,184572,1,0,0:0:0:0:
448,192,184572,1,0,0:0:0:0:
320,192,184660,1,0,0:0:0:0:
64,192,184747,1,0,0:0:0:0:
192,192,184747,1,0,0:0:0:0:
448,192,184834,1,0,0:0:0:0:
192,192,184921,1,0,0:0:0:0:
320,192,184921,1,0,0:0:0:0:
64,192,185008,1,0,0:0:0:0:
192,192,185096,1,0,0:0:0:0:
320,192,185096,1,0,0:0:0:0:
448,192,185096,1,0,0:0:0:0:
64,192,185444,1,0,0:0:0:0:
320,192,185444,1,0,0:0:0:0:
448,192,185444,1,0,0:0:0:0:
448,192,185793,1,0,0:0:0:0:
320,192,185793,1,0,0:0:0:0:
192,192,185793,1,0,0:0:0:0:
320,192,186142,1,0,0:0:0:0:
192,192,186142,1,0,0:0:0:0:
64,192,186142,1,0,0:0:0:0:
320,192,186491,1,0,0:0:0:0:
448,192,186491,1,0,0:0:0:0:
192,192,186578,1,0,0:0:0:0:
64,192,186578,1,0,0:0:0:0:
320,192,186665,1,0,0:0:0:0:
448,192,186665,1,0,0:0:0:0:
64,192,186840,1,0,0:0:0:0:
448,192,186840,1,0,0:0:0:0:
192,192,186927,1,0,0:0:0:0:
320,192,186927,1,0,0:0:0:0:
64,192,187014,1,0,0:0:0:0:
448,192,187014,1,0,0:0:0:0:
64,192,187189,1,0,0:0:0:0:
320,192,187189,1,0,0:0:0:0:
192,192,187189,1,0,0:0:0:0:
448,192,187363,1,0,0:0:0:0:
320,192,187363,1,0,0:0:0:0:
64,192,187537,1,0,0:0:0:0:
192,192,187537,1,0,0:0:0:0:
448,192,187537,1,0,0:0:0:0:
64,192,187886,1,0,0:0:0:0:
320,192,187886,1,0,0:0:0:0:
448,192,187886,1,0,0:0:0:0:
64,192,188235,1,0,0:0:0:0:
192,192,188235,1,0,0:0:0:0:
448,192,188235,1,0,0:0:0:0:
320,192,188584,1,0,0:0:0:0:
448,192,188584,1,0,0:0:0:0:
192,192,188584,1,0,0:0:0:0:
320,192,188933,1,0,0:0:0:0:
192,192,188933,1,0,0:0:0:0:
64,192,188933,1,0,0:0:0:0:
64,192,189282,1,0,0:0:0:0:
320,192,189282,1,0,0:0:0:0:
192,192,189369,1,0,0:0:0:0:
448,192,189369,1,0,0:0:0:0:
320,192,189456,1,0,0:0:0:0:
64,192,189456,1,0,0:0:0:0:
192,192,189630,1,0,0:0:0:0:
64,192,189630,1,0,0:0:0:0:
320,192,189718,1,0,0:0:0:0:
448,192,189718,1,0,0:0:0:0:
192,192,189805,1,0,0:0:0:0:
64,192,189805,1,0,0:0:0:0:
320,192,189979,1,0,0:0:0:0:
192,192,189979,1,0,0:0:0:0:
448,192,189979,1,0,0:0:0:0:
448,192,190154,1,0,0:0:0:0:
64,192,190154,1,0,0:0:0:0:
320,192,190328,1,0,0:0:0:0:
192,192,190328,128,0,190503:0:0:0:0:
64,192,190328,128,0,190503:0:0:0:0:
