osu file format v14

[General]
AudioFilename: audio.mp3
AudioLeadIn: 0
PreviewTime: 139749
Countdown: 1
SampleSet: Soft
StackLeniency: 0.7
Mode: 0
LetterboxInBreaks: 1
EpilepsyWarning: 1
WidescreenStoryboard: 1

[Editor]
DistanceSpacing: 1.1
BeatDivisor: 4
GridSize: 16
TimelineZoom: 1

[Metadata]
Title:Ice Cream Cake
TitleUnicode:Ice Cream Cake
Artist:Red Velvet
ArtistUnicode:레드벨벳
Creator:Nuolong
Version:Firetruck's Normal
Source:
Tags:kpop k-pop electropop icc sm sment irene seulgi joy wendy yeri 아이린 배주현 강슬기 웬디 손승완 조이 박수영 예리 김예림 firetruck natsu Jakomo73
BeatmapID:1102089
BeatmapSetID:494284

[Difficulty]
HPDrainRate:4
CircleSize:3
OverallDifficulty:4
ApproachRate:5
SliderMultiplier:1.8
SliderTickRate:1

[Events]
//Background and Video events
0,0,"Background.jpg",0,0
//Break Periods
2,59516,61107
2,115530,119712
//Storyboard Layer 0 (Background)
//Storyboard Layer 1 (Fail)
//Storyboard Layer 2 (Pass)
//Storyboard Layer 3 (Foreground)
Sprite,Foreground,Centre,"sb\hl.png",407,157 C,0,185098,,227,23,115 M,0,185098,185185,407,157,389.748,171.2759 F,2,185098,186668,1,0 S,2,185098,186668,0.8,0.16 M,0,185185,185272,389.748,171.2759,376.3297,189.1554 M,0,185272,185359,376.3297,189.1554,367.7891,209.8396 M,0,185359,185446,367.7891,209.8396,364.6772,232.0357 M,0,185446,185534,364.6772,232.0357,367.6781,254.222 M,0,185534,185621,367.6781,254.222,375.8178,275.0362 M,0,185621,185708,375.8178,275.0362,388.9056,293.1765 M,0,185708,185795,388.9056,293.1765,406.1034,307.5479
Sprite,Foreground,Centre,"sb\hl.png",227,394 C,0,186493,,227,23,115 M,0,186493,186580,227,394,228.0323,371.5265 F,2,186493,188063,1,0 S,2,186493,188063,0.8,0.16 M,0,186580,186667,228.0323,371.5265,230.618,349.1828 M,0,186667,186754,230.618,349.1828,235.9196,327.3444 M,0,186754,186841,235.9196,327.3444,233.2229,305.9314 M,0,186841,186929,233.2229,305.9314,227.2365,284.3805 M,0,186929,187016,227.2365,284.3805,231.1512,262.3161 M,0,187016,187103,231.1512,262.3161,230.3661,239.8479 M,0,187103,187190,230.3661,239.8479,227.2306,217.5733
Sprite,Foreground,Centre,"sb\hl.png",376,87 C,0,187888,,174,79,160 M,0,187888,187975,376,87,397.6278,80.83839 F,2,187888,189458,1,0 S,2,187888,189458,0.8,0.16 M,0,187975,188062,397.6278,80.83839,419.6634,76.36908 M,0,188062,188149,419.6634,76.36908,441.9958,73.73867 M,0,188149,188236,441.9958,73.73867,464.4731,72.96564 M,0,188236,188324,464.4731,72.96564,486.9264,74.21287 M,0,188324,188411,486.9264,74.21287,509.209,77.21304 M,0,188411,188498,509.209,77.21304,531.1688,82.04765 M,0,188498,188585,531.1688,82.04765,552.6636,88.66507
Sprite,Foreground,Centre,"sb\hl.png",457,262 C,0,189284,,174,79,160 M,0,189284,189371,457,262,434.8316,258.3127 F,2,189284,190854,1,0 S,2,189284,190854,0.8,0.16 M,0,189371,189458,434.8316,258.3127,412.3527,258.1924 M,0,189458,189545,412.3527,258.1924,390.0586,261.1216 M,0,189545,189632,390.0586,261.1216,368.2174,266.4915 M,0,189632,189720,368.2174,266.4915,346.0357,270.0253 M,0,189720,189807,346.0357,270.0253,323.574,269.3439 M,0,189807,189894,323.574,269.3439,301.4782,265.1949 M,0,189894,189981,301.4782,265.1949,280.0494,258.3712
Sprite,Foreground,Centre,"sb\hl.png",254,211 C,0,109749,,174,79,160 M,0,109749,109836,254,211,237.5917,226.2547 F,2,109749,111319,1,0 S,2,109749,111319,0.8,0.16 M,0,109836,109923,237.5917,226.2547,224.9051,244.6874 M,0,109923,110010,224.9051,244.6874,216.8517,265.6041 M,0,110010,110097,216.8517,265.6041,214.3861,287.8654 M,0,110097,110185,214.3861,287.8654,216.8975,310.091 M,0,110185,110272,216.8975,310.091,224.5303,331.1469 M,0,110272,110359,224.5303,331.1469,237.1961,349.6126 M,0,110359,110446,237.1961,349.6126,253.6641,364.7385
Sprite,Foreground,Centre,"sb\hl.png",320,286 C,0,110795,,174,79,160 F,2,110795,111668,1,0 S,2,110795,111668,0.8,0.16
Sprite,Foreground,Centre,"sb\hl.png",396,348 C,0,111144,,174,79,160 M,0,111144,111231,396,348,418.5,348 F,2,111144,112365,1,0 S,2,111144,112365,0.8,0.16 M,0,111231,111318,418.5,348,441,348 M,0,111318,111405,441,348,418.5,348 M,0,111405,111492,418.5,348,396,348
Sprite,Foreground,Centre,"sb\hl.png",305,387 C,0,111842,,174,79,160 F,2,111842,112715,1,0 S,2,111842,112715,0.8,0.16
Sprite,Foreground,Centre,"sb\hl.png",327,294 C,0,112191,,174,79,160 F,2,112191,113064,1,0 S,2,112191,113064,0.8,0.16
Sprite,Foreground,Centre,"sb\hl.png",327,294 C,0,112539,,53,154,255 M,0,112539,112626,327,294,322.4326,271.9802 F,2,112539,114109,1,0 S,2,112539,114109,0.8,0.16 M,0,112626,112713,322.4326,271.9802,321.0054,249.5551 M,0,112713,112800,321.0054,249.5551,324.8333,227.4707 M,0,112800,112887,324.8333,227.4707,318.3505,206.0284 M,0,112887,112975,318.3505,206.0284,312.5879,184.632 M,0,112975,113062,312.5879,184.632,319.1594,163.1465 M,0,113062,113149,319.1594,163.1465,322.5789,140.9197 M,0,113149,113236,322.5789,140.9197,323.9634,118.4675
Sprite,Foreground,Centre,"sb\hl.png",237,70 C,0,113586,,53,154,255 F,2,113586,114459,1,0 S,2,113586,114459,0.8,0.16
Sprite,Foreground,Centre,"sb\hl.png",182,148 C,0,113935,,53,154,255 M,0,113935,114025,182,148,168.9484,166.3277 F,2,113935,115169,1,0 S,2,113935,115169,0.8,0.16 M,0,114025,114115,168.9484,166.3277,155.8969,184.6555 M,0,114115,114206,155.8969,184.6555,168.9484,166.3277 M,0,114206,114296,168.9484,166.3277,182,148
Sprite,Foreground,Centre,"sb\hl.png",310,118 C,0,114718,,53,154,255 M,0,114718,114871,310,118,331.7394,112.3809 F,2,114718,116203,1,0 S,2,114718,116203,0.8,0.16 M,0,114871,115024,331.7394,112.3809,354.0705,110.2134 M,0,115024,115177,354.0705,110.2134,376.4581,111.7834 M,0,115177,115330,376.4581,111.7834,398.3048,116.9958
Sprite,Foreground,Centre,"sb\hl.png",202,349 C,0,28818,,227,23,115 M,0,28818,28905,202,349,224.4743,348.2538 F,2,28818,30388,1,0 S,2,28818,30388,0.8,0.16 M,0,28905,28992,224.4743,348.2538,246.601,344.3224 M,0,28992,29079,246.601,344.3224,267.469,336.0508 M,0,29079,29166,267.469,336.0508,287.0949,342.9362 M,0,29166,29254,287.0949,342.9362,307.5909,352.2073 M,0,29254,29341,307.5909,352.2073,328.7889,348.3924 M,0,29341,29428,328.7889,348.3924,351.1738,347.314 M,0,29428,29515,351.1738,347.314,373.0488,352.3604
Sprite,Foreground,Centre,"sb\hl.png",465,387 C,0,29865,,227,23,115 F,2,29865,30738,1,0 S,2,29865,30738,0.8,0.16
Sprite,Foreground,Centre,"sb\hl.png",451,291 C,0,30214,,227,23,115 M,0,30214,30301,451,291,450.3912,268.5319 F,2,30214,31784,1,0 S,2,30214,31784,0.8,0.16 M,0,30301,30388,450.3912,268.5319,453.123,246.2165 M,0,30388,30475,453.123,246.2165,458.6705,224.4243 M,0,30475,30562,458.6705,224.4243,456.8345,204.9841 M,0,30562,30650,456.8345,204.9841,440.4406,189.6015 M,0,30650,30737,440.4406,189.6015,421.9119,176.8795 M,0,30737,30824,421.9119,176.8795,401.5481,167.373 M,0,30824,30911,401.5481,167.373,379.8936,161.3546
Sprite,Foreground,Centre,"sb\hl.png",289,202 C,0,31260,,227,23,115 F,2,31260,32133,1,0 S,2,31260,32133,0.8,0.16
Sprite,Foreground,Centre,"sb\hl.png",225,125 C,0,31609,,174,79,160 M,0,31609,31696,225,125,210.2593,141.8818 F,2,31609,33179,1,0 S,2,31609,33179,0.8,0.16 M,0,31696,31783,210.2593,141.8818,199.4373,161.4727 M,0,31783,31870,199.4373,161.4727,193.3223,183.0252 M,0,31870,31957,193.3223,183.0252,192.2418,205.4352 M,0,31957,32045,192.2418,205.4352,196.7306,227.3913 M,0,32045,32132,196.7306,227.3913,205.7659,247.8659 M,0,32132,32219,205.7659,247.8659,219.2116,265.7819 M,0,32219,32306,219.2116,265.7819,236,280
Sprite,Foreground,Centre,"sb\hl.png",196,366 C,0,32656,,174,79,160 F,2,32656,33529,1,0 S,2,32656,33529,0.8,0.16
Sprite,Foreground,Centre,"sb\hl.png",289,399 C,0,33005,,174,79,160 M,0,33005,33092,289,399,310.6875,393.0996 F,2,33005,34575,1,0 S,2,33005,34575,0.8,0.16 M,0,33092,33179,310.6875,393.0996,333.0479,390.851 M,0,33179,33266,333.0479,390.851,355.4731,392.3458 M,0,33266,33353,355.4731,392.3458,377.3522,397.4659 M,0,33353,33441,377.3522,397.4659,399.5173,401.1673 M,0,33441,33528,399.5173,401.1673,421.995,401.2018 M,0,33528,33615,421.995,401.2018,444.2582,398.0577 M,0,33615,33702,444.2582,398.0577,466.0024,392.3168
Sprite,Foreground,Centre,"sb\hl.png",412,308 C,0,34051,,174,79,160 F,2,34051,34924,1,0 S,2,34051,34924,0.8,0.16
Sprite,Foreground,Centre,"sb\hl.png",320,240 C,0,34400,,174,79,160 F,2,34400,37366,1,0 S,2,34400,37366,0.8,0.16
Sprite,Foreground,Centre,"sb\hl.png",153,160 C,0,81842,,53,154,255 M,0,81842,81929,153,160,174.4758,153.2888 F,2,81842,83412,1,0 S,2,81842,83412,0.8,0.16 M,0,81929,82016,174.4758,153.2888,195.9516,146.5776 M,0,82016,82103,195.9516,146.5776,217.6378,149.4041 M,0,82103,82190,217.6378,149.4041,239.3887,155.1617 M,0,82190,82278,239.3887,155.1617,261.1395,160.9193 M,0,82278,82365,261.1395,160.9193,282.8414,159.1426 M,0,82365,82452,282.8414,159.1426,304.5154,153.1023 M,0,82452,82539,304.5154,153.1023,326.1895,147.062
Sprite,Foreground,Centre,"sb\hl.png",393,74 C,0,82888,,53,154,255 F,2,82888,83761,1,0 S,2,82888,83761,0.8,0.16
Sprite,Foreground,Centre,"sb\hl.png",393,74 C,0,83237,,53,154,255 M,0,83237,83324,393,74,407.7616,90.85081 F,2,83237,84807,1,0 S,2,83237,84807,0.8,0.16 M,0,83324,83411,407.7616,90.85081,418.4536,110.5049 M,0,83411,83498,418.4536,110.5049,424.2288,132.1598 M,0,83498,83585,424.2288,132.1598,424.2489,154.5551 M,0,83585,83673,424.2489,154.5551,419.2779,176.36 M,0,83673,83760,419.2779,176.36,409.3014,196.4095 M,0,83760,83847,409.3014,196.4095,394.578,213.2776 M,0,83847,83934,394.578,213.2776,376.5457,226.5587
Sprite,Foreground,Centre,"sb\hl.png",285,266 C,0,84284,,53,154,255 F,2,84284,85157,1,0 S,2,84284,85157,0.8,0.16
Sprite,Foreground,Centre,"sb\hl.png",320,240 C,0,84632,,53,154,255 F,2,84632,87598,1,0 S,2,84632,87598,0.8,0.16
Sprite,Foreground,Centre,"SB\r.png",254,211 C,0,109749,,174,79,160 F,0,109749,110445,1,0 S,0,109749,110445,0.3,1.2
Sprite,Foreground,Centre,"SB\r.png",320,286 C,0,110795,,174,79,160 F,0,110795,111491,1,0 S,0,110795,111491,0.3,1.2
Sprite,Foreground,Centre,"SB\r.png",396,348 C,0,111144,,174,79,160 F,0,111144,111840,1,0 S,0,111144,111840,0.3,1.2
Sprite,Foreground,Centre,"SB\r.png",305,387 C,0,111842,,174,79,160 F,0,111842,112538,1,0 S,0,111842,112538,0.3,1.2
Sprite,Foreground,Centre,"SB\r.png",327,294 C,0,112191,,174,79,160 F,0,112191,112887,1,0 S,0,112191,112887,0.3,1.2
Sprite,Foreground,Centre,"SB\r.png",327,294 C,0,112539,,53,154,255 F,0,112539,113235,1,0 S,0,112539,113235,0.3,1.2
Sprite,Foreground,Centre,"SB\r.png",237,70 C,0,113586,,53,154,255 F,0,113586,114282,1,0 S,0,113586,114282,0.3,1.2
Sprite,Foreground,Centre,"SB\r.png",182,148 C,0,113935,,53,154,255 F,0,113935,114631,1,0 S,0,113935,114631,0.3,1.2
Sprite,Foreground,Centre,"SB\r.png",310,118 C,0,114718,,53,154,255 F,0,114718,115414,1,0 S,0,114718,115414,0.3,1.2
Sprite,Foreground,Centre,"SB\r.png",153,160 C,0,81842,,53,154,255 F,0,81842,82538,1,0 S,0,81842,82538,0.3,1.2
Sprite,Foreground,Centre,"SB\r.png",393,74 C,0,82888,,53,154,255 F,0,82888,83584,1,0 S,0,82888,83584,0.3,1.2
Sprite,Foreground,Centre,"SB\r.png",393,74 C,0,83237,,53,154,255 F,0,83237,83933,1,0 S,0,83237,83933,0.3,1.2
Sprite,Foreground,Centre,"SB\r.png",285,266 C,0,84284,,53,154,255 F,0,84284,84980,1,0 S,0,84284,84980,0.3,1.2
Sprite,Foreground,Centre,"SB\r.png",320,240 C,0,84632,,53,154,255 F,0,84632,85328,1,0 S,0,84632,85328,0.3,1.2
Sprite,Foreground,Centre,"SB\r.png",202,349 C,0,28818,,227,23,115 F,0,28818,29514,1,0 S,0,28818,29514,0.3,1.2
Sprite,Foreground,Centre,"SB\r.png",465,387 C,0,29865,,227,23,115 F,0,29865,30561,1,0 S,0,29865,30561,0.3,1.2
Sprite,Foreground,Centre,"SB\r.png",451,291 C,0,30214,,227,23,115 F,0,30214,30910,1,0 S,0,30214,30910,0.3,1.2
Sprite,Foreground,Centre,"SB\r.png",289,202 C,0,31260,,227,23,115 F,0,31260,31956,1,0 S,0,31260,31956,0.3,1.2
Sprite,Foreground,Centre,"SB\r.png",225,125 C,0,31609,,174,79,160 F,0,31609,32305,1,0 S,0,31609,32305,0.3,1.2
Sprite,Foreground,Centre,"SB\r.png",196,366 C,0,32656,,174,79,160 F,0,32656,33352,1,0 S,0,32656,33352,0.3,1.2
Sprite,Foreground,Centre,"SB\r.png",289,399 C,0,33005,,174,79,160 F,0,33005,33701,1,0 S,0,33005,33701,0.3,1.2
Sprite,Foreground,Centre,"SB\r.png",412,308 C,0,34051,,174,79,160 F,0,34051,34747,1,0 S,0,34051,34747,0.3,1.2
Sprite,Foreground,Centre,"SB\r.png",320,240 C,0,34400,,174,79,160 F,0,34400,35096,1,0 S,0,34400,35096,0.3,1.2
Sprite,Foreground,Centre,"SB\r.png",407,157 C,0,185098,,227,23,115 F,0,185098,185794,1,0 S,0,185098,185794,0.3,1.2
Sprite,Foreground,Centre,"SB\r.png",227,394 C,0,186493,,227,23,115 F,0,186493,187189,1,0 S,0,186493,187189,0.3,1.2
Sprite,Foreground,Centre,"SB\r.png",376,87 C,0,187888,,174,79,160 F,0,187888,188584,1,0 S,0,187888,188584,0.3,1.2
Sprite,Foreground,Centre,"SB\r.png",457,262 C,0,189284,,174,79,160 F,0,189284,189980,1,0 S,0,189284,189980,0.3,1.2
Sprite,Foreground,Centre,"SB\r.png",335,176 C,0,190330,,174,79,160 F,0,190330,191026,1,0 S,0,190330,191026,0.3,1.2
//Storyboard Sound Samples

[TimingPoints]
912,697.674418604651,4,2,1,50,1,0
6493,-100,4,2,1,75,0,0
15388,-100,4,2,1,75,0,0
17656,-100,4,2,1,75,0,0
28818,-100,4,2,1,50,0,0
36493,-100,4,2,1,60,0,0
37191,-100,4,2,2,100,0,1
59516,-100,4,2,1,75,0,0
62307,-100,4,2,1,75,0,0
64400,-100,4,2,1,75,0,0
65098,-100,4,2,1,75,0,0
81842,-100,4,2,1,50,0,0
86725,-100,4,2,1,65,0,0
87423,-100,4,2,2,100,0,1
109749,-100,4,3,1,90,0,0
113935,722.89156626506,4,3,1,90,1,0
114296,845.070422535211,4,3,1,90,1,0
114632,-100,4,3,1,50,0,0
114718,1224.48979591837,4,3,1,90,1,0
115330,697.674418604651,4,2,1,50,1,0
120563,-100,4,2,1,75,0,0
125795,-100,4,2,1,85,0,0
125970,-100,4,2,1,85,0,0
126493,-100,4,2,1,75,0,0
135563,-100,4,2,1,75,0,0
135737,-100,4,2,1,75,0,0
140446,-100,4,2,2,100,0,1
159981,-100,4,2,1,90,0,0
162771,-100,4,2,2,100,0,1
185097,-100,4,3,1,90,0,0

[Colours]
Combo1 : 221,221,0
Combo2 : 227,23,115
Combo3 : 174,79,160
Combo4 : 53,154,255
Combo5 : 0,176,0

[HitObjects]
0,109,911,6,0,P|47:102|90:110,1,90
129,137,1435,1,0,0:0:0:0:
173,157,1609,2,0,P|217:164|261:157,1,90,2|0,0:0|0:0,0:0:0:0:
325,80,2307,2,0,P|357:149|315:239,1,180,0|2,0:0|0:0,0:0:0:0:
232,290,3353,1,0,0:0:0:0:
153,350,3702,6,0,P|134:310|141:256,1,90
156,219,4225,1,0,0:0:0:0:
200,196,4400,1,2,0:0:0:0:
232,290,4749,1,0,0:0:0:0:
300,361,5098,2,0,P|335:280|279:200,1,180,0|2,0:0|0:0,0:0:0:0:
223,134,6144,1,0,0:0:0:0:
132,175,6493,6,0,P|85:166|43:174,1,90,4|0,0:0|0:0,0:0:0:0:
88,262,7191,1,10,0:0:0:0:
164,324,7539,1,0,0:0:0:0:
247,270,7888,2,0,P|294:264|335:271,1,90
387,355,8586,2,0,P|343:363|297:356,1,90,10|0,0:0|0:0,0:0:0:0:
247,270,9284,5,0,0:0:0:0:
193,186,9632,2,0,L|157:96,2,90,0|10|0,0:0|0:0|0:0,0:0:0:0:
247,270,10679,2,0,B|299:261|283:273|340:266,1,90
389,350,11377,1,10,0:0:0:0:
437,262,11725,1,8,0:0:0:0:
336,266,12074,6,0,P|346:223|334:178,1,90,4|0,0:0|0:0,0:0:0:0:
247,131,12772,2,0,P|235:177|253:226,1,90,10|0,0:0|0:0,0:0:0:0:
186,295,13470,1,0,0:0:0:0:
121,220,13818,2,0,B|110:190|110:190|96:167|96:167|84:133,2,90,0|10|0,0:0|0:0|0:0,0:0:0:0:
144,316,14865,6,0,P|212:333|276:317,1,135
306,282,15563,2,0,P|313:232|304:194,1,90,10|0,0:0|0:0,0:0:0:0:
262,103,16260,1,0,0:0:0:0:
207,185,16609,1,0,0:0:0:0:
304,194,16958,2,0,L|405:185,1,90,10|8,0:0|0:0,0:0:0:0:
476,131,17656,6,0,P|491:173|485:221,1,90
394,187,18353,1,10,0:0:0:0:
306,140,18702,1,0,0:0:0:0:
217,184,19051,2,0,P|167:177|122:185,2,90,0|0|10,0:0|0:0|0:0,0:0:0:0:
298,241,20098,1,0,3:0:0:0:
306,140,20446,6,0,P|316:97|307:53,1,90
220,103,21144,1,10,0:0:0:0:
142,41,21493,1,0,0:0:0:0:
72,111,21842,2,0,P|61:157|72:201,1,90
103,234,22365,1,0,0:0:0:0:
148,252,22539,2,0,P|192:244|237:252,1,90,10|8,0:0|0:0,0:0:0:0:
329,216,23237,5,4,0:0:0:0:
295,124,23586,2,0,P|285:82|296:31,2,90,0|10|0,0:0|0:0|0:0,0:0:0:0:
329,216,24632,2,0,P|339:258|328:309,1,90
292,335,25156,1,0,0:0:0:0:
243,341,25330,2,0,B|211:339|197:330|197:330|180:339|147:343,1,90,10|0,0:0|0:0,0:0:0:0:
70,291,26028,5,0,0:0:0:0:
102,197,26377,1,0,0:0:0:0:
59,106,26725,2,0,P|104:97|152:108,1,90,10|0,0:0|0:0,0:0:0:0:
235,150,27423,2,0,P|280:159|328:148,2,90,0|0|8,0:0|0:0|0:0,0:0:0:0:
151,203,28470,1,8,0:0:0:0:
138,301,28818,6,0,B|181:302|207:286|207:286|223:296|248:306|248:306|276:293|301:300|323:310,1,180,2|0,0:0|0:0,0:0:0:0:
401,339,29865,1,2,0:0:0:0:
387,243,30214,2,0,B|383:206|399:164|399:164|364:122|314:113,1,180,0|2,0:0|0:0,0:0:0:0:
225,154,31260,1,0,0:0:0:0:
161,77,31609,6,0,P|128:153|172:232,1,180,2|0,0:0|0:0,0:0:0:0:
132,318,32656,1,2,0:0:0:0:
225,351,33005,2,0,B|264:337|305:347|305:347|350:362|406:343,1,180,0|2,0:0|0:0,0:0:0:0:
348,260,34051,1,0,0:0:0:0:
256,192,34400,12,0,36493,0:0:0:0:
409,88,37191,6,0,L|317:88,1,90,6|2,0:0|0:0,0:0:0:0:
275,112,37714,1,2,0:0:0:0:
233,138,37888,2,0,L|141:138,1,90,10|2,3:2|0:0,0:0:0:0:
76,63,38586,2,0,P|105:137|62:227,1,180,2|10,0:0|3:2,0:0:0:0:
9,142,39632,1,2,0:0:0:0:
65,224,39981,6,0,B|58:262|58:262|60:287|60:287|53:325,2,90,2|2|10,0:0|0:0|3:2,0:0:0:0:
154,266,41028,1,2,0:0:0:0:
154,266,41377,2,0,B|197:257|235:269|235:269|281:284|332:268,1,180,2|10,0:0|3:2,0:0:0:0:
279,183,42423,1,2,0:0:0:0:
198,124,42772,6,0,P|152:119|109:127,2,90,6|2|10,0:0|0:0|3:2,0:0:0:0:
283,188,43818,1,2,0:0:0:0:
283,188,44167,2,0,P|292:231|280:282,1,90,2|2,0:0|0:0,0:0:0:0:
192,318,44865,2,0,P|183:274|192:230,1,90,10|2,3:2|0:0,0:0:0:0:
139,146,45563,6,0,L|85:60,2,90,2|2|10,0:0|0:0|3:2,0:0:0:0:
235,135,46609,1,2,0:0:0:0:
235,135,46958,2,0,P|322:118|415:139,1,180,2|10,0:0|3:2,0:0:0:0:
501,176,48005,1,2,0:0:0:0:
422,235,48353,6,0,P|430:282|421:331,1,90,2|2,0:0|0:0,0:0:0:0:
332,362,49051,1,10,3:2:0:0:
243,318,49400,2,0,P|146:299|64:318,1,180,2|2,0:0|0:0,0:0:0:0:
10,235,50446,2,0,L|-2:140,1,90,10|2,3:2|0:0,0:0:0:0:
21,101,50970,1,2,0:0:0:0:
63,75,51144,6,0,P|109:68|151:76,1,90,2|2,0:0|0:0,0:0:0:0:
235,126,51842,1,10,3:2:0:0:
301,53,52191,2,0,P|338:135|292:206,1,180,2|2,0:0|0:0,0:0:0:0:
235,126,53237,1,10,3:2:0:0:
197,217,53586,1,2,0:0:0:0:
293,204,53935,6,0,B|343:201|336:211|385:204,1,90,2|2,0:0|0:0,0:0:0:0:
459,142,54632,1,10,3:2:0:0:
459,142,54981,2,0,P|479:232|417:292,1,180,2|2,0:0|0:0,0:0:0:0:
382,204,56028,2,0,P|336:195|290:203,1,90,10|2,3:2|0:0,0:0:0:0:
286,300,56725,5,2,0:0:0:0:
202,247,57074,1,2,0:0:0:0:
117,298,57423,1,10,3:2:0:0:
30,249,57772,1,2,0:0:0:0:
115,199,58121,2,0,P|110:156|83:111,2,90,2|2|10,0:0|0:0|3:2,0:0:0:0:
202,247,59167,1,2,0:0:0:0:
252,47,62307,6,0,P|205:38|159:47,1,90
208,133,63005,2,0,L|207:233,1,90,10|0,0:0|0:0,0:0:0:0:
230,266,63528,1,0,0:0:0:0:
272,291,63702,2,0,P|322:284|364:290,2,90,0|0|10,0:0|0:0|0:0,0:0:0:0:
204,363,64749,1,8,0:0:0:0:
175,268,65098,6,0,L|124:173,2,90,4|0|10,0:0|0:0|0:0,0:0:0:0:
275,296,66144,1,0,0:0:0:0:
275,296,66493,2,0,P|282:248|274:207,1,90
204,135,67191,2,0,P|197:87|205:46,1,90,10|0,0:0|0:0,0:0:0:0:
291,94,67888,5,0,0:0:0:0:
387,71,68237,1,0,0:0:0:0:
366,167,68586,2,0,P|372:214|365:269,1,90,10|0,0:0|0:0,0:0:0:0:
337,295,69109,1,0,0:0:0:0:
293,318,69284,2,0,P|200:302|114:318,1,180,0|10,0:0|0:0,0:0:0:0:
33,263,70330,1,8,0:0:0:0:
77,175,70679,6,0,P|84:130|77:85,2,90,12|0|10,0:0|0:0|0:0,0:0:0:0:
138,252,71725,1,0,0:0:0:0:
138,252,72074,2,0,B|168:251|168:251|198:256|198:256|227:252,1,90
270,226,72598,1,0,0:0:0:0:
308,194,72772,2,0,P|354:187|398:194,1,90,10|0,0:0|0:0,0:0:0:0:
455,273,73470,6,0,P|490:195|459:109,1,180,0|10,0:0|0:0,0:0:0:0:
396,193,74516,1,0,0:0:0:0:
301,164,74865,2,0,P|255:156|204:165,2,90,0|0|10,0:0|0:0|0:0,0:0:0:0:
322,261,75912,1,2,0:0:0:0:
237,312,76260,6,0,B|203:302|168:313|168:313|137:324|104:313,1,135,4|0,0:0|0:0,0:0:0:0:
65,281,76958,2,0,P|57:234|69:187,1,90,10|0,0:0|0:0,0:0:0:0:
151,142,77656,1,0,0:0:0:0:
230,200,78005,2,0,B|259:197|259:197|289:203|289:203|326:198,1,90,0|10,0:0|0:0,0:0:0:0:
399,141,78702,1,0,0:0:0:0:
451,225,79051,6,0,B|458:259|458:259|452:288|452:288|457:320,1,90
369,362,79749,1,10,0:0:0:0:
277,323,80098,1,0,0:0:0:0:
184,356,80446,2,0,P|137:347|94:356,1,90
34,276,81144,2,0,L|22:175,1,90,10|0,0:0|0:0,0:0:0:0:
89,112,81842,6,0,B|137:97|137:97|205:115|205:115|266:98,1,180,2|0,0:0|0:0,0:0:0:0:
329,26,82888,1,2,0:0:0:0:
329,26,83237,2,0,P|356:66|310:180,1,180,0|2,0:0|0:0,0:0:0:0:
221,218,84284,1,0,0:0:0:0:
256,192,84632,12,0,86725,0:0:0:0:
96,80,87423,6,0,L|188:80,1,90,6|2,0:0|0:0,0:0:0:0:
228,106,87946,1,2,0:0:0:0:
271,130,88121,2,0,L|371:130,1,90,10|2,3:2|0:0,0:0:0:0:
429,55,88818,2,0,P|400:129|443:219,1,180,2|10,0:0|3:2,0:0:0:0:
496,134,89864,1,2,0:0:0:0:
440,216,90214,6,0,B|447:254|447:254|445:279|445:279|452:317,2,90,2|2|10,0:0|0:0|3:2,0:0:0:0:
351,258,91260,1,2,0:0:0:0:
351,258,91609,2,0,B|308:249|270:261|270:261|224:276|173:260,1,180,2|10,0:0|3:2,0:0:0:0:
226,175,92655,1,2,0:0:0:0:
307,116,93005,6,0,P|353:111|396:119,2,90,6|2|10,0:0|0:0|3:2,0:0:0:0:
232,180,94050,1,2,0:0:0:0:
232,180,94400,2,0,P|223:223|235:274,1,90,2|2,0:0|0:0,0:0:0:0:
313,310,95097,2,0,P|322:266|313:222,1,90,10|2,3:2|0:0,0:0:0:0:
366,138,95795,6,0,L|420:52,2,90,2|2|10,0:0|0:0|3:2,0:0:0:0:
270,127,96841,1,2,0:0:0:0:
270,127,97191,2,0,P|183:110|90:131,1,180,2|10,0:0|3:2,0:0:0:0:
4,168,98237,1,2,0:0:0:0:
83,227,98586,6,0,P|75:274|84:323,1,90,2|2,0:0|0:0,0:0:0:0:
173,354,99283,1,10,3:2:0:0:
262,310,99632,2,0,P|359:291|441:310,1,180,2|2,0:0|0:0,0:0:0:0:
495,227,100679,2,0,L|507:132,1,90,10|2,3:2|0:0,0:0:0:0:
498,88,101202,1,2,0:0:0:0:
451,71,101376,6,0,P|405:64|361:71,1,90,2|2,0:0|0:0,0:0:0:0:
275,118,102074,1,10,3:2:0:0:
208,44,102423,2,0,P|171:126|217:197,1,180,2|2,0:0|0:0,0:0:0:0:
275,118,103469,1,10,3:2:0:0:
314,208,103818,1,2,0:0:0:0:
215,195,104167,6,0,B|165:192|172:202|123:195,1,90,2|2,0:0|0:0,0:0:0:0:
47,134,104864,1,10,3:2:0:0:
47,134,105214,2,0,P|27:224|84:287,1,180,2|2,0:0|0:0,0:0:0:0:
125,195,106260,2,0,P|171:186|217:194,1,90,10|2,3:2|0:0,0:0:0:0:
293,134,106957,5,2,0:0:0:0:
344,50,107306,1,2,0:0:0:0:
407,126,107655,1,10,3:2:0:0:
365,216,108004,1,2,0:0:0:0:
323,310,108353,2,0,P|368:318|411:309,2,90,2|2|10,0:0|0:0|3:2,0:0:0:0:
256,238,109399,1,2,0:0:0:0:
190,163,109749,6,0,P|159:200|199:323,1,180,8|2,0:0|0:0,0:0:0:0:
256,238,110795,1,0,0:0:0:0:
332,300,111144,2,0,L|394:300,2,45,0|8|8,0:0|0:0|0:0,0:0:0:0:
241,339,111842,1,2,0:0:0:0:
263,246,112191,1,0,0:0:0:0:
263,246,112539,6,0,B|252:204|261:179|261:179|248:138|248:138|259:113|260:69,1,180,8|2,0:0|0:0,0:0:0:0:
173,22,113586,1,0,0:0:0:0:
118,100,113935,2,0,L|71:166,2,45,0|8|8,0:0|0:0|0:0,0:0:0:0:
246,70,114718,2,0,P|292:62|340:71,1,90
50,337,120912,6,0,P|109:320|182:335,1,135
219,304,121609,2,0,P|226:266|219:213,1,90,10|0,0:0|0:0,0:0:0:0:
152,144,122307,2,0,P|145:94|157:47,1,90
241,102,123005,2,0,B|274:97|274:97|301:104|301:104|336:100,1,90,10|0,0:0|0:0,0:0:0:0:
409,42,123702,6,0,P|432:100|400:169,1,135
364,191,124400,2,0,B|331:186|331:186|304:193|304:193|269:189,1,90,10|0,0:0|0:0,0:0:0:0:
183,153,125098,1,0,0:0:0:0:
86,130,125446,1,0,0:0:0:0:
106,226,125795,2,0,P|103:286|108:324,1,90,10|8,0:0|0:0,0:0:0:0:
197,355,126493,6,0,P|245:349|297:357,2,90,4|0|10,0:0|0:0|0:0,0:0:0:0:
105,316,127539,1,0,0:0:0:0:
57,229,127888,2,0,L|69:131,1,90
77,90,128411,1,0,0:0:0:0:
121,68,128586,2,0,P|182:74|209:68,1,90,10|0,0:0|0:0,0:0:0:0:
301,104,129284,6,0,P|312:61|301:18,1,90
209,67,129981,2,0,P|198:110|209:153,1,90,10|0,0:0|0:0,0:0:0:0:
140,224,130679,2,0,P|95:215|46:226,2,90,0|0|10,0:0|0:0|0:0,0:0:0:0:
223,278,131725,1,8,0:0:0:0:
309,229,132074,6,0,P|353:222|401:229,1,90,8|0,0:0|0:0,0:0:0:0:
445,315,132772,2,0,P|401:322|353:315,1,90,10|0,0:0|0:0,0:0:0:0:
309,229,133470,2,0,P|263:222|219:229,2,90,0|0|10,0:0|0:0|0:0,0:0:0:0:
268,319,134516,1,0,0:0:0:0:
173,348,134865,6,0,L|75:348,1,90
35,334,135388,1,0,0:0:0:0:
11,290,135563,2,0,P|19:248|12:199,1,90,10|0,0:0|0:0,0:0:0:0:
80,129,136260,2,0,P|126:119|171:128,1,90
251,179,136958,1,10,0:0:0:0:
260,80,137307,1,0,0:0:0:0:
256,192,137656,12,0,139749,0:0:0:0:
409,296,140446,6,0,L|317:296,1,90,6|2,0:0|0:0,0:0:0:0:
271,279,140970,1,2,0:0:0:0:
233,247,141144,2,0,L|141:247,1,90,10|2,3:2|0:0,0:0:0:0:
76,171,141841,2,0,P|45:249|90:329,1,180,2|10,0:0|3:2,0:0:0:0:
143,246,142887,1,2,0:0:0:0:
225,191,143237,6,0,B|226:153|226:153|231:133|231:133|233:93,2,90,2|2|10,0:0|0:0|3:2,0:0:0:0:
142,135,144283,1,2,0:0:0:0:
225,191,144632,2,0,B|268:200|306:188|306:188|352:173|403:189,1,180,2|10,0:0|3:2,0:0:0:0:
354,275,145678,1,2,0:0:0:0:
268,324,146027,6,0,P|222:329|179:321,2,90,6|2|10,0:0|0:0|3:2,0:0:0:0:
280,225,147073,1,2,0:0:0:0:
280,225,147423,2,0,P|291:178|277:131,1,90,2|2,0:0|0:0,0:0:0:0:
191,95,148120,2,0,P|179:138|191:183,1,90,10|2,3:2|0:0,0:0:0:0:
138,265,148818,6,0,L|84:351,2,90,2|2|10,0:0|0:0|3:2,0:0:0:0:
235,250,149864,1,2,0:0:0:0:
235,250,150214,2,0,P|322:267|415:246,1,180,2|10,0:0|3:2,0:0:0:0:
488,187,151260,1,2,0:0:0:0:
423,111,151609,6,0,P|431:64|422:15,1,90,2|2,0:0|0:0,0:0:0:0:
337,69,152306,1,10,3:2:0:0:
238,65,152655,2,0,P|141:84|59:65,1,180,2|2,0:0|0:0,0:0:0:0:
13,152,153702,2,0,L|1:247,1,90,10|2,3:2|0:0,0:0:0:0:
6,290,154225,1,2,0:0:0:0:
49,313,154400,6,0,P|95:320|137:312,1,90,2|2,0:0|0:0,0:0:0:0:
225,266,155097,1,10,3:2:0:0:
287,338,155446,2,0,P|324:256|278:185,1,180,2|2,0:0|0:0,0:0:0:0:
225,266,156492,1,10,3:2:0:0:
183,176,156841,1,2,0:0:0:0:
279,186,157190,6,0,B|329:189|322:179|371:186,1,90,2|2,0:0|0:0,0:0:0:0:
450,253,157887,1,10,3:2:0:0:
450,253,158237,2,0,P|479:170|425:95,1,180,2|2,0:0|0:0,0:0:0:0:
386,186,159283,2,0,P|342:194|298:188,1,90,10|2,3:2|0:0,0:0:0:0:
230,114,159980,5,8,0:0:0:0:
164,188,160330,1,0,0:0:0:0:
232,259,160678,1,8,3:2:0:0:
297,187,161027,1,0,0:0:0:0:
230,114,161376,2,0,P|188:89|169:38,2,90,8|8|8,0:0|0:0|3:2,0:0:0:0:
164,188,162423,1,8,0:0:0:0:
119,276,162771,6,0,L|209:276,1,90,6|2,0:0|0:0,0:0:0:0:
257,267,163295,1,2,0:0:0:0:
303,249,163470,2,0,L|393:249,1,90,10|2,3:2|0:0,0:0:0:0:
447,331,164167,2,0,P|418:248|466:174,1,180,2|10,0:0|3:2,0:0:0:0:
509,263,165213,1,2,0:0:0:0:
464,175,165562,6,0,B|471:137|471:137|469:112|469:112|473:86,2,90,2|2|10,0:0|0:0|3:2,0:0:0:0:
371,138,166609,1,2,0:0:0:0:
371,138,166958,2,0,B|328:147|290:135|290:135|244:120|193:136,1,180,2|10,0:0|3:2,0:0:0:0:
247,218,168004,1,2,0:0:0:0:
331,270,168353,6,0,P|375:275|419:267,2,90,6|2|10,0:0|0:0|3:2,0:0:0:0:
247,218,169399,1,2,0:0:0:0:
247,218,169749,2,0,P|237:174|246:130,1,90,2|2,0:0|0:0,0:0:0:0:
334,86,170446,2,0,P|342:129|334:173,1,90,10|2,3:2|0:0,0:0:0:0:
382,260,171144,6,0,L|429:336,2,90,2|2|10,0:0|0:0|3:2,0:0:0:0:
283,245,172190,1,2,0:0:0:0:
283,245,172539,2,0,P|195:261|107:243,1,180,2|10,0:0|3:2,0:0:0:0:
20,195,173586,1,2,0:0:0:0:
88,123,173935,6,0,P|80:78|86:34,1,90,2|2,0:0|0:0,0:0:0:0:
183,17,174632,1,10,3:2:0:0:
268,66,174981,2,0,P|351:45|440:71,1,180,2|2,0:0|0:0,0:0:0:0:
501,148,176027,2,0,L|512:237,1,90,10|2,3:2|0:0,0:0:0:0:
491,282,176551,1,2,0:0:0:0:
449,308,176725,6,0,P|404:315|360:306,1,90,2|2,0:0|0:0,0:0:0:0:
274,256,177423,1,10,3:2:0:0:
211,332,177771,2,0,P|173:254|218:179,1,180,2|2,0:0|0:0,0:0:0:0:
274,256,178818,1,10,3:2:0:0:
315,166,179167,1,2,0:0:0:0:
219,180,179516,6,0,B|169:183|176:173|129:179,1,90,2|2,0:0|0:0,0:0:0:0:
53,242,180213,1,10,3:2:0:0:
53,242,180562,2,0,P|31:158|88:93,1,180,2|2,0:0|0:0,0:0:0:0:
130,180,181609,2,0,P|173:188|218:182,1,90,10|2,3:2|0:0,0:0:0:0:
233,83,182306,5,2,0:0:0:0:
320,36,182655,1,2,0:0:0:0:
404,88,183005,1,10,3:2:0:0:
491,41,183353,1,2,0:0:0:0:
491,140,183702,2,0,P|497:183|492:236,2,90,0|0|8,0:0|0:0|3:2,0:0:0:0:
404,188,184748,1,10,0:0:0:0:
343,109,185098,6,0,P|302:169|348:263,1,180,12|2,0:0|0:0,0:0:0:0:
163,346,186493,2,0,B|164:297|174:274|174:274|163:237|163:237|172:214|162:163,1,180,0|2,0:0|0:0,0:0:0:0:
312,39,187888,6,0,P|392:25|495:43,1,180,8|2,0:0|0:0,0:0:0:0:
393,214,189284,2,0,B|354:204|306:218|306:218|264:230|210:208,1,180,0|2,0:0|0:0,0:0:0:0:
271,128,190330,1,8,0:0:0:0:
