osu file format v14

[General]
AudioFilename: audio.mp3
AudioLeadIn: 0
PreviewTime: 139749
Countdown: 1
SampleSet: None
StackLeniency: 0.7
Mode: 0
LetterboxInBreaks: 1
EpilepsyWarning: 1
WidescreenStoryboard: 1

[Editor]
DistanceSpacing: 1.2
BeatDivisor: 8
GridSize: 16
TimelineZoom: 1

[Metadata]
Title:Ice Cream Cake
TitleUnicode:Ice Cream Cake
Artist:Red Velvet
ArtistUnicode:레드벨벳
Creator:Nuolong
Version:Easy
Source:
Tags:kpop k-pop electropop icc sm sment irene seulgi joy wendy yeri 아이린 배주현 강슬기 웬디 손승완 조이 박수영 예리 김예림 firetruck natsu Jakomo73
BeatmapID:1056733
BeatmapSetID:494284

[Difficulty]
HPDrainRate:2
CircleSize:3
OverallDifficulty:2.5
ApproachRate:3.5
SliderMultiplier:1.6
SliderTickRate:1

[Events]
//Background and Video events
0,0,"Background.jpg",0,0
//Break Periods
2,109949,119531
//Storyboard Layer 0 (Background)
//Storyboard Layer 1 (Fail)
//Storyboard Layer 2 (Pass)
//Storyboard Layer 3 (Foreground)
Sprite,Foreground,Centre,"sb\hl.png",97,301 C,0,109749,,174,79,160 F,2,109749,110622,1,0 S,2,109749,110622,0.8,0.16
Sprite,Foreground,Centre,"sb\hl.png",464,384 C,0,28818,,227,23,115 M,0,28818,28905,464,384,444.2688,387.0757 F,2,28818,31784,1,0 S,2,28818,31784,0.8,0.16 M,0,28905,28992,444.2688,387.0757,424.3741,385.6725 M,0,28992,29079,424.3741,385.6725,405.678,378.7817 M,0,29079,29166,405.678,378.7817,389.7095,366.8411 M,0,29166,29254,389.7095,366.8411,376.9783,351.4614 M,0,29254,29341,376.9783,351.4614,366.4997,337.4806 M,0,29341,29428,366.4997,337.4806,351.2767,350.4269 M,0,29428,29515,351.2767,350.4269,334.2503,360.8747 M,0,29515,29602,334.2503,360.8747,315.6346,368.1036 M,0,29602,29690,315.6346,368.1036,295.9802,371.6341 M,0,29690,29777,295.9802,371.6341,276.0067,371.4755 M,0,29777,29864,276.0067,371.4755,256.3161,368.0784 M,0,29864,29951,256.3161,368.0784,257.6251,348.4171 M,0,29951,30038,257.6251,348.4171,262.9926,329.1876 M,0,30038,30126,262.9926,329.1876,272.3117,311.536 M,0,30126,30213,272.3117,311.536,285.1202,296.2194 M,0,30213,30300,285.1202,296.2194,300.5244,283.4998 M,0,30300,30387,300.5244,283.4998,317.6498,273.1971 M,0,30387,30474,317.6498,273.1971,303.0348,275.679 M,0,30474,30562,303.0348,275.679,283.2468,278.55 M,0,30562,30649,283.2468,278.55,263.2971,279.896 M,0,30649,30736,263.2971,279.896,243.3034,279.6851 M,0,30736,30823,243.3034,279.6851,223.3861,277.9225 M,0,30823,30911,223.3861,277.9225,203.6605,274.6495
Sprite,Foreground,Centre,"sb\hl.png",112,256 C,0,31260,,227,23,115 F,2,31260,32133,1,0 S,2,31260,32133,0.8,0.16
Sprite,Foreground,Centre,"sb\hl.png",176,185 C,0,31609,,221,221,0 M,0,31609,31696,176,185,195.7312,188.0756 F,2,31609,34575,1,0 S,2,31609,34575,0.8,0.16 M,0,31696,31783,195.7312,188.0756,215.6259,186.6725 M,0,31783,31870,215.6259,186.6725,234.322,179.7817 M,0,31870,31957,234.322,179.7817,250.2905,167.8411 M,0,31957,32045,250.2905,167.8411,263.0217,152.4614 M,0,32045,32132,263.0217,152.4614,273.5003,138.4806 M,0,32132,32219,273.5003,138.4806,288.7233,151.4269 M,0,32219,32306,288.7233,151.4269,305.7497,161.8747 M,0,32306,32393,305.7497,161.8747,324.3654,169.1036 M,0,32393,32481,324.3654,169.1036,344.0199,172.6341 M,0,32481,32568,344.0199,172.6341,363.9933,172.4755 M,0,32568,32655,363.9933,172.4755,383.6839,169.0784 M,0,32655,32742,383.6839,169.0784,382.3749,149.4171 M,0,32742,32829,382.3749,149.4171,377.0074,130.1876 M,0,32829,32917,377.0074,130.1876,367.6883,112.536 M,0,32917,33004,367.6883,112.536,354.8798,97.21936 M,0,33004,33091,354.8798,97.21936,339.4757,84.4998 M,0,33091,33178,339.4757,84.4998,322.3503,74.19715 M,0,33178,33265,322.3503,74.19715,336.9651,76.67902 M,0,33265,33353,336.9651,76.67902,356.7532,79.54999 M,0,33353,33440,356.7532,79.54999,376.7028,80.89598 M,0,33440,33527,376.7028,80.89598,396.6966,80.6851 M,0,33527,33614,396.6966,80.6851,416.6138,78.92252 M,0,33614,33702,416.6138,78.92252,436.3394,75.64953
Sprite,Foreground,Centre,"sb\hl.png",531,63 C,0,34051,,221,221,0 F,2,34051,34924,1,0 S,2,34051,34924,0.8,0.16
Sprite,Foreground,Centre,"sb\hl.png",546,157 C,0,34400,,0,176,0 M,0,34400,34487,546,157,548.0757,176.892 F,2,34400,35970,1,0 S,2,34400,35970,0.8,0.16 M,0,34487,34574,548.0757,176.892,550.1514,196.784 M,0,34574,34661,550.1514,196.784,552.2271,216.676 M,0,34661,34748,552.2271,216.676,554.3027,236.568 M,0,34748,34836,554.3027,236.568,556.3784,256.46 M,0,34836,34923,556.3784,256.46,553.8672,270.5625 M,0,34923,35010,553.8672,270.5625,534.9773,263.9921 M,0,35010,35097,534.9773,263.9921,516.0874,257.4217
Sprite,Foreground,Centre,"sb\hl.png",341,304 C,0,35795,,0,176,0 M,0,35795,35882,341,304,338.9243,284.108 F,2,35795,37365,1,0 S,2,35795,37365,0.8,0.16 M,0,35882,35969,338.9243,284.108,336.8486,264.216 M,0,35969,36056,336.8486,264.216,334.7729,244.324 M,0,36056,36143,334.7729,244.324,332.6973,224.432 M,0,36143,36231,332.6973,224.432,330.6216,204.54 M,0,36231,36318,330.6216,204.54,332.9336,190.9164 M,0,36318,36405,332.9336,190.9164,350.9134,199.6758 M,0,36405,36492,350.9134,199.6758,368,208
Sprite,Foreground,Centre,"sb\hl.png",256,256 C,0,81842,,174,79,160 M,0,81842,81929,256,256,275.5148,260.1816 F,2,81842,84808,1,0 S,2,81842,84808,0.8,0.16 M,0,81929,82016,275.5148,260.1816,295.4818,260.058 M,0,82016,82103,295.4818,260.058,315.2305,256.9474 M,0,82103,82190,315.2305,256.9474,334.8784,253.2173 M,0,82190,82278,334.8784,253.2173,354.774,251.3836 M,0,82278,82365,354.774,251.3836,374.6288,253.417 M,0,82365,82452,374.6288,253.417,379.6485,265.3063 M,0,82452,82539,379.6485,265.3063,372.8119,284.0872 M,0,82539,82626,372.8119,284.0872,368.7549,303.6487 M,0,82626,82714,368.7549,303.6487,368.3016,323.6103 M,0,82714,82801,368.3016,323.6103,372.0656,343.2112 M,0,82801,82888,372.0656,343.2112,380.0143,361.5222 M,0,82888,82975,380.0143,361.5222,396.3925,368 M,0,82975,83062,396.3925,368,416.3925,368 M,0,83062,83150,416.3925,368,436.3925,368 M,0,83150,83237,436.3925,368,456.3925,368 M,0,83237,83324,456.3925,368,476.3925,368 M,0,83324,83411,476.3925,368,496.1749,367.6486 M,0,83411,83498,496.1749,367.6486,503.6937,349.1374 M,0,83498,83586,503.6937,349.1374,507.9957,329.6336 M,0,83586,83673,507.9957,329.6336,508.5519,309.6729 M,0,83673,83760,508.5519,309.6729,505.2853,289.971 M,0,83760,83847,505.2853,289.971,498.619,271.1383 M,0,83847,83935,498.619,271.1383,489.232,253.4952
Sprite,Foreground,Centre,"sb\hl.png",432,176 C,0,84284,,174,79,160 F,2,84284,85157,1,0 S,2,84284,85157,0.8,0.16
Sprite,Foreground,Centre,"sb\hl.png",338,172 C,0,84632,,227,23,115 M,0,84632,84719,338,172,318.4852,167.8184 F,2,84632,87598,1,0 S,2,84632,87598,0.8,0.16 M,0,84719,84806,318.4852,167.8184,298.5182,167.942 M,0,84806,84893,298.5182,167.942,278.7695,171.0526 M,0,84893,84980,278.7695,171.0526,259.1216,174.7827 M,0,84980,85068,259.1216,174.7827,239.226,176.6164 M,0,85068,85155,239.226,176.6164,219.3712,174.583 M,0,85155,85242,219.3712,174.583,214.3515,162.6936 M,0,85242,85329,214.3515,162.6936,221.1881,143.9127 M,0,85329,85416,221.1881,143.9127,225.2451,124.3512 M,0,85416,85504,225.2451,124.3512,225.6984,104.3896 M,0,85504,85591,225.6984,104.3896,221.9344,84.78876 M,0,85591,85678,221.9344,84.78876,213.9857,66.47773 M,0,85678,85765,213.9857,66.47773,197.6074,60 M,0,85765,85852,197.6074,60,177.6074,60 M,0,85852,85940,177.6074,60,157.6074,60 M,0,85940,86027,157.6074,60,137.6074,60 M,0,86027,86114,137.6074,60,117.6074,60 M,0,86114,86201,117.6074,60,97.82507,60.35144 M,0,86201,86288,97.82507,60.35144,90.30631,78.86267 M,0,86288,86376,90.30631,78.86267,86.00432,98.36639 M,0,86376,86463,86.00432,98.36639,85.44814,118.3271 M,0,86463,86550,85.44814,118.3271,88.71477,138.029 M,0,86550,86637,88.71477,138.029,95.38099,156.8618 M,0,86637,86725,95.38099,156.8618,104.7681,174.5049
Sprite,Foreground,Centre,"sb\hl.png",128,264 C,0,87074,,227,23,115 F,2,87074,87947,1,0 S,2,87074,87947,0.8,0.16
Sprite,Foreground,Centre,"SB\r.png",97,301 C,0,109749,,174,79,160 F,0,109749,110445,1,0 S,0,109749,110445,0.3,1.2
Sprite,Foreground,Centre,"SB\r.png",256,256 C,0,81842,,174,79,160 F,0,81842,82538,1,0 S,0,81842,82538,0.3,1.2
Sprite,Foreground,Centre,"SB\r.png",432,176 C,0,84284,,174,79,160 F,0,84284,84980,1,0 S,0,84284,84980,0.3,1.2
Sprite,Foreground,Centre,"SB\r.png",338,172 C,0,84632,,227,23,115 F,0,84632,85328,1,0 S,0,84632,85328,0.3,1.2
Sprite,Foreground,Centre,"SB\r.png",128,264 C,0,87074,,227,23,115 F,0,87074,87770,1,0 S,0,87074,87770,0.3,1.2
Sprite,Foreground,Centre,"SB\r.png",464,384 C,0,28818,,227,23,115 F,0,28818,29514,1,0 S,0,28818,29514,0.3,1.2
Sprite,Foreground,Centre,"SB\r.png",112,256 C,0,31260,,227,23,115 F,0,31260,31956,1,0 S,0,31260,31956,0.3,1.2
Sprite,Foreground,Centre,"SB\r.png",176,185 C,0,31609,,221,221,0 F,0,31609,32305,1,0 S,0,31609,32305,0.3,1.2
Sprite,Foreground,Centre,"SB\r.png",531,63 C,0,34051,,221,221,0 F,0,34051,34747,1,0 S,0,34051,34747,0.3,1.2
Sprite,Foreground,Centre,"SB\r.png",546,157 C,0,34400,,0,176,0 F,0,34400,35096,1,0 S,0,34400,35096,0.3,1.2
Sprite,Foreground,Centre,"SB\r.png",341,304 C,0,35795,,0,176,0 F,0,35795,36491,1,0 S,0,35795,36491,0.3,1.2
//Storyboard Sound Samples

[TimingPoints]
912,697.674418604651,4,2,1,50,1,0
6493,-100,4,2,1,75,0,0
15388,-100,4,2,1,75,0,0
17656,-100,4,2,1,75,0,0
28818,-100,4,2,1,50,0,0
37191,-100,4,2,2,100,0,1
59516,-100,4,2,1,75,0,0
61609,-100,4,2,1,90,0,0
61784,-100,4,2,1,90,0,0
62132,-100,4,2,1,90,0,0
62307,-100,4,2,1,75,0,0
64400,-100,4,2,1,75,0,0
65098,-100,4,2,1,75,0,0
81842,-100,4,2,1,50,0,0
86725,-100,4,2,1,65,0,0
86900,-100,4,2,1,75,0,0
87074,-100,4,2,1,85,0,0
87249,-100,4,2,1,95,0,0
87423,-100,4,2,2,100,0,1
109749,-100,4,3,1,90,0,0
113935,722.89156626506,4,2,1,90,1,0
114296,845.070422535211,4,2,1,90,1,0
114632,-100,4,2,1,50,0,0
114718,1224.48979591837,4,2,1,90,1,0
115330,697.674418604651,4,2,1,50,1,0
120563,-100,4,2,1,75,0,0
125795,-100,4,2,2,85,0,0
125970,-100,4,2,1,85,0,0
126493,-100,4,2,1,75,0,0
135563,-100,4,2,2,75,0,0
135737,-100,4,2,1,75,0,0
140446,-100,4,2,2,100,0,1
159981,-100,4,2,1,90,0,0
162771,-100,4,2,2,100,0,1
185097,-100,4,3,1,90,0,0

[Colours]
Combo1 : 221,221,0
Combo2 : 227,23,115
Combo3 : 174,79,160
Combo4 : 53,154,255
Combo5 : 0,176,0

[HitObjects]
176,16,911,5,0,0:0:0:0:
96,192,1609,2,0,B|160:160|176:224|256:192,1,160,2|0,0:0|0:0,0:0:0:0:
432,160,3005,2,0,P|480:160|512:176,2,80,2|0|0,0:0|0:0|0:0,0:0:0:0:
240,192,4400,6,0,P|224:128|272:48,1,160,2|0,0:0|0:0,0:0:0:0:
320,240,5795,2,0,P|292:274|256:288,1,80,2|0,0:0|0:0,0:0:0:0:
240,192,6493,5,12,0:0:0:0:
240,192,7191,2,0,B|98:151|123:261|0:208|0:208|60:172,1,320,10|10,0:0|0:0,0:0:0:0:
208,96,9284,5,0,0:0:0:0:
208,96,9981,2,0,B|256:80|320:96|352:144|352:144|368:80|368:80|400:128|464:112,1,320,10|10,0:0|0:0,0:0:0:0:
448,208,11725,1,8,0:0:0:0:
448,304,12074,6,0,P|368:320|288:304,1,160,4|10,0:0|0:0,0:0:0:0:
288,112,13470,2,0,P|368:96|448:112,1,160,0|10,0:0|0:0,0:0:0:0:
448,304,14865,5,0,0:0:0:0:
448,304,15563,2,0,B|372:332|372:332|291:298,1,160,10|0,0:0|0:0,0:0:0:0:
126,218,16958,1,10,0:0:0:0:
112,32,17656,5,0,0:0:0:0:
283,107,18353,2,0,B|416:160|384:48|518:84|518:84|491:155,1,320,10|10,0:0|0:0,0:0:0:0:
426,326,20446,5,0,0:0:0:0:
426,326,21144,2,0,B|359:328|320:281|320:281|321:352|321:352|275:307|193:323,1,320,10|10,0:0|0:0,0:0:0:0:
112,336,22888,1,8,0:0:0:0:
29,286,23237,6,0,P|13:206|29:126,1,160,4|10,0:0|0:0,0:0:0:0:
208,64,24632,2,0,P|224:144|208:224,1,160,0|10,0:0|0:0,0:0:0:0:
368,112,26028,5,0,0:0:0:0:
368,112,26725,2,0,P|448:112|496:176,1,160,10|0,0:0|0:0,0:0:0:0:
400,336,28121,1,10,0:0:0:0:
400,336,28818,6,0,B|336:352|304:288|304:288|256:336|192:320|192:320|192:256|256:224|256:224|192:240|128:224,1,480,2|2,0:0|0:0,0:0:0:0:
48,208,31260,1,0,0:0:0:0:
112,137,31609,54,0,B|176:153|208:89|208:89|256:137|320:121|320:121|320:57|256:25|256:25|320:41|384:25,1,480,2|2,0:0|0:0,0:0:0:0:
467,15,34051,1,0,0:0:0:0:
482,109,34400,54,0,B|494:224|494:224|448:208,1,160,2|0,0:0|0:0,0:0:0:0:
277,256,35795,2,0,B|265:141|265:141|304:160,1,160
331,358,37191,6,2,B|212:398|212:300|92:358,1,240,12|10,0:0|0:0,0:0:0:0:
65,260,38586,2,0,L|40:177,2,80,10|2|10,0:0|0:0|3:2,0:0:0:0:
65,260,39981,6,0,P|99:240|94:121,1,160,2|10,0:0|3:2,0:0:0:0:
248,258,41377,2,0,P|323:273|377:219,1,160,2|10,0:0|3:2,0:0:0:0:
375,27,42772,6,0,B|256:86|256:-3|130:42,1,240,6|10,0:0|0:0,0:0:0:0:
71,108,44167,2,0,P|49:75|45:36,2,80,10|2|10,0:0|0:0|3:2,0:0:0:0:
235,208,45563,6,0,B|360:207|360:207|336:176,1,160,2|10,0:0|3:2,0:0:0:0:
138,207,46958,2,0,B|13:208|13:208|32:240,1,160,2|10,0:0|3:2,0:0:0:0:
210,320,48353,6,0,B|281:335|339:242|339:242|393:274|412:347|412:347|426:294|384:205|443:153,1,480,10|10,0:0|3:2,0:0:0:0:
264,70,51144,6,0,B|193:55|135:148|135:148|81:116|62:43|62:43|48:96|90:185|31:237,1,480,10|10,0:0|3:2,0:0:0:0:
225,282,53935,6,0,P|300:303|384:276,1,160,2|10,0:0|3:2,0:0:0:0:
379,88,55330,2,0,P|304:67|220:94,1,160,2|10,0:0|3:2,0:0:0:0:
63,190,56725,5,2,0:0:0:0:
226,290,57423,1,10,3:2:0:0:
226,97,58121,1,2,0:0:0:0:
63,190,58818,1,10,3:2:0:0:
224,288,59516,6,0,B|304:304|368:256|368:256|400:288|448:288,1,240,8|0,0:0|0:0,0:0:0:0:
432,192,60912,2,0,B|400:128|464:112|416:32,1,160,0|8,0:0|0:0,0:0:0:0:
419,37,62307,6,0,L|258:37,1,160,4|10,0:0|0:0,0:0:0:0:
96,144,63702,2,0,L|257:144,1,160,0|10,0:0|0:0,0:0:0:0:
448,144,65098,6,0,L|448:224,1,80
352,256,65795,2,0,L|352:176,1,80,10|0,0:0|0:0,0:0:0:0:
256,144,66493,2,0,L|256:304,1,160,0|10,0:0|0:0,0:0:0:0:
256,304,67888,6,0,P|216:313|174:303,1,80
178,208,68586,2,0,P|218:198|255:206,1,80,10|0,0:0|0:0,0:0:0:0:
336,240,69284,2,0,P|382:247|386:102,1,240,0|8,0:0|0:0,0:0:0:0:
304,80,70679,5,4,0:0:0:0:
304,80,71377,2,0,B|194:15|194:152|69:57|69:57|96:128,1,320,10|10,0:0|0:0,0:0:0:0:
160,304,73470,5,0,0:0:0:0:
160,304,74167,2,0,B|227:302|266:349|266:349|265:278|265:278|311:323|393:307,1,320,10|10,0:0|0:0,0:0:0:0:
480,288,75912,1,8,0:0:0:0:
512,192,76260,6,0,P|528:112|512:32,1,160,4|10,0:0|0:0,0:0:0:0:
320,32,77656,2,0,P|305:110|321:188,1,160,0|10,0:0|0:0,0:0:0:0:
144,112,79051,5,0,0:0:0:0:
144,112,79749,2,0,P|80:96|0:160,1,160,10|0,0:0|0:0,0:0:0:0:
192,208,81144,1,10,0:0:0:0:
192,208,81842,22,0,B|240:224|272:192|320:208|320:208|288:272|320:320|320:320|432:320|432:320|464:256|416:192,1,480,2|2,0:0|0:0,0:0:0:0:
368,128,84284,1,0,0:0:0:0:
274,124,84632,54,0,B|226:108|194:140|146:124|146:124|178:60|146:12|146:12|34:12|34:12|2:76|50:140,1,480,2|2,0:0|0:0,0:0:0:0:
64,216,87074,1,0,0:0:0:0:
0,288,87423,54,0,B|96:352|128:240|240:304,1,240,14|10,0:0|0:0,0:0:0:0:
320,336,88818,2,0,P|368:336|400:320,2,80,10|2|10,0:0|0:0|3:2,0:0:0:0:
320,144,90214,6,0,B|384:96|384:96|448:144,1,160,2|10,0:0|3:2,0:0:0:0:
288,240,91609,2,0,B|224:288|224:288|160:240,1,160,2|10,0:0|3:2,0:0:0:0:
64,80,93005,6,0,B|192:16|176:128|304:64,1,240,14|10,0:0|0:0,0:0:0:0:
384,32,94400,2,0,P|432:32|464:48,2,80,10|2|10,0:0|0:0|3:2,0:0:0:0:
384,32,95795,6,0,L|384:192,1,160,2|10,0:0|3:2,0:0:0:0:
192,192,97191,2,0,L|192:32,1,160,2|10,0:0|3:2,0:0:0:0:
272,208,98586,6,0,B|253:290|170:294|134:257|134:257|130:330|50:358|50:358|-16:287|44:208,1,480,2|10,0:0|3:2,0:0:0:0:
217,139,101377,6,0,B|160:65|226:-5|226:-5|306:22|310:95|310:95|346:58|429:62|448:144,1,480,10|10,0:0|3:2,0:0:0:0:
268,209,104167,6,0,P|208:227|129:159,1,160,2|10,3:2|3:2,3:2:0:0:
315,111,105563,2,0,P|372:162|373:247,1,160,2|10,0:0|3:2,0:0:0:0:
208,335,106958,37,2,0:0:0:0:
34,253,107656,1,10,3:2:0:0:
190,142,108353,1,2,0:0:0:0:
208,333,109051,1,10,3:2:0:0:
33,253,109749,37,8,0:0:0:0:
32,256,120911,5,0,0:0:0:0:
32,256,121609,2,0,B|128:256|128:256|144:320|144:320|192:240|272:240,1,320,10|10,0:0|0:0,0:0:0:0:
367,239,123353,1,0,0:0:0:0:
438,175,123702,6,0,P|448:136|439:95,1,80
350,68,124400,2,0,P|340:107|349:148,1,80,10|0,0:0|0:0,0:0:0:0:
367,239,125098,2,0,P|357:294|215:267,1,240,0|8,0:0|0:0,0:0:0:0:
201,177,126493,6,0,B|125:155|125:202|36:175,1,160,4|10,0:0|0:0,0:0:0:0:
212,268,127888,2,0,P|275:238|284:141,1,160,0|10,0:0|0:0,0:0:0:0:
242,71,128935,1,0,0:0:0:0:
338,69,129284,6,0,B|416:48|416:96|501:69,1,160,0|10,0:0|0:0,0:0:0:0:
496,256,130679,2,0,P|480:320|384:336,1,160,0|10,0:0|0:0,0:0:0:0:
308,303,131725,1,8,0:0:0:0:
304,208,132074,6,0,B|304:80|304:80|320:112,1,160,0|10,0:0|0:0,0:0:0:0:
304,304,133470,2,0,P|236:277|214:187,1,160,0|10,0:0|0:0,0:0:0:0:
211,199,134865,6,0,B|122:205|105:300|105:300|87:206|0:198,1,320
105,37,136958,1,8,0:0:0:0:
256,192,137656,12,0,139051,0:0:0:0:
256,192,140446,6,0,B|384:144|384:240|496:192,1,240,14|10,0:0|0:0,0:0:0:0:
464,96,141841,2,0,L|448:16,2,80,10|2|10,0:0|0:0|3:2,0:0:0:0:
464,96,143237,6,0,P|416:96|368:0,1,160,2|10,0:0|3:2,0:0:0:0:
256,160,144632,2,0,P|208:176|128:96,1,160,2|10,0:0|3:2,0:0:0:0:
128,304,146028,6,0,B|240:352|256:256|368:320,1,240,6|10,0:0|0:0,0:0:0:0:
452,341,147423,2,0,P|454:304|438:262,2,80,10|2|10,0:0|0:0|3:2,0:0:0:0:
336,176,148818,6,0,B|304:112|320:48|320:48|352:80,1,160,2|10,0:0|3:2,0:0:0:0:
144,128,150214,2,0,B|80:160|16:144|16:144|48:112,1,160,2|10,0:0|3:2,0:0:0:0:
228,89,151609,6,0,B|256:152|208:201|208:201|265:203|296:269|296:269|305:196|360:178|360:178|302:146|313:73,1,480,2|10,0:0|3:2,0:0:0:0:
125,116,154400,6,0,B|1:141|1:141|-14:260|-14:260|93:234|93:234|106:300|181:319,1,480,10|10,0:0|3:2,0:0:0:0:
365,294,157191,6,0,P|380:216|366:137,1,160,2|10,0:0|3:2,0:0:0:0:
176,161,158586,2,0,P|160:241|176:321,1,160,2|10,0:0|3:2,0:0:0:0:
256,192,159981,12,0,161377,0:0:0:0:
256,192,162772,6,0,B|128:144|128:240|16:192,1,240,14|10,0:0|0:0,0:0:0:0:
48,96,164168,2,0,L|64:16,2,80,10|2|10,0:0|0:0|3:2,0:0:0:0:
48,96,165563,6,0,P|96:96|144:0,1,160,2|10,0:0|3:2,0:0:0:0:
256,160,166958,2,0,P|304:176|384:96,1,160,2|10,0:0|3:2,0:0:0:0:
384,304,168354,6,0,B|272:352|256:256|144:320,1,240,6|10,0:0|0:0,0:0:0:0:
60,341,169749,2,0,P|58:304|74:262,2,80,10|2|10,0:0|0:0|3:2,0:0:0:0:
176,176,171144,6,0,B|208:112|192:48|192:48|160:80,1,160,2|10,0:0|3:2,0:0:0:0:
368,128,172539,2,0,B|432:160|496:144|496:144|464:112,1,160,2|10,0:0|3:2,0:0:0:0:
284,85,173935,6,0,B|257:157|304:197|304:197|247:199|216:265|216:265|207:192|152:172|152:172|205:148|199:69,1,480,2|10,0:0|3:2,0:0:0:0:
387,116,176725,6,0,B|511:141|511:141|526:260|526:260|419:234|419:234|406:300|331:319,1,480,10|10,0:0|3:2,0:0:0:0:
147,294,179516,6,0,P|131:216|145:137,1,160,2|10,0:0|3:2,0:0:0:0:
336,161,180911,2,0,P|352:241|336:321,1,160,2|10,0:0|3:2,0:0:0:0:
256,192,182307,12,8,185098,0:0:0:0:
