osu file format v14

[General]
AudioFilename: audio.mp3
AudioLeadIn: 0
PreviewTime: 139749
Countdown: 1
SampleSet: None
StackLeniency: 0.7
Mode: 0
LetterboxInBreaks: 1
EpilepsyWarning: 1
WidescreenStoryboard: 1

[Editor]
DistanceSpacing: 1
BeatDivisor: 8
GridSize: 16
TimelineZoom: 1

[Metadata]
Title:Ice Cream Cake
TitleUnicode:Ice Cream Cake
Artist:Red Velvet
ArtistUnicode:레드벨벳
Creator:Nuolong
Version:Cherry on Top
Source:
Tags:kpop k-pop electropop icc sm sment irene seulgi joy wendy yeri 아이린 배주현 강슬기 웬디 손승완 조이 박수영 예리 김예림 firetruck natsu Jakomo73
BeatmapID:1052460
BeatmapSetID:494284

[Difficulty]
HPDrainRate:7
CircleSize:4
OverallDifficulty:8
ApproachRate:9
SliderMultiplier:2
SliderTickRate:1

[Events]
//Background and Video events
0,0,"Background.jpg",0,0
//Break Periods
2,115530,119963
//Storyboard Layer 0 (Background)
//Storyboard Layer 1 (Fail)
//Storyboard Layer 2 (Pass)
//Storyboard Layer 3 (Foreground)
Sprite,Foreground,Centre,"sb\hl.png",278,282 C,0,45563,,0,176,0 F,2,45563,46436,1,0 S,2,45563,46436,0.6,0.12
Sprite,Foreground,Centre,"sb\hl.png",305,267 C,0,45650,,0,176,0 F,2,45650,46523,1,0 S,2,45650,46523,0.6,0.12
Sprite,Foreground,Centre,"sb\hl.png",334,260 C,0,45737,,0,176,0 F,2,45737,46610,1,0 S,2,45737,46610,0.6,0.12
Sprite,Foreground,Centre,"sb\hl.png",365,261 C,0,45824,,0,176,0 F,2,45824,46697,1,0 S,2,45824,46697,0.6,0.12
Sprite,Foreground,Centre,"sb\hl.png",394,270 C,0,45911,,0,176,0 F,2,45911,46784,1,0 S,2,45911,46784,0.6,0.12
Sprite,Foreground,Centre,"sb\hl.png",423,279 C,0,45999,,0,176,0 F,2,45999,46872,1,0 S,2,45999,46872,0.6,0.12
Sprite,Foreground,Centre,"sb\hl.png",454,280 C,0,46086,,0,176,0 F,2,46086,46959,1,0 S,2,46086,46959,0.6,0.12
Sprite,Foreground,Centre,"sb\hl.png",482,268 C,0,46173,,0,176,0 F,2,46173,47046,1,0 S,2,46173,47046,0.6,0.12
Sprite,Foreground,Centre,"sb\hl.png",506,250 C,0,46260,,0,176,0 M,0,46260,46347,506,250,503.9101,206.6871 F,2,46260,47307,1,0 S,2,46260,47307,0.6,0.12 M,0,46347,46434,503.9101,206.6871,483.6903,168.3828
Sprite,Foreground,Centre,"sb\hl.png",394,270 C,0,46609,,0,176,0 M,0,46609,46696,394,270,393.3665,313.3849 F,2,46609,47656,1,0 S,2,46609,47656,0.6,0.12 M,0,46696,46783,393.3665,313.3849,410.4916,353.1992
Sprite,Foreground,Centre,"sb\hl.png",483,252 C,0,61609,,174,79,160 M,0,61609,61696,483,252,491.9045,288.4275 F,2,61609,62569,1,0 S,2,61609,62569,0.8,0.16
Sprite,Foreground,Centre,"sb\hl.png",411,310 C,0,61784,,174,79,160 M,0,61784,61871,411,310,409.3343,359.9722 F,2,61784,62744,1,0 S,2,61784,62744,0.8,0.16
Sprite,Foreground,Centre,"sb\hl.png",323,329 C,0,61958,,174,79,160 M,0,61958,62045,323,329,307.7612,281.3788 F,2,61958,62918,1,0 S,2,61958,62918,0.8,0.16
Sprite,Foreground,Centre,"sb\hl.png",231,313 C,0,62132,,174,79,160 M,0,62132,62219,231,313,204.0787,286.8945 F,2,62132,63092,1,0 S,2,62132,63092,0.8,0.16
Sprite,Foreground,Centre,"sb\hl.png",361,214 C,0,183702,,0,176,0 F,2,183702,184575,1,0 S,2,183702,184575,0.8,0.16
Sprite,Foreground,Centre,"sb\hl.png",380,199 C,0,183789,,0,176,0 F,2,183789,184662,1,0 S,2,183789,184662,0.8,0.16
Sprite,Foreground,Centre,"sb\hl.png",403,189 C,0,183876,,0,176,0 F,2,183876,184749,1,0 S,2,183876,184749,0.8,0.16
Sprite,Foreground,Centre,"sb\hl.png",427,185 C,0,183963,,0,176,0 F,2,183963,184836,1,0 S,2,183963,184836,0.8,0.16
Sprite,Foreground,Centre,"sb\hl.png",451,186 C,0,184050,,221,221,0 F,2,184050,184923,1,0 S,2,184050,184923,0.8,0.16
Sprite,Foreground,Centre,"sb\hl.png",475,193 C,0,184138,,221,221,0 F,2,184138,185011,1,0 S,2,184138,185011,0.8,0.16
Sprite,Foreground,Centre,"sb\hl.png",496,206 C,0,184225,,221,221,0 F,2,184225,185098,1,0 S,2,184225,185098,0.8,0.16
Sprite,Foreground,Centre,"sb\hl.png",514,222 C,0,184312,,221,221,0 F,2,184312,185185,1,0 S,2,184312,185185,0.8,0.16
Sprite,Foreground,Centre,"sb\hl.png",527,243 C,0,184399,,227,23,115 F,2,184399,185272,1,0 S,2,184399,185272,0.8,0.16
Sprite,Foreground,Centre,"sb\hl.png",536,265 C,0,184486,,227,23,115 F,2,184486,185359,1,0 S,2,184486,185359,0.8,0.16
Sprite,Foreground,Centre,"sb\hl.png",539,290 C,0,184574,,227,23,115 F,2,184574,185447,1,0 S,2,184574,185447,0.8,0.16
Sprite,Foreground,Centre,"sb\hl.png",536,314 C,0,184661,,227,23,115 F,2,184661,185534,1,0 S,2,184661,185534,0.8,0.16
Sprite,Foreground,Centre,"sb\hl.png",528,337 C,0,184748,,174,79,160 F,2,184748,185621,1,0 S,2,184748,185621,0.8,0.16
Sprite,Foreground,Centre,"sb\hl.png",515,358 C,0,184835,,174,79,160 F,2,184835,185708,1,0 S,2,184835,185708,0.8,0.16
Sprite,Foreground,Centre,"sb\hl.png",498,375 C,0,184922,,174,79,160 F,2,184922,185795,1,0 S,2,184922,185795,0.8,0.16
Sprite,Foreground,Centre,"sb\hl.png",477,387 C,0,185010,,174,79,160 F,2,185010,185883,1,0 S,2,185010,185883,0.8,0.16
Sprite,Foreground,Centre,"sb\hl.png",453,395 C,0,185097,,53,154,255 F,2,185097,185970,1,0 S,2,185097,185970,0.8,0.16
Sprite,Foreground,Centre,"sb\hl.png",151,239 C,0,185795,,53,154,255 F,2,185795,186668,1,0 S,2,185795,186668,0.8,0.16
Sprite,Foreground,Centre,"sb\hl.png",138,239 C,0,186667,,0,176,0 F,2,186667,187540,1,0 S,2,186667,187540,0.8,0.16
Sprite,Foreground,Centre,"sb\hl.png",260,104 C,0,186842,,0,176,0 F,2,186842,187715,1,0 S,2,186842,187715,0.8,0.16
Sprite,Foreground,Centre,"sb\hl.png",259,79 C,0,187191,,221,221,0 F,2,187191,188064,1,0 S,2,187191,188064,0.8,0.16
Sprite,Foreground,Centre,"sb\hl.png",195,335 C,0,187365,,221,221,0 F,2,187365,188238,1,0 S,2,187365,188238,0.8,0.16
Sprite,Foreground,Centre,"sb\hl.png",194,355 C,0,187888,,227,23,115 F,2,187888,188761,1,0 S,2,187888,188761,0.8,0.16
Sprite,Foreground,Centre,"sb\hl.png",259,79 C,0,188586,,227,23,115 F,2,188586,189459,1,0 S,2,188586,189459,0.8,0.16
Sprite,Foreground,Centre,"sb\hl.png",274,81 C,0,189458,,174,79,160 F,2,189458,190331,1,0 S,2,189458,190331,0.8,0.16
Sprite,Foreground,Centre,"sb\hl.png",490,138 C,0,189632,,174,79,160 F,2,189632,190505,1,0 S,2,189632,190505,0.8,0.16
Sprite,Foreground,Centre,"sb\hl.png",491,121 C,0,189981,,53,154,255 F,2,189981,190854,1,0 S,2,189981,190854,0.8,0.16
Sprite,Foreground,Centre,"sb\hl.png",266,106 C,0,190155,,53,154,255 F,2,190155,191028,1,0 S,2,190155,191028,0.8,0.16
Sprite,Foreground,Centre,"sb\hl.png",295,248 C,0,171144,,0,176,0 F,2,171144,172017,1,0 S,2,171144,172017,0.6,0.12
Sprite,Foreground,Centre,"sb\hl.png",328,232 C,0,171231,,0,176,0 F,2,171231,172104,1,0 S,2,171231,172104,0.6,0.12
Sprite,Foreground,Centre,"sb\hl.png",363,224 C,0,171318,,0,176,0 F,2,171318,172191,1,0 S,2,171318,172191,0.6,0.12
Sprite,Foreground,Centre,"sb\hl.png",399,227 C,0,171405,,0,176,0 F,2,171405,172278,1,0 S,2,171405,172278,0.6,0.12
Sprite,Foreground,Centre,"sb\hl.png",433,240 C,0,171493,,0,176,0 F,2,171493,172366,1,0 S,2,171493,172366,0.6,0.12
Sprite,Foreground,Centre,"sb\hl.png",466,255 C,0,171580,,0,176,0 F,2,171580,172453,1,0 S,2,171580,172453,0.6,0.12
Sprite,Foreground,Centre,"sb\hl.png",502,263 C,0,171667,,0,176,0 F,2,171667,172540,1,0 S,2,171667,172540,0.6,0.12
Sprite,Foreground,Centre,"sb\hl.png",538,258 C,0,171754,,0,176,0 F,2,171754,172627,1,0 S,2,171754,172627,0.6,0.12
Sprite,Foreground,Centre,"sb\hl.png",571,240 C,0,171842,,0,176,0 M,0,171842,171929,571,240,563.8861,190.8014 F,2,171842,172889,1,0 S,2,171842,172889,0.6,0.12 M,0,171929,172016,563.8861,190.8014,540.7885,146.8301
Sprite,Foreground,Centre,"sb\hl.png",433,240 C,0,172191,,0,176,0 F,2,172191,173064,1,0 S,2,172191,173064,0.6,0.12
Sprite,Foreground,Centre,"sb\hl.png",375,343 C,0,109749,,174,79,160 M,0,109749,109836,375,343,399.181,336.89 F,2,109749,110970,1,0 S,2,109749,110970,0.8,0.16 M,0,109836,109923,399.181,336.89,424.1091,336.3655 M,0,109923,110010,424.1091,336.3655,448.5117,341.4503 M,0,110010,110097,448.5117,341.4503,471.1435,351.8819
Sprite,Foreground,Centre,"sb\hl.png",273,360 C,0,110446,,174,79,160 M,0,110446,110533,273,360,249.2199,367.5923 F,2,110446,112016,1,0 S,2,110446,112016,0.8,0.16 M,0,110533,110620,249.2199,367.5923,224.4852,370.9088 M,0,110620,110707,224.4852,370.9088,199.5575,369.8498 M,0,110707,110794,199.5575,369.8498,175.2041,364.4495 M,0,110794,110882,175.2041,364.4495,152.1743,354.8759 M,0,110882,110969,152.1743,354.8759,131.1764,341.425 M,0,110969,111056,131.1764,341.425,112.8562,324.5117 M,0,111056,111143,112.8562,324.5117,97.7771,304.6575
Sprite,Foreground,Centre,"sb\hl.png",91,186 C,0,111318,,53,154,255 F,2,111318,112191,1,0 S,2,111318,112191,0.8,0.16
Sprite,Foreground,Centre,"sb\hl.png",207,273 C,0,111493,,53,154,255 F,2,111493,112366,1,0 S,2,111493,112366,0.8,0.16
Sprite,Foreground,Centre,"sb\hl.png",215,286 C,0,111842,,0,176,0 F,2,111842,112715,1,0 S,2,111842,112715,0.8,0.16
Sprite,Foreground,Centre,"sb\hl.png",171,66 C,0,112016,,0,176,0 F,2,112016,112889,1,0 S,2,112016,112889,0.8,0.16
Sprite,Foreground,Centre,"sb\hl.png",182,65 C,0,112539,,221,221,0 M,0,112539,112626,182,65,205.9191,57.94116 F,2,112539,113760,1,0 S,2,112539,113760,0.8,0.16 M,0,112626,112713,205.9191,57.94116,230.6819,55.21476 M,0,112713,112800,230.6819,55.21476,255.5182,57.16542 M,0,112800,112887,255.5182,57.16542,279.6335,63.51707
Sprite,Foreground,Centre,"sb\hl.png",462,174 C,0,113237,,221,221,0 M,0,113237,113324,462,174,439.1551,184.1122 F,2,113237,114807,1,0 S,2,113237,114807,0.8,0.16 M,0,113324,113411,439.1551,184.1122,415.2515,191.3689 M,0,113411,113498,415.2515,191.3689,390.6444,195.6629 M,0,113498,113585,390.6444,195.6629,365.6995,196.9309 M,0,113585,113673,365.6995,196.9309,340.7874,195.1544 M,0,113673,113760,340.7874,195.1544,316.2781,190.3601 M,0,113760,113847,316.2781,190.3601,292.5356,182.6197 M,0,113847,113934,292.5356,182.6197,269.8753,172.1136
Sprite,Foreground,Centre,"sb\hl.png",277,64 C,0,114115,,227,23,115 F,2,114115,114988,1,0 S,2,114115,114988,0.8,0.16
Sprite,Foreground,Centre,"sb\hl.png",368,296 C,0,114296,,227,23,115 F,2,114296,115169,1,0 S,2,114296,115169,0.8,0.16
Sprite,Foreground,Centre,"sb\hl.png",367,310 C,0,114718,,174,79,160 M,0,114718,114871,367,310,342.0967,312.1974 F,2,114718,116203,1,0 S,2,114718,116203,0.8,0.16 M,0,114871,115024,342.0967,312.1974,317.1935,314.3947 M,0,115024,115177,317.1935,314.3947,292.2903,316.592 M,0,115177,115330,292.2903,316.592,267.387,318.7894
Sprite,Foreground,Centre,"sb\hl.png",158,363 C,0,95795,,227,23,115 F,2,95795,96668,1,0 S,2,95795,96668,0.6,0.12
Sprite,Foreground,Centre,"sb\hl.png",156,336 C,0,95882,,227,23,115 F,2,95882,96755,1,0 S,2,95882,96755,0.6,0.12
Sprite,Foreground,Centre,"sb\hl.png",154,309 C,0,95969,,227,23,115 F,2,95969,96842,1,0 S,2,95969,96842,0.6,0.12
Sprite,Foreground,Centre,"sb\hl.png",152,283 C,0,96056,,227,23,115 F,2,96056,96929,1,0 S,2,96056,96929,0.6,0.12
Sprite,Foreground,Centre,"sb\hl.png",150,256 C,0,96144,,227,23,115 F,2,96144,97017,1,0 S,2,96144,97017,0.6,0.12
Sprite,Foreground,Centre,"sb\hl.png",149,229 C,0,96231,,227,23,115 F,2,96231,97104,1,0 S,2,96231,97104,0.6,0.12
Sprite,Foreground,Centre,"sb\hl.png",147,203 C,0,96318,,227,23,115 F,2,96318,97191,1,0 S,2,96318,97191,0.6,0.12
Sprite,Foreground,Centre,"sb\hl.png",145,176 C,0,96405,,227,23,115 F,2,96405,97278,1,0 S,2,96405,97278,0.6,0.12
Sprite,Foreground,Centre,"sb\hl.png",143,149 C,0,96493,,227,23,115 M,0,96493,96580,143,149,184.6361,136.5752 F,2,96493,97540,1,0 S,2,96493,97540,0.6,0.12 M,0,96580,96667,184.6361,136.5752,227.8571,140.9758
Sprite,Foreground,Centre,"sb\hl.png",152,283 C,0,96842,,227,23,115 M,0,96842,96929,152,283,110.0902,294.5471 F,2,96842,97889,1,0 S,2,96842,97889,0.6,0.12 M,0,96929,97016,110.0902,294.5471,66.87345,289.9018
Sprite,Foreground,Centre,"sb\hl.png",277,340 C,0,28818,,227,23,115 M,0,28818,28905,277,340,264.5505,340.8467 F,2,28818,30214,1,0 S,2,28818,30214,0.8,0.16 M,0,28905,28992,264.5505,340.8467,252.2026,342.6671 M,0,28992,29079,252.2026,342.6671,240.2333,346.1881 M,0,29079,29166,240.2333,346.1881,228.6006,350.6927 M,0,29166,29254,228.6006,350.6927,217.6787,356.7204 M,0,29254,29341,217.6787,356.7204,207.276,363.6139
Sprite,Foreground,Centre,"sb\hl.png",86,300 C,0,29865,,227,23,115 M,0,29865,29952,86,300,98.44951,299.1533 F,2,29865,31261,1,0 S,2,29865,31261,0.8,0.16 M,0,29952,30039,98.44951,299.1533,110.7974,297.3329 M,0,30039,30126,110.7974,297.3329,122.7667,293.8119 M,0,30126,30213,122.7667,293.8119,134.3994,289.3073 M,0,30213,30301,134.3994,289.3073,145.3213,283.2796 M,0,30301,30388,145.3213,283.2796,155.724,276.3861
Sprite,Foreground,Centre,"sb\hl.png",236,163 C,0,30911,,227,23,115 F,2,30911,31784,1,0 S,2,30911,31784,0.8,0.16
Sprite,Foreground,Centre,"sb\hl.png",277,340 C,0,31260,,227,23,115 F,2,31260,32133,1,0 S,2,31260,32133,0.8,0.16
Sprite,Foreground,Centre,"sb\hl.png",236,163 C,0,31609,,174,79,160 M,0,31609,31696,236,163,247.9123,159.2863 F,2,31609,33005,1,0 S,2,31609,33005,0.8,0.16 M,0,31696,31783,247.9123,159.2863,260.1216,156.7515 M,0,31783,31870,260.1216,156.7515,272.5028,155.3254 M,0,31870,31957,272.5028,155.3254,284.9725,155.4926 M,0,31957,32045,284.9725,155.4926,297.3804,156.7186 M,0,32045,32132,297.3804,156.7186,309.586,159.3631
Sprite,Foreground,Centre,"sb\hl.png",491,182 C,0,32656,,174,79,160 M,0,32656,32743,491,182,479.0877,185.7137 F,2,32656,34052,1,0 S,2,32656,34052,0.8,0.16 M,0,32743,32830,479.0877,185.7137,466.8784,188.2485 M,0,32830,32917,466.8784,188.2485,454.4972,189.6745 M,0,32917,33004,454.4972,189.6745,442.0275,189.5074 M,0,33004,33092,442.0275,189.5074,429.6196,188.2813 M,0,33092,33179,429.6196,188.2813,417.414,185.6369
Sprite,Foreground,Centre,"sb\hl.png",322,90 C,0,33702,,174,79,160 F,2,33702,34575,1,0 S,2,33702,34575,0.8,0.16
Sprite,Foreground,Centre,"sb\hl.png",404,286 C,0,34051,,174,79,160 F,2,34051,34924,1,0 S,2,34051,34924,0.8,0.16
Sprite,Foreground,Centre,"sb\hl.png",212,253 C,0,34400,,53,154,255 M,0,34400,34487,212,253,199.5333,252.8728 F,2,34400,35796,1,0 S,2,34400,35796,0.8,0.16 M,0,34487,34574,199.5333,252.8728,187.1499,254.2151 M,0,34574,34661,187.1499,254.2151,175.0117,256.9498 M,0,34661,34748,175.0117,256.9498,163.4119,261.4897 M,0,34748,34836,163.4119,261.4897,152.3941,267.2775 M,0,34836,34923,152.3941,267.2775,142.3882,274.6984
Sprite,Foreground,Centre,"sb\hl.png",64,196 C,0,35446,,53,154,255 M,0,35446,35533,64,196,76.24236,193.6223 F,2,35446,36842,1,0 S,2,35446,36842,0.8,0.16 M,0,35533,35620,76.24236,193.6223,88.13485,189.9034 M,0,35620,35707,88.13485,189.9034,99.58438,185.0056 M,0,35707,35794,99.58438,185.0056,110.1981,178.4743 M,0,35794,35882,110.1981,178.4743,120.1482,170.9712 M,0,35882,35969,120.1482,170.9712,129.0171,162.1831
Sprite,Foreground,Centre,"sb\hl.png",275,181 C,0,36493,,0,176,0 M,0,36493,36580,275,181,281.8325,198.4608 F,2,36493,37453,1,0 S,2,36493,37453,0.8,0.16
Sprite,Foreground,Centre,"sb\hl.png",348,141 C,0,36667,,221,221,0 M,0,36667,36754,348,141,345.313,116.1448 F,2,36667,37627,1,0 S,2,36667,37627,0.8,0.16
Sprite,Foreground,Centre,"sb\hl.png",407,201 C,0,36842,,227,23,115 M,0,36842,36929,407,201,417.5,237 F,2,36842,37802,1,0 S,2,36842,37802,0.8,0.16
Sprite,Foreground,Centre,"sb\hl.png",489,167 C,0,37016,,174,79,160 M,0,37016,37103,489,167,496.0711,117.5025 F,2,37016,37976,1,0 S,2,37016,37976,0.8,0.16
Sprite,Foreground,Centre,"sb\hl.png",339,139 C,0,81842,,0,176,0 M,0,81842,81929,339,139,351.5,139 F,2,81842,83238,1,0 S,2,81842,83238,0.8,0.16 M,0,81929,82016,351.5,139,364,139 M,0,82016,82103,364,139,376.5,139 M,0,82103,82190,376.5,139,389,139 M,0,82190,82278,389,139,401.5,139 M,0,82278,82365,401.5,139,414,139
Sprite,Foreground,Centre,"sb\hl.png",491,245 C,0,82888,,0,176,0 M,0,82888,82975,491,245,478.5,245 F,2,82888,84284,1,0 S,2,82888,84284,0.8,0.16 M,0,82975,83062,478.5,245,466,245 M,0,83062,83149,466,245,453.5,245 M,0,83149,83236,453.5,245,441,245 M,0,83236,83324,441,245,428.5,245 M,0,83324,83411,428.5,245,416,245
Sprite,Foreground,Centre,"sb\hl.png",250,243 C,0,83935,,0,176,0 F,2,83935,84808,1,0 S,2,83935,84808,0.8,0.16
Sprite,Foreground,Centre,"sb\hl.png",450,351 C,0,84284,,0,176,0 F,2,84284,85157,1,0 S,2,84284,85157,0.8,0.16
Sprite,Foreground,Centre,"sb\hl.png",250,243 C,0,84632,,221,221,0 M,0,84632,84719,250,243,240.1795,250.6734 F,2,84632,86028,1,0 S,2,84632,86028,0.8,0.16 M,0,84719,84806,240.1795,250.6734,231.4103,259.5109 M,0,84806,84893,231.4103,259.5109,223.7892,269.3358 M,0,84893,84980,223.7892,269.3358,217.8336,280.2696 M,0,84980,85068,217.8336,280.2696,213.2233,291.8206 M,0,85068,85155,213.2233,291.8206,210.2079,303.9322
Sprite,Foreground,Centre,"sb\hl.png",450,351 C,0,85679,,221,221,0 M,0,85679,85766,450,351,459.8205,343.3267 F,2,85679,87075,1,0 S,2,85679,87075,0.8,0.16 M,0,85766,85853,459.8205,343.3267,468.5897,334.4891 M,0,85853,85940,468.5897,334.4891,476.2108,324.6642 M,0,85940,86027,476.2108,324.6642,482.1664,313.7304 M,0,86027,86115,482.1664,313.7304,486.7768,302.1794 M,0,86115,86202,486.7768,302.1794,489.7921,290.0678
Sprite,Foreground,Centre,"sb\hl.png",487,125 C,0,86725,,227,23,115 M,0,86725,86812,487,125,485.352,106.3226 F,2,86725,87685,1,0 S,2,86725,87685,0.8,0.16
Sprite,Foreground,Centre,"sb\hl.png",395,170 C,0,86900,,174,79,160 M,0,86900,86987,395,170,391.5608,194.7623 F,2,86900,87860,1,0 S,2,86900,87860,0.8,0.16
Sprite,Foreground,Centre,"sb\hl.png",304,143 C,0,87074,,53,154,255 M,0,87074,87161,304,143,298.0496,105.9751 F,2,87074,88034,1,0 S,2,87074,88034,0.8,0.16
Sprite,Foreground,Centre,"sb\hl.png",208,170 C,0,87249,,0,176,0 M,0,87249,87336,208,170,200.0661,219.3665 F,2,87249,88209,1,0 S,2,87249,88209,0.8,0.16
Sprite,Foreground,Centre,"SB\r.png",375,343 C,0,109749,,174,79,160 F,0,109749,110445,1,0 S,0,109749,110445,0.3,1.2
Sprite,Foreground,Centre,"SB\r.png",273,360 C,0,110446,,174,79,160 F,0,110446,111142,1,0 S,0,110446,111142,0.3,1.2
Sprite,Foreground,Centre,"SB\r.png",91,186 C,0,111318,,53,154,255 F,0,111318,112014,1,0 S,0,111318,112014,0.3,1.2
Sprite,Foreground,Centre,"SB\r.png",207,273 C,0,111493,,53,154,255 F,0,111493,112189,1,0 S,0,111493,112189,0.3,1.2
Sprite,Foreground,Centre,"SB\r.png",215,286 C,0,111842,,0,176,0 F,0,111842,112538,1,0 S,0,111842,112538,0.3,1.2
Sprite,Foreground,Centre,"SB\r.png",171,66 C,0,112016,,0,176,0 F,0,112016,112712,1,0 S,0,112016,112712,0.3,1.2
Sprite,Foreground,Centre,"SB\r.png",182,65 C,0,112539,,221,221,0 F,0,112539,113235,1,0 S,0,112539,113235,0.3,1.2
Sprite,Foreground,Centre,"SB\r.png",462,174 C,0,113237,,221,221,0 F,0,113237,113933,1,0 S,0,113237,113933,0.3,1.2
Sprite,Foreground,Centre,"SB\r.png",277,64 C,0,114115,,227,23,115 F,0,114115,114811,1,0 S,0,114115,114811,0.3,1.2
Sprite,Foreground,Centre,"SB\r.png",368,296 C,0,114296,,227,23,115 F,0,114296,114992,1,0 S,0,114296,114992,0.3,1.2
Sprite,Foreground,Centre,"SB\r.png",367,310 C,0,114718,,174,79,160 F,0,114718,115414,1,0 S,0,114718,115414,0.3,1.2
Sprite,Foreground,Centre,"SB\r.png",339,139 C,0,81842,,0,176,0 F,0,81842,82538,1,0 S,0,81842,82538,0.3,1.2
Sprite,Foreground,Centre,"SB\r.png",491,245 C,0,82888,,0,176,0 F,0,82888,83584,1,0 S,0,82888,83584,0.3,1.2
Sprite,Foreground,Centre,"SB\r.png",250,243 C,0,83935,,0,176,0 F,0,83935,84631,1,0 S,0,83935,84631,0.3,1.2
Sprite,Foreground,Centre,"SB\r.png",450,351 C,0,84284,,0,176,0 F,0,84284,84980,1,0 S,0,84284,84980,0.3,1.2
Sprite,Foreground,Centre,"SB\r.png",250,243 C,0,84632,,221,221,0 F,0,84632,85328,1,0 S,0,84632,85328,0.3,1.2
Sprite,Foreground,Centre,"SB\r.png",450,351 C,0,85679,,221,221,0 F,0,85679,86375,1,0 S,0,85679,86375,0.3,1.2
Sprite,Foreground,Centre,"SB\r.png",487,125 C,0,86725,,227,23,115 F,0,86725,87421,1,0 S,0,86725,87421,0.3,1.2
Sprite,Foreground,Centre,"SB\r.png",395,170 C,0,86900,,174,79,160 F,0,86900,87596,1,0 S,0,86900,87596,0.3,1.2
Sprite,Foreground,Centre,"SB\r.png",304,143 C,0,87074,,53,154,255 F,0,87074,87770,1,0 S,0,87074,87770,0.3,1.2
Sprite,Foreground,Centre,"SB\r.png",208,170 C,0,87249,,0,176,0 F,0,87249,87945,1,0 S,0,87249,87945,0.3,1.2
Sprite,Foreground,Centre,"SB\r.png",277,340 C,0,28818,,227,23,115 F,0,28818,29514,1,0 S,0,28818,29514,0.3,1.2
Sprite,Foreground,Centre,"SB\r.png",86,300 C,0,29865,,227,23,115 F,0,29865,30561,1,0 S,0,29865,30561,0.3,1.2
Sprite,Foreground,Centre,"SB\r.png",236,163 C,0,30911,,227,23,115 F,0,30911,31607,1,0 S,0,30911,31607,0.3,1.2
Sprite,Foreground,Centre,"SB\r.png",277,340 C,0,31260,,227,23,115 F,0,31260,31956,1,0 S,0,31260,31956,0.3,1.2
Sprite,Foreground,Centre,"SB\r.png",236,163 C,0,31609,,174,79,160 F,0,31609,32305,1,0 S,0,31609,32305,0.3,1.2
Sprite,Foreground,Centre,"SB\r.png",491,182 C,0,32656,,174,79,160 F,0,32656,33352,1,0 S,0,32656,33352,0.3,1.2
Sprite,Foreground,Centre,"SB\r.png",322,90 C,0,33702,,174,79,160 F,0,33702,34398,1,0 S,0,33702,34398,0.3,1.2
Sprite,Foreground,Centre,"SB\r.png",404,286 C,0,34051,,174,79,160 F,0,34051,34747,1,0 S,0,34051,34747,0.3,1.2
Sprite,Foreground,Centre,"SB\r.png",212,253 C,0,34400,,53,154,255 F,0,34400,35096,1,0 S,0,34400,35096,0.3,1.2
Sprite,Foreground,Centre,"SB\r.png",64,196 C,0,35446,,53,154,255 F,0,35446,36142,1,0 S,0,35446,36142,0.3,1.2
Sprite,Foreground,Centre,"SB\r.png",275,181 C,0,36493,,0,176,0 F,0,36493,37189,1,0 S,0,36493,37189,0.3,1.2
Sprite,Foreground,Centre,"SB\r.png",348,141 C,0,36667,,221,221,0 F,0,36667,37363,1,0 S,0,36667,37363,0.3,1.2
Sprite,Foreground,Centre,"SB\r.png",407,201 C,0,36842,,227,23,115 F,0,36842,37538,1,0 S,0,36842,37538,0.3,1.2
Sprite,Foreground,Centre,"SB\r.png",489,167 C,0,37016,,174,79,160 F,0,37016,37712,1,0 S,0,37016,37712,0.3,1.2
Sprite,Foreground,Centre,"SB\r.png",453,395 C,0,185097,,53,154,255 F,0,185097,185793,1,0 S,0,185097,185793,0.3,1.2
Sprite,Foreground,Centre,"SB\r.png",151,239 C,0,185795,,53,154,255 F,0,185795,186491,1,0 S,0,185795,186491,0.3,1.2
Sprite,Foreground,Centre,"SB\r.png",138,239 C,0,186667,,0,176,0 F,0,186667,187363,1,0 S,0,186667,187363,0.3,1.2
Sprite,Foreground,Centre,"SB\r.png",260,104 C,0,186842,,0,176,0 F,0,186842,187538,1,0 S,0,186842,187538,0.3,1.2
Sprite,Foreground,Centre,"SB\r.png",259,79 C,0,187191,,221,221,0 F,0,187191,187887,1,0 S,0,187191,187887,0.3,1.2
Sprite,Foreground,Centre,"SB\r.png",195,335 C,0,187365,,221,221,0 F,0,187365,188061,1,0 S,0,187365,188061,0.3,1.2
Sprite,Foreground,Centre,"SB\r.png",194,355 C,0,187888,,227,23,115 F,0,187888,188584,1,0 S,0,187888,188584,0.3,1.2
Sprite,Foreground,Centre,"SB\r.png",259,79 C,0,188586,,227,23,115 F,0,188586,189282,1,0 S,0,188586,189282,0.3,1.2
Sprite,Foreground,Centre,"SB\r.png",274,81 C,0,189458,,174,79,160 F,0,189458,190154,1,0 S,0,189458,190154,0.3,1.2
Sprite,Foreground,Centre,"SB\r.png",490,138 C,0,189632,,174,79,160 F,0,189632,190328,1,0 S,0,189632,190328,0.3,1.2
Sprite,Foreground,Centre,"SB\r.png",491,121 C,0,189981,,53,154,255 F,0,189981,190677,1,0 S,0,189981,190677,0.3,1.2
Sprite,Foreground,Centre,"SB\r.png",266,106 C,0,190155,,53,154,255 F,0,190155,190851,1,0 S,0,190155,190851,0.3,1.2
//Storyboard Sound Samples

[TimingPoints]
912,697.674418604651,4,2,1,50,1,0
6493,-80,4,2,1,75,0,0
15388,-100,4,2,1,75,0,0
17656,-80,4,2,1,75,0,0
28818,-200,4,2,1,50,0,0
36493,-133.333333333333,4,2,2,60,0,0
36667,-100,4,2,2,75,0,0
36842,-66.6666666666667,4,2,2,85,0,0
37016,-50,4,2,2,95,0,0
37191,-57.1428571428571,4,2,2,85,0,1
59516,-80,4,2,1,75,0,0
61609,-66.6666666666667,4,2,1,90,0,0
61784,-50,4,2,1,90,0,0
62132,-66.6666666666667,4,2,1,90,0,0
62307,-80,4,2,1,75,0,0
64400,-50,4,2,1,75,0,0
65098,-80,4,2,1,75,0,0
81842,-200,4,2,1,50,0,0
86725,-133.333333333333,4,2,2,65,0,0
86900,-100,4,2,2,75,0,0
87074,-66.6666666666667,4,2,2,85,0,0
87249,-50,4,2,2,95,0,0
87423,-57.1428571428571,4,2,2,85,0,1
109749,-100,4,3,1,70,0,0
113935,722.89156626506,4,3,1,70,1,0
114296,845.070422535211,4,3,1,70,1,0
114632,-200,4,2,1,50,0,0
114718,1224.48979591837,4,2,1,90,1,0
115330,697.674418604651,4,2,1,50,1,0
120563,-80,4,2,1,75,0,0
125795,-50,4,2,1,85,0,0
126493,-80,4,2,1,75,0,0
140446,-57.1428571428571,4,2,2,85,0,1
159981,-57.1428571428571,4,2,1,90,0,0
162771,-50,4,2,2,85,0,1
185097,-50,4,3,1,70,0,0

[Colours]
Combo1 : 221,221,0
Combo2 : 227,23,115
Combo3 : 174,79,160
Combo4 : 53,154,255
Combo5 : 0,176,0

[HitObjects]
102,80,912,6,0,P|90:129|104:177,1,100,0|0,0:0|0:0,0:0:0:0:
199,127,1435,1,0,0:0:0:0:
295,175,1609,2,0,P|308:127|296:79,1,100,2|0,0:0|0:0,0:0:0:0:
199,127,2132,1,0,0:0:0:0:
206,232,2307,6,0,P|252:280|344:279,1,150,0|0,0:0|0:0,0:0:0:0:
409,227,3005,1,2,0:0:0:0:
414,205,3353,1,0,0:0:0:0:
420,181,3702,6,0,P|419:130|336:90,1,150,0|0,0:0|0:0,0:0:0:0:
232,118,4400,2,0,P|194:121|136:82,1,100,2|0,0:0|0:0,0:0:0:0:
58,25,4923,1,0,0:0:0:0:
58,25,5098,6,0,P|41:107|62:181,1,150,0|0,0:0|0:0,0:0:0:0:
111,265,5795,1,2,0:0:0:0:
137,265,6144,1,0,0:0:0:0:
6,267,6318,1,0,0:0:0:0:
166,264,6493,6,0,P|184:237|165:141,1,125,4|0,0:0|0:0,0:0:0:0:
283,227,7016,1,0,0:0:0:0:
283,227,7103,1,0,0:0:0:0:
283,227,7191,2,0,P|321:231|355:218,1,62.5,10|0,0:0|0:0,0:0:0:0:
310,88,7539,1,0,0:0:0:0:
172,149,7714,1,0,0:0:0:0:
172,149,7801,1,0,0:0:0:0:
172,149,7888,5,0,0:0:0:0:
283,227,8063,1,0,0:0:0:0:
228,39,8237,2,0,L|152:45,1,62.5
8,162,8586,2,0,L|80:156,1,62.5,10|0,0:0|0:0,0:0:0:0:
172,149,8935,1,0,0:0:0:0:
127,231,9109,6,0,P|99:287|112:346,1,125
112,346,9807,1,0,0:0:0:0:
213,345,9981,2,0,P|246:345|283:330,1,62.5,10|0,0:0|0:0,0:0:0:0:
372,298,10330,2,0,P|423:290|455:297,1,62.5
434,261,10592,1,0,0:0:0:0:
435,230,10679,6,0,L|435:153,1,62.5
330,79,11028,2,0,L|330:161,1,62.5
336,233,11377,1,10,0:0:0:0:
433,67,11551,1,8,0:0:0:0:
435,167,11725,1,8,0:0:0:0:
330,78,11900,6,0,P|279:70|216:105,1,125,4|0,0:0|0:0,0:0:0:0:
151,175,12423,2,0,P|117:191|79:189,1,62.5
246,193,12772,2,0,P|291:182|371:207,1,125,10|0,0:0|0:0,0:0:0:0:
440,278,13295,1,0,0:0:0:0:
440,278,13382,1,0,0:0:0:0:
440,278,13470,6,0,P|447:314|440:345,1,62.5
365,202,13818,2,0,P|358:166|365:135,1,62.5
386,40,14167,2,0,L|260:40,1,125,10|0,0:0|0:0,0:0:0:0:
166,38,14691,1,0,0:0:0:0:
166,38,14865,6,0,P|149:108|167:161,1,125
210,243,15388,1,0,0:0:0:0:
210,243,15563,2,0,P|259:231|307:243,1,100,10|0,0:0|0:0,0:0:0:0:
401,311,16086,1,0,0:0:0:0:
401,311,16173,1,0,0:0:0:0:
401,311,16260,6,0,L|415:252,1,50
392,116,16609,2,0,L|378:175,1,50
490,177,16958,1,10,0:0:0:0:
492,62,17132,1,8,0:0:0:0:
392,116,17307,1,8,0:0:0:0:
294,173,17481,1,8,0:0:0:0:
289,63,17656,5,4,0:0:0:0:
289,63,17830,2,0,P|232:44|163:67,1,125
58,147,18353,1,10,0:0:0:0:
52,50,18528,1,0,0:0:0:0:
157,162,18702,1,0,0:0:0:0:
85,260,18877,1,0,0:0:0:0:
67,274,18964,1,0,0:0:0:0:
52,286,19051,6,0,L|-16:286,1,62.5
157,162,19400,2,0,L|95:162,1,62.5
94,286,19749,2,0,L|156:286,1,62.5,10|0,0:0|0:0,0:0:0:0:
252,269,20098,1,0,0:0:0:0:
312,194,20272,6,0,P|324:161|314:73,1,125
314,73,20970,1,0,0:0:0:0:
432,84,21144,2,0,L|499:88,1,62.5,10|0,0:0|0:0,0:0:0:0:
434,174,21493,1,0,0:0:0:0:
468,274,21667,1,0,0:0:0:0:
468,274,21755,1,0,0:0:0:0:
468,274,21842,6,0,L|447:344,1,62.5
327,334,22191,2,0,L|309:274,1,62.5
280,183,22539,1,10,0:0:0:0:
157,239,22714,1,8,0:0:0:0:
309,274,22888,1,8,0:0:0:0:
122,149,23063,6,0,P|76:181|59:263,1,125,4|0,0:0|0:0,0:0:0:0:
25,110,23586,2,0,L|10:40,1,62.5
110,47,23935,2,0,P|169:29|230:47,1,125,10|0,0:0|0:0,0:0:0:0:
311,119,24458,1,0,0:0:0:0:
311,119,24545,1,0,0:0:0:0:
311,119,24632,6,0,P|340:123|384:112,1,62.5
502,30,24981,2,0,P|473:26|429:37,1,62.5
372,116,25330,2,0,P|383:177|431:224,1,125,10|0,0:0|0:0,0:0:0:0:
498,116,25853,1,0,0:0:0:0:
372,116,26028,6,0,P|311:132|266:186,1,125
221,253,26551,1,0,0:0:0:0:
125,284,26725,2,0,P|79:286|48:273,1,62.5,10|0,0:0|0:0,0:0:0:0:
221,253,27074,2,0,P|226:298|216:330,1,62.5
143,180,27423,6,0,P|136:145|146:105,1,62.5
270,176,27772,2,0,P|306:169|345:179,1,62.5
436,200,28121,1,10,0:0:0:0:
466,293,28295,1,8,0:0:0:0:
388,350,28470,1,8,0:0:0:0:
309,293,28644,1,8,0:0:0:0:
213,292,28818,6,0,P|176:298|139:319,1,75,2|0,0:0|0:0,0:0:0:0:
22,252,29865,2,0,P|59:246|96:225,1,75,2|0,0:0|0:0,0:0:0:0:
172,115,30911,1,2,0:0:0:0:
213,292,31260,1,0,0:0:0:0:
172,115,31609,6,0,P|213:107|248:112,1,75,2|0,0:0|0:0,0:0:0:0:
427,134,32656,2,0,P|386:142|351:137,1,75,2|0,0:0|0:0,0:0:0:0:
258,42,33702,1,2,0:0:0:0:
340,238,34051,1,0,0:0:0:0:
148,205,34400,6,0,P|110:209|71:233,1,75,2|0,0:0|0:0,0:0:0:0:
0,148,35446,2,0,P|32:139|67:112,1,75,2|0,0:0|0:0,0:0:0:0:
211,133,36493,6,2,L|220:156,1,18.7500007152558,10|2,0:0|0:0,0:0:0:0:
284,93,36667,6,2,L|280:56,1,25,10|2,0:0|0:0,0:0:0:0:
343,153,36842,6,2,L|357:201,1,37.5000014305115,10|2,0:0|0:0,0:0:0:0:
425,119,37016,6,2,L|433:63,1,50,10|2,0:0|0:0,0:0:0:0:
451,209,37191,6,0,P|422:259|298:273,1,175.00000166893,4|0,0:0|0:0,0:0:0:0:
214,246,37714,1,2,0:0:0:0:
214,246,37801,1,2,0:0:0:0:
214,246,37888,2,0,P|199:298|209:340,1,87.500000834465,10|0,3:2|0:0,0:0:0:0:
313,280,38237,1,10,0:0:0:0:
227,148,38412,1,10,0:0:0:0:
227,148,38499,1,2,0:0:0:0:
227,148,38586,6,0,P|175:154|131:192,1,87.500000834465,2|0,0:0|0:0,0:0:0:0:
87,261,38935,1,10,0:0:0:0:
69,113,39109,1,2,0:0:0:0:
214,246,39284,2,0,L|306:251,1,87.500000834465,10|0,3:2|0:0,0:0:0:0:
445,139,39632,2,0,L|353:134,1,87.500000834465,2|8,0:0|0:0,0:0:0:0:
239,150,39981,6,2,L|190:146,1,43.7500004172325,10|2,0:0|0:0,0:0:0:0:
288,41,40156,2,2,L|338:44,1,43.7500004172325
164,57,40330,1,10,0:0:0:0:
125,53,40417,1,2,0:0:0:0:
87,48,40504,1,2,0:0:0:0:
48,44,40591,1,2,0:0:0:0:
10,41,40679,2,0,L|42:137,1,87.500000834465,10|0,3:2|0:0,0:0:0:0:
76,218,41028,1,2,0:0:0:0:
184,241,41202,1,10,0:0:0:0:
184,241,41289,1,2,0:0:0:0:
184,241,41377,6,0,P|228:229|281:248,1,87.500000834465,2|0,0:0|0:0,0:0:0:0:
348,293,41725,1,10,0:0:0:0:
398,202,41900,1,2,0:0:0:0:
259,337,42074,5,10,3:2:0:0:
445,282,42249,1,2,0:0:0:0:
267,239,42423,2,0,P|249:191|259:141,1,87.500000834465,10|0,0:0|0:0,0:0:0:0:
329,61,42772,6,0,P|245:32|156:93,1,175.00000166893,12|0,0:0|0:0,0:0:0:0:
108,162,43295,1,2,0:0:0:0:
108,162,43382,1,2,0:0:0:0:
108,162,43470,2,0,P|61:178|15:169,1,87.500000834465,10|0,3:2|0:0,0:0:0:0:
54,64,43818,1,10,0:0:0:0:
172,68,43993,1,10,0:0:0:0:
172,68,44080,1,2,0:0:0:0:
172,68,44167,38,0,P|206:106|216:158,1,87.500000834465,2|0,0:0|0:0,0:0:0:0:
214,234,44516,1,10,0:0:0:0:
36,257,44691,1,2,0:0:0:0:
129,152,44865,2,0,L|235:137,1,87.500000834465,10|0,3:2|0:0,0:0:0:0:
181,326,45214,2,0,L|75:341,1,87.500000834465,2|8,0:0|0:0,0:0:0:0:
214,234,45563,37,10,0:0:0:0:
241,219,45650,1,2,0:0:0:0:
270,212,45737,1,2,0:0:0:0:
301,213,45824,1,2,0:0:0:0:
330,222,45911,1,10,0:0:0:0:
359,231,45999,1,2,0:0:0:0:
390,232,46086,1,2,0:0:0:0:
418,220,46173,1,2,0:0:0:0:
442,202,46260,2,0,P|438:152|411:111,1,87.500000834465,10|2,3:2|0:0,0:0:0:0:
330,222,46609,2,0,P|331:273|354:315,1,87.500000834465,2|10,0:0|0:0,0:0:0:0:
461,316,46958,5,10,0:0:0:0:
442,202,47132,1,2,0:0:0:0:
330,222,47307,1,10,0:0:0:0:
348,333,47481,1,2,0:0:0:0:
450,270,47656,1,10,3:2:0:0:
394,177,47830,1,10,0:0:0:0:
284,234,48005,2,0,P|223:253|144:237,1,131.250001251698,10|0,0:0|0:0,0:0:0:0:
116,222,48353,6,2,L|121:288,1,43.7500004172325,10|2,0:0|0:0,0:0:0:0:
56,337,48528,2,2,L|32:280,1,43.7500004172325
139,164,48702,6,2,L|142:220,1,43.7500004172325
66,294,48877,2,2,L|42:237,1,43.7500004172325
164,116,49051,2,0,P|212:106|265:121,1,87.500000834465,10|0,3:2|0:0,0:0:0:0:
349,150,49400,1,2,0:0:0:0:
435,100,49574,1,10,0:0:0:0:
435,100,49662,1,2,0:0:0:0:
435,100,49749,6,0,P|426:49|441:4,1,87.500000834465,2|0,0:0|0:0,0:0:0:0:
510,164,50098,1,10,0:0:0:0:
475,255,50272,1,2,0:0:0:0:
475,255,50359,1,2,0:0:0:0:
475,255,50446,2,0,P|430:265|376:251,1,87.500000834465,10|0,3:2|0:0,0:0:0:0:
276,241,50795,2,0,P|208:247|176:263,1,87.500000834465,10|2,0:0|0:0,0:0:0:0:
161,269,51057,1,2,0:0:0:0:
131,299,51144,6,2,P|128:343|138:368,1,43.7500004172325,10|2,0:0|0:0,0:0:0:0:
241,338,51318,2,2,P|270:342|305:331,1,43.7500004172325
276,241,51493,2,2,P|279:197|269:172,1,43.7500004172325
154,197,51667,2,2,P|125:193|90:204,1,43.7500004172325
276,241,51842,2,0,P|318:250|369:241,1,87.500000834465,10|0,3:2|0:0,0:0:0:0:
445,186,52191,1,2,0:0:0:0:
383,100,52365,1,10,0:0:0:0:
383,100,52452,1,2,0:0:0:0:
383,100,52539,6,0,P|335:90|286:103,1,87.500000834465,2|0,0:0|0:0,0:0:0:0:
210,140,52888,1,10,0:0:0:0:
118,176,53063,1,2,0:0:0:0:
118,176,53150,1,2,0:0:0:0:
118,176,53237,2,0,P|67:189|17:175,1,87.500000834465,10|0,3:2|0:0,0:0:0:0:
70,39,53586,1,10,0:0:0:0:
91,38,53673,1,2,0:0:0:0:
112,37,53760,1,2,0:0:0:0:
134,36,53847,1,2,0:0:0:0:
157,37,53935,6,8,P|200:53|235:172,1,175.00000166893,10|2,0:0|0:0,0:0:0:0:
198,305,54458,2,0,P|155:289|120:170,1,175.00000166893,10|2,0:0|0:0,0:0:0:0:
237,166,54981,1,10,0:0:0:0:
312,247,55156,1,2,0:0:0:0:
312,247,55243,1,2,0:0:0:0:
312,247,55330,6,0,P|330:294|319:347,1,87.500000834465,2|2,0:0|0:0,0:0:0:0:
237,166,55679,2,0,P|283:139|326:140,1,87.500000834465,10|2,0:0|0:0,0:0:0:0:
208,263,56028,2,0,P|159:230|145:186,1,87.500000834465,10|2,3:2|0:0,0:0:0:0:
312,247,56377,1,2,0:0:0:0:
342,245,56464,1,2,0:0:0:0:
372,250,56551,1,2,0:0:0:0:
400,263,56638,1,2,0:0:0:0:
423,283,56725,6,0,P|430:190|499:123,1,175.00000166893,10|2,0:0|0:0,0:0:0:0:
512,232,57249,1,2,0:0:0:0:
423,283,57423,2,0,P|330:308|245:290,1,175.00000166893,10|2,3:2|0:0,0:0:0:0:
163,252,57946,1,2,0:0:0:0:
68,308,58121,5,10,0:0:0:0:
68,308,58208,1,2,0:0:0:0:
68,308,58295,1,2,0:0:0:0:
64,200,58470,1,10,0:0:0:0:
64,200,58557,1,2,0:0:0:0:
64,200,58644,1,2,0:0:0:0:
153,143,58818,2,0,P|246:183|268:267,1,175.00000166893,10|2,3:2|0:0,0:0:0:0:
163,252,59342,1,8,0:0:0:0:
64,200,59516,6,0,P|49:155|52:128,1,62.5,8|0,0:0|0:0,0:0:0:0:
105,47,59865,2,0,L|176:47,1,62.5
269,142,60214,2,0,L|198:142,1,62.5
312,48,60563,2,0,L|396:48,1,62.5
474,51,60912,5,0,0:0:0:0:
340,142,61086,1,0,0:0:0:0:
501,148,61260,1,0,0:0:0:0:
374,48,61435,1,0,0:0:0:0:
419,204,61609,6,0,L|430:249,1,37.5000014305115,8|0,0:0|0:0,0:0:0:0:
347,262,61784,2,0,L|345:322,1,50,8|0,0:0|0:0,0:0:0:0:
259,281,61958,2,0,L|243:231,1,50,8|0,0:0|0:0,0:0:0:0:
167,265,62132,2,0,L|134:233,1,37.5000014305115,8|0,0:0|0:0,0:0:0:0:
95,312,62307,6,0,P|60:293|41:361,1,125,4|0,0:0|0:0,0:0:0:0:
173,355,62830,1,0,0:0:0:0:
140,238,63005,2,0,L|118:160,1,62.5,10|0,0:0|0:0,0:0:0:0:
34,105,63353,2,0,L|24:182,1,62.5
15,257,63702,5,0,0:0:0:0:
140,238,63877,1,0,0:0:0:0:
91,352,64051,1,0,0:0:0:0:
13,230,64225,1,0,0:0:0:0:
172,238,64400,2,0,L|281:249,1,100,10|8,0:0|0:0,0:0:0:0:
437,332,64749,2,0,L|337:339,1,100,8|8,0:0|0:0,0:0:0:0:
271,249,65098,5,4,0:0:0:0:
271,249,65185,1,0,0:0:0:0:
271,249,65272,2,0,P|265:211|275:177,1,62.5
316,103,65621,1,0,0:0:0:0:
217,110,65795,2,0,P|181:112|138:99,1,62.5,10|0,0:0|0:0,0:0:0:0:
123,203,66144,2,0,P|93:197|62:200,1,62.5
11,288,66493,6,0,P|11:326|25:361,1,62.5
61,200,66842,2,0,P|61:162|47:127,1,62.5
111,285,67191,2,0,P|165:300|232:268,1,125,10|0,0:0|0:0,0:0:0:0:
146,64,67888,5,0,0:0:0:0:
146,64,67975,1,0,0:0:0:0:
146,64,68063,2,0,L|215:56,1,62.5
300,45,68412,1,0,0:0:0:0:
391,70,68586,2,0,P|397:110|388:143,1,62.5,10|0,0:0|0:0,0:0:0:0:
300,254,68935,2,0,P|294:214|303:181,1,62.5
392,131,69284,6,0,L|462:139,1,62.5
298,192,69632,2,0,L|228:184,1,62.5
130,171,69981,1,10,0:0:0:0:
173,261,70156,1,0,0:0:0:0:
173,261,70243,1,0,0:0:0:0:
173,261,70330,1,0,0:0:0:0:
235,184,70505,1,0,0:0:0:0:
90,76,70679,6,0,P|48:103|51:237,1,187.5,12|0,0:0|0:0,0:0:0:0:
87,311,71377,1,10,0:0:0:0:
168,263,71551,1,0,0:0:0:0:
254,306,71725,1,0,0:0:0:0:
343,351,71900,5,0,0:0:0:0:
346,330,71987,1,0,0:0:0:0:
350,309,72074,1,0,0:0:0:0:
353,288,72161,1,0,0:0:0:0:
357,268,72248,1,0,0:0:0:0:
360,247,72336,1,0,0:0:0:0:
364,229,72423,6,0,L|370:189,1,31.25
451,262,72598,2,0,L|444:306,2,31.25,0|0|10,0:0|0:0|0:0,0:0:0:0:
466,93,72946,1,0,0:0:0:0:
376,96,73121,2,0,L|332:99,1,31.25
286,170,73295,2,0,L|243:164,1,31.25
188,99,73470,6,0,L|60:106,1,125
169,197,73993,1,0,0:0:0:0:
256,166,74167,2,0,P|274:143|276:93,1,62.5,10|0,0:0|0:0,0:0:0:0:
188,99,74516,1,0,0:0:0:0:
169,197,74691,1,0,0:0:0:0:
184,224,74778,1,0,0:0:0:0:
207,244,74865,5,0,0:0:0:0:
236,256,74952,1,0,0:0:0:0:
267,257,75039,1,0,0:0:0:0:
297,248,75127,1,0,0:0:0:0:
322,230,75214,1,0,0:0:0:0:
339,204,75301,1,0,0:0:0:0:
348,174,75388,2,0,L|404:174,1,31.25
473,173,75563,1,8,0:0:0:0:
349,66,75737,1,8,0:0:0:0:
454,26,75912,1,10,0:0:0:0:
348,174,76086,6,0,L|218:173,1,125,4|0,0:0|0:0,0:0:0:0:
121,172,76609,2,0,P|126:150|95:95,1,62.5
23,157,76958,2,0,P|13:223|39:281,1,125,10|0,0:0|0:0,0:0:0:0:
117,335,77481,1,0,0:0:0:0:
117,335,77568,1,0,0:0:0:0:
117,335,77656,6,0,L|199:335,1,62.5
276,289,78005,1,0,0:0:0:0:
191,238,78179,1,0,0:0:0:0:
284,189,78353,2,0,P|290:152|244:74,1,125,10|0,0:0|0:0,0:0:0:0:
154,37,78877,1,0,0:0:0:0:
249,77,79051,6,0,P|316:89|373:59,1,125
457,24,79574,1,0,0:0:0:0:
457,24,79662,1,0,0:0:0:0:
457,24,79749,2,0,L|480:110,1,62.5,10|0,0:0|0:0,0:0:0:0:
473,191,80098,2,0,L|458:256,1,62.5
404,345,80446,6,0,P|365:351|329:342,1,62.5
232,328,80795,2,0,P|200:326|170:333,1,62.5
66,361,81144,1,10,0:0:0:0:
32,169,81318,1,8,0:0:0:0:
13,294,81493,1,8,0:0:0:0:
90,92,81667,1,8,0:0:0:0:
275,91,81842,22,0,L|359:91,1,75,2|0,0:0|0:0,0:0:0:0:
427,197,82888,2,0,L|343:197,1,75,2|0,0:0|0:0,0:0:0:0:
186,195,83935,1,2,0:0:0:0:
386,303,84284,1,0,0:0:0:0:
186,195,84632,6,0,P|155:229|146:257,1,75,2|0,0:0|0:0,0:0:0:0:
386,303,85679,2,0,P|417:269|426:241,1,75,2|0,0:0|0:0,0:0:0:0:
423,77,86725,6,2,L|420:43,1,18.7500007152558,10|2,0:0|0:0,0:0:0:0:
331,122,86900,6,2,L|326:158,1,25,10|2,0:0|0:0,0:0:0:0:
240,95,87074,6,2,L|231:39,1,37.5000014305115,10|2,0:0|0:0,0:0:0:0:
144,122,87249,6,2,L|135:178,1,50,10|2,0:0|0:0,0:0:0:0:
39,90,87423,6,0,P|24:44|130:40,1,175.00000166893,12|0,0:0|0:0,0:0:0:0:
136,173,87946,1,2,0:0:0:0:
136,173,88034,1,2,0:0:0:0:
136,173,88121,2,0,P|132:222|105:265,1,87.500000834465,10|0,3:2|0:0,0:0:0:0:
19,309,88470,1,10,0:0:0:0:
221,252,88644,1,10,0:0:0:0:
221,252,88731,1,2,0:0:0:0:
221,252,88818,6,0,P|273:251|320:276,1,87.500000834465,2|0,0:0|0:0,0:0:0:0:
365,338,89167,1,10,0:0:0:0:
354,152,89342,1,2,0:0:0:0:
456,264,89516,2,0,L|481:366,1,87.500000834465,10|0,3:2|0:0,0:0:0:0:
221,252,89865,2,0,L|196:150,1,87.500000834465,2|8,0:0|0:0,0:0:0:0:
166,48,90214,6,2,L|124:62,1,43.7500004172325,10|2,0:0|0:0,0:0:0:0:
0,116,90388,2,2,L|41:129,1,43.7500004172325
200,167,90563,2,2,L|150:185,1,43.7500004172325,10|2,0:0|0:0,0:0:0:0:
8,237,90737,2,2,L|49:250,1,43.7500004172325
49,354,90911,2,0,L|143:341,1,87.500000834465,10|0,3:2|0:0,0:0:0:0:
241,326,91260,1,2,0:0:0:0:
354,316,91435,1,10,0:0:0:0:
354,316,91522,1,2,0:0:0:0:
354,316,91609,6,0,P|356:260|334:222,1,87.500000834465,2|0,0:0|0:0,0:0:0:0:
281,142,91958,1,10,0:0:0:0:
241,326,92132,1,2,0:0:0:0:
385,137,92307,5,10,3:2:0:0:
354,316,92481,1,2,0:0:0:0:
224,225,92656,2,0,P|177:218|138:229,1,87.500000834465,10|0,0:0|0:0,0:0:0:0:
235,63,93005,6,0,B|323:23|323:108|409:53,1,175.00000166893,12|0,0:0|0:0,0:0:0:0:
492,12,93528,1,2,0:0:0:0:
492,12,93615,1,2,0:0:0:0:
492,12,93702,2,0,P|506:66|493:106,1,87.500000834465,10|0,3:2|0:0,0:0:0:0:
410,159,94051,1,10,0:0:0:0:
377,257,94225,1,10,0:0:0:0:
377,257,94313,1,2,0:0:0:0:
377,257,94400,6,0,P|383:310|420:352,1,87.500000834465,2|0,0:0|0:0,0:0:0:0:
490,260,94749,1,10,0:0:0:0:
276,243,94923,1,2,0:0:0:0:
412,158,95098,2,0,L|506:167,1,87.500000834465,10|0,3:2|0:0,0:0:0:0:
295,334,95446,2,0,L|201:325,1,87.500000834465,2|8,0:0|0:0,0:0:0:0:
94,315,95795,5,10,0:0:0:0:
92,288,95882,1,2,0:0:0:0:
90,261,95969,1,2,0:0:0:0:
88,235,96056,1,2,0:0:0:0:
86,208,96144,1,10,0:0:0:0:
85,181,96231,1,2,0:0:0:0:
83,155,96318,1,2,0:0:0:0:
81,128,96405,1,2,0:0:0:0:
79,101,96493,2,0,P|131:88|170:95,1,87.500000834465,10|10,3:2|0:0,0:0:0:0:
88,235,96842,2,0,P|35:247|-3:240,1,87.500000834465,2|2,0:0|0:0,0:0:0:0:
78,101,97191,5,10,0:0:0:0:
203,143,97365,1,2,0:0:0:0:
88,235,97539,1,10,0:0:0:0:
111,80,97714,1,2,0:0:0:0:
191,173,97888,1,10,3:2:0:0:
71,202,98063,1,10,0:0:0:0:
140,64,98237,2,0,P|183:51|262:79,1,131.250001251698,10|0,0:0|0:0,0:0:0:0:
287,116,98586,6,2,P|306:134|334:143,1,43.7500004172325,10|2,0:0|0:0,0:0:0:0:
466,210,98760,2,2,P|447:192|419:183,1,43.7500004172325
289,168,98935,6,2,P|308:186|336:195,1,43.7500004172325
473,159,99109,2,2,P|454:141|426:132,1,43.7500004172325
287,221,99284,2,0,P|326:248|379:258,1,87.500000834465,10|0,3:2|0:0,0:0:0:0:
466,210,99632,1,2,0:0:0:0:
322,140,99807,1,10,0:0:0:0:
322,140,99894,1,2,0:0:0:0:
322,140,99981,6,0,P|271:133|226:154,1,87.500000834465,2|0,0:0|0:0,0:0:0:0:
195,231,100330,1,10,0:0:0:0:
364,258,100505,1,2,0:0:0:0:
364,258,100592,1,2,0:0:0:0:
364,258,100679,2,0,P|415:260|458:245,1,87.500000834465,10|0,3:2|0:0,0:0:0:0:
438,134,101028,2,0,P|424:80|390:45,1,87.500000834465,10|2,0:0|0:0,0:0:0:0:
375,56,101289,1,2,0:0:0:0:
343,55,101377,6,2,L|284:52,1,43.7500004172325,10|2,0:0|0:0,0:0:0:0:
194,164,101551,2,2,L|252:167,1,43.7500004172325
332,136,101725,2,2,L|375:138,1,43.7500004172325
201,76,101900,2,2,L|157:73,1,43.7500004172325
99,136,102074,2,0,L|5:132,1,87.500000834465,10|0,3:2|0:0,0:0:0:0:
43,46,102423,1,2,0:0:0:0:
73,233,102598,1,10,0:0:0:0:
73,233,102685,1,2,0:0:0:0:
73,233,102772,6,0,P|66:288|37:326,1,87.500000834465,2|0,0:0|0:0,0:0:0:0:
160,274,103121,1,10,0:0:0:0:
258,275,103295,1,2,0:0:0:0:
258,275,103382,1,2,0:0:0:0:
258,275,103470,2,0,P|319:292|349:331,1,87.500000834465,10|0,3:2|0:0,0:0:0:0:
456,349,103818,1,10,0:0:0:0:
441,316,103905,1,2,0:0:0:0:
433,281,103992,1,2,0:0:0:0:
431,245,104079,1,2,0:0:0:0:
436,209,104167,6,0,P|431:123|383:35,1,175.00000166893,10|2,0:0|0:0,0:0:0:0:
285,100,104691,2,0,P|233:113|92:100,1,175.00000166893,10|2,0:0|0:0,0:0:0:0:
28,42,105214,1,10,0:0:0:0:
22,186,105388,1,2,0:0:0:0:
22,186,105475,1,2,0:0:0:0:
22,186,105563,6,0,P|21:229|51:282,1,87.500000834465,2|0,0:0|0:0,0:0:0:0:
98,343,105912,1,10,0:0:0:0:
212,219,106086,1,2,0:0:0:0:
108,206,106260,1,10,3:2:0:0:
266,293,106435,1,2,0:0:0:0:
256,104,106609,1,2,0:0:0:0:
245,70,106696,1,2,0:0:0:0:
221,43,106783,1,2,0:0:0:0:
189,27,106870,1,2,0:0:0:0:
154,26,106958,6,0,P|139:105|58:157,1,175.00000166893,10|2,0:0|0:0,0:0:0:0:
36,38,107481,1,2,0:0:0:0:
154,26,107656,2,0,P|202:49|239:164,1,175.00000166893,10|2,3:2|0:0,0:0:0:0:
218,252,108179,1,2,0:0:0:0:
111,255,108353,21,10,0:0:0:0:
111,255,108441,1,2,0:0:0:0:
111,255,108528,1,2,0:0:0:0:
81,161,108702,1,10,0:0:0:0:
81,161,108789,1,2,0:0:0:0:
81,161,108877,1,2,0:0:0:0:
241,157,109051,2,0,P|288:185|306:309,1,175.00000166893,10|2,3:2|0:0,0:0:0:0:
311,295,109749,54,0,P|356:288|419:312,1,100,8|0,0:0|0:0,0:0:0:0:
209,312,110446,2,0,P|90:308|25:241,1,200,2|0,0:0|0:0,0:0:0:0:
27,138,111318,5,8,0:0:0:0:
143,225,111493,1,8,0:0:0:0:
151,238,111842,5,2,0:0:0:0:
107,18,112016,1,8,0:0:0:0:
118,17,112539,6,0,P|173:7|217:16,1,100,8|0,0:0|0:0,0:0:0:0:
398,126,113237,2,0,P|302:149|202:122,1,200,2|0,0:0|0:0,0:0:0:0:
213,16,114115,5,8,0:0:0:0:
304,248,114296,1,8,0:0:0:0:
303,262,114718,6,0,L|201:271,1,100
215,268,120563,5,0,0:0:0:0:
133,292,120737,1,0,0:0:0:0:
51,315,120911,6,0,L|51:177,1,125
53,96,121435,1,0,0:0:0:0:
139,147,121609,2,0,B|166:161|201:148|201:148|235:138|266:149,1,125,10|0,0:0|0:0,0:0:0:0:
358,196,122132,1,0,0:0:0:0:
358,196,122220,1,0,0:0:0:0:
358,196,122307,5,0,0:0:0:0:
357,91,122481,1,0,0:0:0:0:
261,147,122656,2,0,L|254:222,1,62.5
365,347,123005,2,0,L|372:272,1,62.5,10|0,0:0|0:0,0:0:0:0:
409,173,123353,6,0,L|450:158,1,31.25
296,212,123528,2,0,L|263:222,1,31.25
401,138,123702,6,0,L|424:108,1,31.25
302,244,123877,2,0,L|281:274,1,31.25
390,97,124050,5,0,0:0:0:0:
309,279,124225,1,0,0:0:0:0:
185,281,124400,2,0,L|120:281,1,62.5,10|0,0:0|0:0,0:0:0:0:
27,281,124749,1,0,0:0:0:0:
76,188,124923,1,0,0:0:0:0:
76,188,125010,1,0,0:0:0:0:
76,188,125098,6,0,L|159:188,1,62.5
185,281,125446,2,0,L|268:281,1,62.5
353,224,125795,2,0,P|364:175|348:119,1,100,10|8,0:0|0:0,0:0:0:0:
265,193,126144,1,10,0:0:0:0:
440,255,126318,1,8,0:0:0:0:
340,321,126493,6,0,L|268:333,1,62.5,4|0,0:0|0:0,0:0:0:0:
103,299,126842,2,0,L|173:287,1,62.5
260,224,127191,2,0,P|257:182|241:152,1,62.5,10|0,0:0|0:0,0:0:0:0:
100,160,127539,1,0,0:0:0:0:
164,288,127714,1,0,0:0:0:0:
164,288,127801,1,0,0:0:0:0:
164,288,127888,5,0,0:0:0:0:
248,163,128063,1,0,0:0:0:0:
77,247,128237,1,0,0:0:0:0:
264,259,128412,1,0,0:0:0:0:
100,160,128586,2,0,P|39:167|-9:225,1,125,10|0,0:0|0:0,0:0:0:0:
0,302,129109,1,0,0:0:0:0:
87,350,129284,6,0,L|168:350,1,62.5
251,350,129632,1,0,0:0:0:0:
252,250,129806,1,0,0:0:0:0:
378,252,129981,2,0,P|385:294|375:328,1,62.5,10|0,0:0|0:0,0:0:0:0:
252,250,130330,1,0,0:0:0:0:
258,132,130505,1,0,0:0:0:0:
258,132,130592,1,0,0:0:0:0:
258,132,130679,5,0,0:0:0:0:
383,129,130853,1,0,0:0:0:0:
252,250,131028,2,0,P|218:254|171:238,1,62.5
57,223,131376,2,0,P|17:256|24:334,1,125,10|8,0:0|0:0,0:0:0:0:
110,343,131900,1,8,0:0:0:0:
57,223,132074,6,0,L|24:150,1,62.5
97,47,132423,2,0,L|117:122,1,62.5
144,207,132772,1,10,0:0:0:0:
212,98,132946,1,0,0:0:0:0:
97,47,133121,1,0,0:0:0:0:
186,214,133295,1,0,0:0:0:0:
186,214,133382,1,0,0:0:0:0:
186,214,133470,6,0,P|226:217|264:203,1,62.5
358,172,133818,2,0,P|388:165|419:169,1,62.5
481,249,134167,1,10,0:0:0:0:
330,262,134342,1,0,0:0:0:0:
358,172,134516,1,0,0:0:0:0:
453,336,134691,1,0,0:0:0:0:
453,336,134778,1,0,0:0:0:0:
453,336,134865,6,0,L|372:355,1,62.5
358,172,135214,2,0,L|439:153,1,62.5
332,259,135563,2,0,L|255:278,1,62.5,10|0,0:0|0:0,0:0:0:0:
191,321,135912,1,0,0:0:0:0:
193,227,136086,1,0,0:0:0:0:
105,371,136260,5,0,0:0:0:0:
109,276,136435,1,0,0:0:0:0:
272,274,136609,1,0,0:0:0:0:
191,321,136784,1,0,0:0:0:0:
279,184,136958,2,0,P|331:205|359:282,1,125,10|8,0:0|0:0,0:0:0:0:
357,358,137481,1,8,0:0:0:0:
466,242,137656,5,0,0:0:0:0:
470,232,137743,1,0,0:0:0:0:
476,220,137830,1,0,0:0:0:0:
397,101,138005,5,0,0:0:0:0:
392,82,138092,1,0,0:0:0:0:
386,62,138179,1,0,0:0:0:0:
279,184,138353,5,10,0:0:0:0:
271,208,138441,1,0,0:0:0:0:
263,230,138528,1,0,0:0:0:0:
174,114,138702,5,0,0:0:0:0:
166,81,138789,1,0,0:0:0:0:
156,50,138877,1,0,0:0:0:0:
279,184,139051,5,0,0:0:0:0:
327,183,139138,1,0,0:0:0:0:
375,182,139225,1,0,0:0:0:0:
174,114,139400,5,0,0:0:0:0:
113,114,139487,1,0,0:0:0:0:
54,114,139574,1,0,0:0:0:0:
45,232,139749,5,10,0:0:0:0:
174,114,139923,1,8,0:0:0:0:
120,347,140098,5,8,0:0:0:0:
54,114,140272,1,8,0:0:0:0:
281,196,140446,6,0,P|367:190|425:111,1,175.00000166893,12|0,0:0|0:0,0:0:0:0:
316,79,140970,1,2,0:0:0:0:
316,79,141057,1,2,0:0:0:0:
316,79,141144,2,0,P|268:73|221:89,1,87.500000834465,10|0,3:2|0:0,0:0:0:0:
281,196,141493,1,10,0:0:0:0:
421,124,141667,1,10,0:0:0:0:
421,124,141755,1,2,0:0:0:0:
421,124,141841,6,0,P|432:77|417:24,1,87.500000834465,2|0,0:0|0:0,0:0:0:0:
316,79,142191,1,2,0:0:0:0:
454,227,142365,1,2,0:0:0:0:
310,315,142539,2,0,L|214:341,1,87.500000834465,10|0,3:2|0:0,0:0:0:0:
237,181,142888,2,0,L|333:155,1,87.500000834465,2|8,0:0|0:0,0:0:0:0:
187,258,143237,5,10,0:0:0:0:
158,227,143324,1,2,0:0:0:0:
146,187,143411,1,2,0:0:0:0:
154,145,143498,1,2,0:0:0:0:
179,112,143586,2,2,L|237:95,2,43.7500004172325,10|2|2,0:0|0:0|0:0,0:0:0:0:
55,150,143935,2,0,P|30:112|27:60,1,87.500000834465,10|0,3:2|0:0,0:0:0:0:
131,28,144284,1,2,0:0:0:0:
158,227,144458,1,10,0:0:0:0:
158,227,144545,1,2,0:0:0:0:
158,227,144632,6,0,P|141:277|108:305,1,87.500000834465,2|0,0:0|0:0,0:0:0:0:
25,265,144981,1,10,0:0:0:0:
159,124,145156,1,2,0:0:0:0:
25,309,145330,5,10,3:2:0:0:
22,147,145505,1,2,0:0:0:0:
158,227,145679,2,0,P|201:232|259:202,1,87.500000834465,10|0,0:0|0:0,0:0:0:0:
367,75,146028,6,0,P|416:102|433:220,1,175.00000166893,12|0,0:0|0:0,0:0:0:0:
389,318,146551,1,2,0:0:0:0:
389,318,146638,1,2,0:0:0:0:
389,318,146725,2,0,L|282:338,1,87.500000834465,10|0,3:2|0:0,0:0:0:0:
193,351,147074,1,10,0:0:0:0:
137,260,147249,1,10,0:0:0:0:
137,260,147336,1,2,0:0:0:0:
136,259,147423,6,0,P|119:220|121:177,1,87.500000834465,2|0,0:0|0:0,0:0:0:0:
175,78,147772,1,2,0:0:0:0:
268,197,147946,1,2,0:0:0:0:
34,193,148121,2,0,P|39:146|67:110,1,87.500000834465,10|0,3:2|0:0,0:0:0:0:
268,197,148470,2,0,P|263:244|235:280,1,87.500000834465,2|8,0:0|0:0,0:0:0:0:
175,78,148818,5,10,0:0:0:0:
198,51,148905,1,2,0:0:0:0:
230,34,148992,1,2,0:0:0:0:
265,30,149079,1,2,0:0:0:0:
300,38,149167,2,2,L|301:84,2,43.7500004172325,10|2|2,0:0|0:0|0:0,0:0:0:0:
412,64,149516,2,0,L|412:168,1,87.500000834465,10|0,3:2|0:0,0:0:0:0:
455,266,149865,2,0,P|406:275|358:261,1,87.500000834465,2|10,0:0|0:0,0:0:0:0:
325,258,150127,1,2,0:0:0:0:
280,252,150214,6,0,P|232:261|191:297,1,87.500000834465,2|8,0:0|0:0,0:0:0:0:
124,356,150563,1,10,0:0:0:0:
274,350,150737,1,2,0:0:0:0:
115,343,150911,5,10,3:2:0:0:
161,154,151086,1,10,0:0:0:0:
366,156,151260,2,0,P|414:113|423:44,1,131.250001251698,10|0,0:0|0:0,0:0:0:0:
378,49,151609,6,2,L|322:49,1,43.7500004172325,2|2,0:0|0:0,0:0:0:0:
161,154,151784,2,2,L|213:154,1,43.7500004172325
296,22,151958,6,2,L|240:22,1,43.7500004172325
234,190,152132,2,2,L|287:190,1,43.7500004172325
209,2,152307,2,0,L|105:2,1,87.500000834465,10|0,3:2|0:0,0:0:0:0:
56,94,152656,1,2,0:0:0:0:
161,154,152830,1,10,0:0:0:0:
161,154,152917,1,2,0:0:0:0:
161,154,153005,6,0,P|173:200|165:248,1,87.500000834465,2|0,0:0|0:0,0:0:0:0:
96,317,153353,1,10,0:0:0:0:
241,299,153528,1,2,0:0:0:0:
241,299,153615,1,2,0:0:0:0:
241,299,153702,2,0,P|303:296|338:313,1,87.500000834465,10|0,3:2|0:0,0:0:0:0:
441,355,154051,2,0,P|453:309|443:259,1,87.500000834465,2|2,0:0|0:0,0:0:0:0:
427,227,154313,1,2,0:0:0:0:
421,180,154400,6,2,P|422:134|426:124,1,43.7500004172325,10|2,0:0|0:0,0:0:0:0:
318,35,154574,2,2,P|327:78|324:95,1,43.7500004172325
431,46,154749,2,2,P|479:45|496:51,1,43.7500004172325
310,170,154923,2,2,P|262:171|245:165,1,43.7500004172325
159,158,155098,2,0,P|111:155|56:175,1,87.500000834465,10|0,3:2|0:0,0:0:0:0:
142,266,155446,1,2,0:0:0:0:
253,282,155621,1,10,0:0:0:0:
253,282,155708,1,2,0:0:0:0:
253,282,155795,5,2,0:0:0:0:
266,171,155970,1,2,0:0:0:0:
224,68,156144,2,0,P|176:50|127:53,1,87.500000834465,10|0,0:0|0:0,0:0:0:0:
334,88,156492,2,0,P|389:82|432:57,1,87.500000834465,10|0,3:2|0:0,0:0:0:0:
411,182,156842,1,10,0:0:0:0:
408,211,156929,1,2,0:0:0:0:
412,240,157016,1,2,0:0:0:0:
422,267,157103,1,2,0:0:0:0:
442,293,157191,6,0,P|354:318|292:268,1,175.00000166893,10|2,0:0|0:0,0:0:0:0:
190,270,157714,2,0,P|121:318|41:292,1,175.00000166893,2|2,0:0|0:0,0:0:0:0:
21,186,158237,1,2,0:0:0:0:
127,144,158412,1,10,0:0:0:0:
127,144,158499,1,2,0:0:0:0:
127,144,158586,6,0,P|172:125|229:136,1,87.500000834465,2|0,0:0|0:0,0:0:0:0:
304,177,158935,1,10,0:0:0:0:
212,227,159109,1,2,0:0:0:0:
290,71,159284,1,10,3:2:0:0:
296,268,159458,1,2,0:0:0:0:
209,127,159632,1,10,0:0:0:0:
187,96,159719,1,2,0:0:0:0:
156,76,159806,1,2,0:0:0:0:
120,68,159893,1,2,0:0:0:0:
84,73,159981,5,12,0:0:0:0:
96,204,160156,1,0,0:0:0:0:
209,127,160330,1,8,0:0:0:0:
48,74,160505,5,0,0:0:0:0:
116,236,160679,1,8,3:2:0:0:
217,89,160853,1,8,0:0:0:0:
11,72,161028,2,0,L|21:214,1,131.250001251698,8|0,0:0|0:0,0:0:0:0:
23,249,161377,5,12,0:0:0:0:
111,145,161551,1,0,0:0:0:0:
220,225,161725,1,8,0:0:0:0:
20,203,161900,5,0,0:0:0:0:
106,99,162074,1,8,3:2:0:0:
214,179,162248,1,8,0:0:0:0:
334,252,162423,5,8,0:0:0:0:
369,257,162510,1,8,0:0:0:0:
404,249,162597,1,8,0:0:0:0:
433,230,162684,1,8,0:0:0:0:
454,201,162772,6,0,P|469:137|378:29,1,200,12|0,0:0|0:0,0:0:0:0:
283,57,163295,1,2,0:0:0:0:
283,57,163382,1,2,0:0:0:0:
283,57,163469,2,0,P|232:63|178:44,1,100,10|0,3:2|0:0,0:0:0:0:
85,19,163818,1,10,0:0:0:0:
175,135,163993,1,10,0:0:0:0:
175,135,164080,1,2,0:0:0:0:
175,135,164167,6,0,P|195:200|186:236,1,100,2|0,0:0|0:0,0:0:0:0:
113,323,164516,1,10,0:0:0:0:
35,202,164691,1,2,0:0:0:0:
175,135,164865,2,0,L|287:119,1,100,10|0,3:2|0:0,0:0:0:0:
435,225,165214,2,0,L|323:241,1,100,2|8,0:0|0:0,0:0:0:0:
238,251,165563,6,2,L|228:305,1,50,10|2,0:0|0:0,0:0:0:0:
175,135,165737,2,2,L|184:79,1,50
145,280,165912,1,10,0:0:0:0:
105,297,165999,1,2,0:0:0:0:
61,293,166086,1,2,0:0:0:0:
26,269,166173,1,2,0:0:0:0:
8,230,166260,2,0,L|7:126,1,100,10|0,3:2|0:0,0:0:0:0:
5,24,166609,1,2,0:0:0:0:
106,140,166784,1,10,0:0:0:0:
106,140,166871,1,2,0:0:0:0:
106,140,166958,6,0,P|156:149|217:125,1,100,2|0,0:0|0:0,0:0:0:0:
290,73,167307,1,10,0:0:0:0:
149,46,167481,1,2,0:0:0:0:
328,54,167655,5,10,3:2:0:0:
106,140,167830,1,2,0:0:0:0:
287,269,168005,2,0,P|342:282|394:257,1,100,10|0,0:0|0:0,0:0:0:0:
202,311,168353,6,0,B|111:361|105:251|7:324,1,200,14|0,0:0|0:0,0:0:0:0:
286,268,168877,1,2,0:0:0:0:
286,268,168964,1,2,0:0:0:0:
286,268,169051,2,0,P|296:325|274:372,1,100,10|0,3:2|0:0,0:0:0:0:
196,225,169400,1,10,0:0:0:0:
337,178,169574,1,10,0:0:0:0:
337,178,169662,1,2,0:0:0:0:
337,178,169749,22,0,P|398:169|449:198,1,100,2|0,0:0|0:0,0:0:0:0:
473,281,170097,1,10,0:0:0:0:
421,74,170272,1,2,0:0:0:0:
254,76,170446,2,0,L|152:76,1,100,10|0,3:2|0:0,0:0:0:0:
0,207,170795,2,0,L|102:207,1,100,2|8,0:0|0:0,0:0:0:0:
231,200,171144,53,2,0:0:0:0:
264,184,171231,1,2,0:0:0:0:
299,176,171318,1,2,0:0:0:0:
335,179,171405,1,2,0:0:0:0:
369,192,171493,1,10,0:0:0:0:
402,207,171580,1,2,0:0:0:0:
438,215,171667,1,2,0:0:0:0:
474,210,171754,1,2,0:0:0:0:
507,192,171842,2,0,P|497:134|465:85,1,100,10|0,3:2|0:0,0:0:0:0:
369,192,172191,1,2,0:0:0:0:
394,318,172365,1,2,0:0:0:0:
394,318,172452,1,2,0:0:0:0:
394,318,172539,5,10,0:0:0:0:
474,210,172714,1,10,0:0:0:0:
292,319,172888,2,0,P|236:322|185:300,1,100,10|2,0:0|0:0,0:0:0:0:
161,170,173237,2,0,P|217:167|268:189,1,100,10|10,3:2|0:0,0:0:0:0:
67,238,173586,2,0,P|41:183|76:98,1,150,10|0,0:0|0:0,0:0:0:0:
104,67,173935,6,2,L|155:18,1,50,10|2,0:0|0:0,0:0:0:0:
268,39,174109,2,2,L|217:88,1,50
365,74,174284,1,2,0:0:0:0:
396,49,174371,1,2,0:0:0:0:
437,45,174458,1,2,0:0:0:0:
473,63,174545,1,2,0:0:0:0:
493,98,174632,2,0,P|500:157|489:209,1,100,10|0,3:2|0:0,0:0:0:0:
439,283,174981,1,2,0:0:0:0:
340,271,175156,1,10,0:0:0:0:
340,271,175243,1,2,0:0:0:0:
340,271,175330,6,0,P|282:274|240:296,1,100,2|0,0:0|0:0,0:0:0:0:
374,363,175679,1,10,0:0:0:0:
397,192,175853,1,2,0:0:0:0:
397,192,175941,1,2,0:0:0:0:
397,192,176028,2,0,P|381:135|351:105,1,100,10|0,3:2|0:0,0:0:0:0:
254,56,176377,1,2,0:0:0:0:
296,192,176551,1,2,0:0:0:0:
296,192,176638,1,2,0:0:0:0:
296,192,176725,6,2,L|237:210,1,50,10|2,0:0|0:0,0:0:0:0:
353,106,176900,2,2,L|406:93,1,50
397,192,177074,2,2,L|387:249,1,50
252,97,177249,2,2,L|264:48,1,50
300,283,177423,2,0,P|264:323|209:336,1,100,10|0,3:2|0:0,0:0:0:0:
114,333,177772,1,2,0:0:0:0:
70,237,177946,1,10,0:0:0:0:
70,237,178034,1,2,0:0:0:0:
70,237,178121,6,0,P|64:172|88:129,1,100,2|0,0:0|0:0,0:0:0:0:
160,72,178470,1,10,0:0:0:0:
245,134,178644,1,2,0:0:0:0:
245,134,178731,1,2,0:0:0:0:
245,134,178818,2,0,P|295:142|346:124,1,100,10|0,3:2|0:0,0:0:0:0:
430,74,179167,2,10,L|446:141,1,50
511,202,179342,2,10,L|502:251,1,50
476,353,179516,6,0,B|427:336|375:353|375:353|365:311|314:270,1,200,10|2,0:0|0:0,0:0:0:0:
209,267,180039,2,0,B|218:207|254:177|254:177|306:159|361:173,1,200,10|2,0:0|0:0,0:0:0:0:
466,177,180562,1,10,0:0:0:0:
378,282,180737,1,2,0:0:0:0:
378,282,180824,1,2,0:0:0:0:
378,282,180912,6,0,P|317:283|281:259,1,100,2|2,0:0|0:0,0:0:0:0:
466,177,181260,2,0,P|504:232|506:278,1,100,10|2,0:0|0:0,0:0:0:0:
451,364,181609,5,10,3:2:0:0:
355,176,181784,1,2,0:0:0:0:
407,356,181958,1,10,0:0:0:0:
311,168,182132,1,10,0:0:0:0:
311,168,182220,1,10,0:0:0:0:
311,168,182307,37,8,0:0:0:0:
205,253,182481,1,0,0:0:0:0:
388,241,182656,1,0,0:0:0:0:
212,128,182830,1,0,0:0:0:0:
295,308,183005,1,8,3:2:0:0:
294,66,183179,1,0,0:0:0:0:
97,195,183353,1,0,0:0:0:0:
295,308,183528,1,0,0:0:0:0:
297,166,183702,53,8,0:0:0:0:
316,151,183789,1,0,0:0:0:0:
339,141,183876,1,0,0:0:0:0:
363,137,183963,1,0,0:0:0:0:
387,138,184050,5,8,0:0:0:0:
411,145,184138,1,0,0:0:0:0:
432,158,184225,1,0,0:0:0:0:
450,174,184312,1,0,3:2:0:0:
463,195,184399,5,8,0:0:0:0:
472,217,184486,1,0,0:0:0:0:
475,242,184574,1,0,0:0:0:0:
472,266,184661,1,0,0:0:0:0:
464,289,184748,5,8,0:0:0:0:
451,310,184835,1,8,0:0:0:0:
434,327,184922,1,8,0:0:0:0:
413,339,185010,1,8,0:0:0:0:
389,347,185097,5,8,0:0:0:0:
87,191,185795,1,2,0:0:0:0:
74,191,186667,5,8,0:0:0:0:
196,56,186842,1,8,0:0:0:0:
195,31,187191,5,2,0:0:0:0:
131,287,187365,1,4,0:0:0:0:
130,307,187888,5,8,0:0:0:0:
195,31,188586,1,2,0:0:0:0:
210,33,189458,5,8,0:0:0:0:
426,90,189632,1,8,0:0:0:0:
427,73,189981,5,2,0:0:0:0:
202,58,190155,1,8,0:0:0:0:
