osu file format v14

[General]
AudioFilename: audio.mp3
AudioLeadIn: 0
PreviewTime: 36496
Countdown: 0
SampleSet: Soft
StackLeniency: 0.7
Mode: 0
LetterboxInBreaks: 0
WidescreenStoryboard: 0

[Editor]
Bookmarks: 6516,44868,59539,62330,95101,109772,144307,162795
DistanceSpacing: 3.2
BeatDivisor: 8
GridSize: 4
TimelineZoom: 1.2

[Metadata]
Title:Ice Cream Cake
TitleUnicode:Ice Cream Cake
Artist:Red Velvet
ArtistUnicode:Red Velvet
Creator:Lilyanna
Version:Hobbes2's Red Velvet Cake
Source:
Tags:missa1912 Ora HB24 Hobbes2 neonat Come[Back]Home kpop k-pop electropop Irene Seul Gi Wendy Joy Yeri S.M.Entertainment KT MUSIC 1st mini album
BeatmapID:1059527
BeatmapSetID:496096

[Difficulty]
HPDrainRate:6.5
CircleSize:4
OverallDifficulty:7.2
ApproachRate:8.5
SliderMultiplier:2.6
SliderTickRate:1

[Events]
//Background and Video events
0,0,"ice_cream_cake_by_hyugadaniela15-d8n7kam.jpg",0,0
//Break Periods
2,59719,60937
2,115532,120065
//Storyboard Layer 0 (Background)
//Storyboard Layer 1 (Fail)
//Storyboard Layer 2 (Pass)
//Storyboard Layer 3 (Foreground)
//Storyboard Sound Samples

[TimingPoints]
915,697.674418604651,4,2,1,70,1,0
37194,-90.9090909090909,4,2,1,70,0,1
48356,-133.333333333333,4,2,1,70,0,1
53240,-90.9090909090909,4,2,1,70,0,1
53938,-133.333333333333,4,2,1,70,0,1
56423,-133.333333333333,4,2,1,5,0,1
56467,-133.333333333333,4,2,1,70,0,1
56598,-133.333333333333,4,2,1,5,0,1
56641,-133.333333333333,4,2,1,70,0,1
56685,-133.333333333333,4,2,1,5,0,1
56728,-90.9090909090909,4,2,1,70,0,1
59519,-100,4,2,1,70,0,0
61612,-83.3333333333333,4,2,1,70,0,0
62310,-100,4,2,1,70,0,0
87426,-90.9090909090909,4,2,1,70,0,1
98589,-133.333333333333,4,2,1,70,0,1
106961,-90.9090909090909,4,2,1,70,0,1
109752,-100,4,2,1,70,0,0
114635,-200,4,2,1,70,0,0
120740,-100,4,2,1,70,0,0
140449,-90.9090909090909,4,2,1,70,0,1
151612,-133.333333333333,4,2,1,70,0,1
156496,-100,4,2,1,70,0,1
157194,-133.333333333333,4,2,1,70,0,1
159984,-100,4,2,1,70,0,1
173938,-133.333333333333,4,2,1,70,0,1
178821,-100,4,2,1,70,0,1
179519,-133.333333333333,4,2,1,70,0,1
181612,-100,4,2,1,70,0,1
185101,-100,4,2,1,70,0,0

[Colours]
Combo1 : 255,150,100
Combo2 : 255,164,209
Combo3 : 255,85,85
Combo4 : 255,136,17
SliderBorder : 255,255,255

[HitObjects]
56,104,6321,5,0,0:0:0:0:
144,184,6496,5,0,1:0:0:0:
192,108,6670,2,0,P|196:80|192:44,1,65,0|0,0:0|0:0,0:0:0:0:
56,104,7019,1,0,3:0:0:0:
144,184,7194,2,0,P|208:196|232:188,1,65,8|0,0:0|0:0,0:0:0:0:
191,43,7542,2,0,P|127:31|103:39,1,65,0|0,3:0|3:0,0:0:0:0:
60,56,7804,1,0,3:0:0:0:
60,56,7891,6,0,P|36:160|56:200,1,130,0|0,3:0|3:0,0:0:0:0:
136,212,8414,1,2,0:0:0:0:
0,296,8589,1,8,0:0:0:0:
108,348,8763,2,0,P|156:360|196:348,1,65,0|0,0:0|0:0,0:0:0:0:
244,264,9112,1,0,3:0:0:0:
136,212,9287,5,0,3:0:0:0:
136,212,9461,2,0,P|128:148|188:96,1,130,0|0,0:0|3:0,0:0:0:0:
172,284,9984,2,0,P|128:292|104:284,1,65,8|0,0:0|0:0,0:0:0:0:
288,204,10333,2,0,P|316:238|321:262,1,65,0|0,3:0|3:0,0:0:0:0:
304,360,10682,5,0,3:0:0:0:
172,284,10856,1,0,3:0:0:0:
288,204,11031,1,0,3:0:0:0:
304,360,11205,1,0,3:0:0:0:
384,296,11380,6,0,L|412:312,1,32.5,8|0,0:0|0:0,0:0:0:0:
400,212,11554,2,0,L|428:228,1,32.5,0|0,3:0|0:0,0:0:0:0:
412,132,11728,2,0,L|440:148,1,32.5,0|0,0:0|0:0,0:0:0:0:
432,56,11903,6,0,P|384:56|332:120,1,130,0|0,0:0|0:0,0:0:0:0:
220,168,12426,1,0,3:0:0:0:
236,12,12601,1,0,3:0:0:0:
432,56,12775,2,0,P|436:108|364:168,1,130,8|0,0:0|3:0,0:0:0:0:
220,168,13298,1,0,3:0:0:0:
244,304,13473,5,0,3:0:0:0:
373,226,13647,2,0,P|385:182|385:146,2,65,0|0|0,3:0|3:0|0:0,0:0:0:0:
348,308,14170,2,0,P|384:332|408:332,1,65,8|0,0:0|3:0,0:0:0:0:
276,192,14519,2,0,P|240:168|216:168,1,65,0|0,3:0|3:0,0:0:0:0:
220,308,14868,5,0,3:0:0:0:
220,308,15217,1,0,0:0:0:0:
132,268,15391,1,0,3:0:0:0:
252,196,15566,2,0,P|296:148|296:108,1,97.5,8|0,0:0|0:0,0:0:0:0:
298,118,15914,1,0,3:0:0:0:
224,32,16089,1,0,3:0:0:0:
224,32,16176,1,0,3:0:0:0:
224,32,16263,5,0,3:0:0:0:
144,80,16438,2,0,P|136:140|136:168,1,65,0|0,3:0|3:0,0:0:0:0:
220,216,16787,1,0,0:0:0:0:
220,216,16874,1,0,0:0:0:0:
220,216,16961,6,0,L|224:268,1,32.5,8|0,0:0|0:0,0:0:0:0:
300,252,17135,2,0,L|312:292,1,32.5,0|0,0:0|0:0,0:0:0:0:
384,276,17310,2,0,L|412:308,1,32.5,0|0,0:0|0:0,0:0:0:0:
456,228,17484,6,0,P|456:132|480:80,1,130,0|0,0:0|0:0,0:0:0:0:
467,101,18182,1,0,3:0:0:0:
340,132,18356,1,10,0:0:0:0:
360,16,18531,1,2,0:0:0:0:
340,132,18705,1,2,0:0:0:0:
360,16,18880,1,2,0:0:0:0:
340,132,19054,6,0,B|336:180|336:180|316:208,2,65,0|0|0,0:0|3:0|3:0,0:0:0:0:
256,64,19577,1,0,0:0:0:0:
200,176,19752,2,0,P|200:224|216:264,1,65,8|0,0:0|3:0,0:0:0:0:
304,288,20101,1,0,3:0:0:0:
112,284,20275,1,0,3:0:0:0:
186,370,20449,5,0,3:0:0:0:
112,284,20624,2,0,B|84:200|84:200|92:152,1,130,0|0,0:0|3:0,0:0:0:0:
176,112,21147,1,8,0:0:0:0:
313,112,21321,1,0,0:0:0:0:
204,32,21496,1,0,3:0:0:0:
248,168,21670,1,0,3:0:0:0:
248,168,21758,1,0,3:0:0:0:
248,168,21845,5,0,3:0:0:0:
316,232,22019,2,0,P|332:264|324:312,1,65,0|0,3:0|3:0,0:0:0:0:
208,352,22368,1,2,0:0:0:0:
116,216,22542,2,0,P|112:236|112:260,1,32.5,8|0,0:0|0:0,0:0:0:0:
52,160,22717,2,0,P|56:140|56:116,1,32.5,0|0,0:0|0:0,0:0:0:0:
128,140,22891,2,0,P|148:144|172:144,1,32.5,2|0,3:0|0:0,0:0:0:0:
32,232,23066,6,0,P|32:284|112:328,1,130,2|0,3:0|0:0,0:0:0:0:
172,248,23589,1,0,0:0:0:0:
208,352,23763,1,0,3:0:0:0:
264,208,23938,2,0,P|284:144|312:124,1,97.5,8|0,0:0|0:0,0:0:0:0:
306,126,24287,1,0,3:0:0:0:
392,224,24461,1,0,3:0:0:0:
392,224,24548,1,0,3:0:0:0:
392,224,24635,5,0,3:0:0:0:
248,280,24810,2,0,P|216:268|192:232,1,65,0|0,3:0|3:0,0:0:0:0:
310,130,25159,1,0,0:0:0:0:
468,224,25333,2,0,P|456:268|440:288,1,65,8|0,0:0|3:0,0:0:0:0:
310,130,25682,2,0,P|354:118|379:122,1,65,0|0,3:0|3:0,0:0:0:0:
311,314,26031,5,0,3:0:0:0:
311,314,26380,1,0,0:0:0:0:
232,228,26554,1,0,3:0:0:0:
127,354,26728,1,8,0:0:0:0:
48,268,26903,2,0,P|36:224|32:188,1,65,0|0,0:0|3:0,0:0:0:0:
124,108,27252,1,0,3:0:0:0:
124,108,27339,1,0,3:0:0:0:
124,108,27426,6,0,P|148:92|188:80,1,65,0|0,3:0|3:0,0:0:0:0:
328,88,27775,2,0,P|344:112|356:152,1,65,0|0,3:0|0:0,0:0:0:0:
312,208,28037,1,0,0:0:0:0:
312,208,28124,2,0,L|308:252,1,32.5,10|0,0:0|0:0,0:0:0:0:
232,244,28298,2,0,L|228:284,1,32.5,2|0,0:0|0:0,0:0:0:0:
152,276,28473,2,0,L|148:312,1,32.5,2|0,0:0|0:0,0:0:0:0:
72,304,28647,2,0,L|64:348,1,32.5,2|0,0:0|0:0,0:0:0:0:
12,248,28821,5,2,0:0:0:0:
164,100,29345,5,2,0:0:0:0:
164,100,29519,2,0,P|224:76|300:84,1,130,0|2,0:0|0:0,0:0:0:0:
356,132,30042,1,0,0:0:0:0:
356,132,30217,2,0,L|372:216,1,65,0|0,0:0|0:0,0:0:0:0:
456,324,30740,1,0,0:0:0:0:
456,324,30914,2,0,B|368:340|368:340|320:316,2,130,2|2|2,0:0|0:0|0:0,0:0:0:0:
384,152,32135,5,2,0:0:0:0:
384,152,32310,2,0,P|332:136|284:200,1,130,0|2,0:0|0:0,0:0:0:0:
224,264,32833,2,0,L|196:192,2,65,0|0|0,0:0|0:0|0:0,0:0:0:0:
128,112,33531,1,0,0:0:0:0:
128,112,33705,2,0,L|92:252,2,130,2|2|2,0:0|0:0|0:0,0:0:0:0:
240,96,34926,5,2,0:0:0:0:
240,96,35101,2,0,B|261:125|284:144|284:144|262:181|256:216,1,130,0|2,0:0|0:0,0:0:0:0:
186,266,35624,1,0,0:0:0:0:
270,350,35798,1,0,0:0:0:0:
372,292,35973,2,0,P|404:248|416:220,1,65,0|0,0:0|3:0,0:0:0:0:
376,132,36321,1,0,3:0:0:0:
268,48,36496,5,0,3:0:0:0:
248,156,36670,1,0,3:0:0:0:
356,16,36845,1,0,3:0:0:0:
168,40,37019,1,0,3:0:0:0:
80,184,37194,6,0,L|72:300,1,107.25000327301,6|0,0:0|0:0,0:0:0:0:
164,336,37542,2,0,L|152:216,1,107.25000327301,2|0,0:0|0:0,0:0:0:0:
224,184,37891,2,0,L|256:268,1,71.5000021820069,8|0,0:0|0:0,0:0:0:0:
328,344,38240,1,0,3:0:0:0:
376,208,38414,1,0,3:0:0:0:
376,208,38502,1,0,0:0:0:0:
376,208,38589,6,0,P|420:216|452:208,1,71.5000021820069,0|0,3:0|3:0,0:0:0:0:
324,112,38938,2,0,P|280:104|248:112,1,71.5000021820069,0|0,3:0|3:0,0:0:0:0:
404,208,39287,2,0,P|432:168|440:72,1,143.000004364014,8|0,0:0|0:0,0:0:0:0:
292,36,39810,1,0,3:0:0:0:
292,36,39897,1,0,3:0:0:0:
292,36,39984,6,0,P|264:56|240:104,1,71.5000021820069,2|0,0:0|0:0,0:0:0:0:
280,200,40333,1,2,0:0:0:0:
244,87,40508,1,0,0:0:0:0:
163,246,40682,2,0,P|144:277|116:298,1,71.5000021820069,10|0,0:0|0:0,0:0:0:0:
16,348,41031,1,2,0:0:0:0:
172,376,41205,1,0,3:0:0:0:
172,376,41292,1,0,0:0:0:0:
172,376,41380,6,0,L|256:364,1,71.5000021820069,0|0,3:0|3:0,0:0:0:0:
300,272,41728,2,0,L|228:260,1,71.5000021820069,0|0,3:0|3:0,0:0:0:0:
264,156,42077,6,0,L|228:180,1,35.7500010910034,0|0,3:0|0:0,0:0:0:0:
192,112,42252,2,0,L|156:136,1,35.7500010910034,0|0,3:0|3:0,0:0:0:0:
120,68,42426,2,0,L|84:92,1,35.7500010910034,0|0,3:0|0:0,0:0:0:0:
48,24,42601,1,0,3:0:0:0:
192,8,42775,5,6,0:0:0:0:
224,0,42862,1,0,0:0:0:0:
256,0,42949,1,2,0:0:0:0:
288,12,43037,1,0,0:0:0:0:
312,32,43124,2,0,P|328:56|336:76,3,35.7500010910034,2|0|2|0,0:0|0:0|0:0|0:0,0:0:0:0:
332,96,43473,2,0,P|320:136|332:180,1,71.5000021820069,8|0,0:0|0:0,0:0:0:0:
496,216,43821,1,0,0:0:0:0:
448,100,43996,1,0,3:0:0:0:
383,222,44170,6,0,L|375:302,1,71.5000021820069,0|0,3:0|3:0,0:0:0:0:
332,96,44519,2,0,L|324:24,1,71.5000021820069,0|0,3:0|3:0,0:0:0:0:
253,198,44868,2,0,L|233:349,1,143.000004364014,8|0,0:0|3:0,0:0:0:0:
106,322,45391,1,0,3:0:0:0:
81,195,45566,5,6,0:0:0:0:
57,175,45653,1,0,0:0:0:0:
41,147,45740,1,0,0:0:0:0:
156,100,45914,1,2,0:0:0:0:
180,120,46001,1,0,0:0:0:0:
196,148,46089,2,0,P|208:188|208:208,2,35.7500010910034,0|0|10,3:0|0:0|0:0,0:0:0:0:
63,38,46438,1,0,0:0:0:0:
63,38,46612,1,2,0:0:0:0:
180,120,46787,1,0,3:0:0:0:
114,222,46961,6,0,P|66:238|22:226,1,71.5000021820069,2|2,0:0|0:0,0:0:0:0:
132,48,47310,2,0,P|180:32|224:44,1,71.5000021820069,2|2,0:0|0:0,0:0:0:0:
284,56,47571,1,0,0:0:0:0:
284,56,47659,2,0,L|304:20,1,35.7500010910034,2|0,0:0|0:0,0:0:0:0:
348,100,47833,2,0,L|373:68,1,35.7500010910034,0|0,3:0|3:0,0:0:0:0:
404,152,48008,2,0,L|435:125,1,35.7500010910034,0|0,3:0|0:0,0:0:0:0:
448,220,48182,1,0,3:0:0:0:
385,340,48356,6,0,P|329:356|277:372,1,97.50000371933,4|0,1:0|0:0,0:0:0:0:
64,280,48880,2,0,P|120:256|164:232,1,97.50000371933,4|0,1:0|0:0,0:0:0:0:
376,84,49403,2,0,P|331:102|287:125,1,97.50000371933,4|0,1:0|0:0,0:0:0:0:
84,96,49926,2,0,P|130:82|177:68,1,97.50000371933,4|0,1:0|0:0,0:0:0:0:
199,188,50449,5,8,0:0:0:0:
287,124,50624,1,0,0:0:0:0:
265,276,50798,1,0,0:0:0:0:
353,212,50973,1,2,3:0:0:0:
353,212,51060,1,0,3:0:0:0:
353,212,51147,6,0,P|383:180|394:119,1,97.50000371933,4|0,1:0|0:0,0:0:0:0:
72,208,51670,2,0,P|84:249|131:290,1,97.50000371933,4|0,1:0|0:0,0:0:0:0:
217,3,52194,2,0,P|174:-6|116:13,1,97.50000371933,4|0,1:0|0:0,0:0:0:0:
322,232,52717,2,0,L|322:116,1,97.50000371933,4|0,1:0|0:0,0:0:0:0:
244,152,53240,6,0,L|216:188,1,35.7500010910034,8|0,0:0|0:0,0:0:0:0:
172,108,53414,2,0,L|136:80,1,35.7500010910034,0|0,0:0|0:0,0:0:0:0:
216,40,53589,2,0,L|244:4,1,35.7500010910034,0|0,3:0|3:0,0:0:0:0:
288,84,53763,2,0,L|324:112,1,35.7500010910034,2|0,3:0|3:0,0:0:0:0:
316,192,53938,6,0,P|332:244|372:284,1,97.50000371933,4|0,1:0|0:0,0:0:0:0:
172,108,54461,2,0,P|156:56|116:16,1,97.50000371933,4|0,1:0|0:0,0:0:0:0:
264,271,54984,2,0,P|300:235|316:175,1,97.50000371933,4|0,1:0|0:0,0:0:0:0:
127,24,55508,2,0,L|107:132,1,97.50000371933,4|0,1:0|0:0,0:0:0:0:
240,72,56031,5,0,0:0:0:0:
216,164,56205,1,0,0:0:0:0:
364,28,56380,1,0,0:0:0:0:
340,120,56554,1,2,3:0:0:0:
344,124,56641,1,0,3:0:0:0:
348,128,56728,6,0,P|368:160|372:196,1,71.5000021820069,2|0,0:0|0:0,0:0:0:0:
210,233,57077,2,0,P|205:195|216:161,1,71.5000021820069,2|0,0:0|0:0,0:0:0:0:
144,144,57339,1,0,0:0:0:0:
144,144,57426,2,0,P|100:128|64:120,1,71.5000021820069,2|0,0:0|0:0,0:0:0:0:
70,281,57775,2,0,P|114:297|150:305,1,71.5000021820069,2|0,0:0|0:0,0:0:0:0:
308,352,58124,5,2,0:0:0:0:
349,363,58211,1,2,0:0:0:0:
377,347,58298,1,2,0:0:0:0:
397,235,58473,1,2,0:0:0:0:
356,224,58560,1,2,0:0:0:0:
328,240,58647,1,2,0:0:0:0:
449,299,58821,6,0,L|489:323,1,35.7500010910034,2|0,0:0|0:0,0:0:0:0:
477,227,58996,2,0,L|525:239,1,35.7500010910034,0|0,0:0|0:0,0:0:0:0:
441,163,59170,2,0,L|481:139,1,35.7500010910034,2|0,0:0|0:0,0:0:0:0:
385,115,59345,2,0,L|417:55,1,35.7500010910034,0|0,0:0|0:0,0:0:0:0:
313,143,59519,5,2,0:0:0:0:
156,172,61612,6,0,P|164:140|180:124,1,38.9999988098145,0|0,1:0|0:0,0:0:0:0:
236,236,61787,2,0,P|204:245|182:239,1,38.9999988098145,0|0,1:0|0:0,0:0:0:0:
247,160,61961,2,0,P|265:152|285:151,1,38.9999988098145,0|0,1:0|0:0,0:0:0:0:
327,223,62136,2,0,P|325:243|316:260,1,38.9999988098145,0|0,3:0|3:0,0:0:0:0:
396,168,62310,6,0,L|408:104,1,65,4|0,0:0|0:0,0:0:0:0:
476,184,62659,2,0,L|488:248,1,65,0|0,0:0|3:0,0:0:0:0:
407,104,63008,1,8,0:0:0:0:
472,184,63182,1,0,0:0:0:0:
488,68,63356,1,0,3:0:0:0:
328,88,63531,1,0,3:0:0:0:
328,88,63618,1,0,3:0:0:0:
328,88,63705,6,0,P|272:96|248:120,1,65,2|0,0:0|3:0,0:0:0:0:
360,204,64054,1,0,3:0:0:0:
464,124,64228,1,0,3:0:0:0:
464,124,64316,1,0,3:0:0:0:
464,124,64403,6,0,L|474:154,1,32.5,8|0,0:0|0:0,0:0:0:0:
480,232,64577,2,0,L|469:262,1,32.5,0|0,3:0|0:0,0:0:0:0:
456,336,64752,2,0,L|466:366,1,32.5,0|0,1:0|0:0,0:0:0:0:
392,284,64926,1,0,1:0:0:0:
264,312,65101,5,0,3:0:0:0:
264,312,65188,1,0,3:0:0:0:
264,312,65275,2,0,P|212:316|184:336,1,65,0|0,3:0|0:0,0:0:0:0:
112,368,65624,1,0,3:0:0:0:
160,200,65798,2,0,P|176:168|200:140,1,65,8|0,0:0|0:0,0:0:0:0:
298,257,66147,2,0,P|282:289|258:317,1,65,0|0,3:0|3:0,0:0:0:0:
112,280,66496,5,0,3:0:0:0:
194,145,66670,1,0,3:0:0:0:
298,257,66845,2,0,P|312:289|318:326,1,65,0|0,3:0|0:0,0:0:0:0:
324,136,67194,2,0,P|324:80|340:44,1,65,8|0,0:0|3:0,0:0:0:0:
424,12,67542,1,2,3:0:0:0:
480,120,67717,1,0,3:0:0:0:
480,120,67804,1,0,3:0:0:0:
480,120,67891,6,0,L|480:156,2,32.5,0|0|0,3:0|0:0|0:0,0:0:0:0:
400,164,68240,2,0,L|408:236,1,65,0|0,0:0|3:0,0:0:0:0:
296,128,68589,2,0,L|312:56,1,65,8|0,0:0|0:0,0:0:0:0:
300,232,68938,1,0,3:0:0:0:
200,264,69112,2,0,P|192:296|196:312,1,32.5,0|0,0:0|0:0,0:0:0:0:
128,232,69287,6,0,P|100:208|88:164,1,65,2|0,0:0|3:0,0:0:0:0:
56,112,69548,1,0,3:0:0:0:
56,112,69635,2,0,L|144:88,1,65,0|0,3:0|0:0,0:0:0:0:
200,100,69984,6,0,L|200:136,1,32.5,8|0,0:0|0:0,0:0:0:0:
272,72,70159,2,0,L|272:28,1,32.5,0|0,3:0|3:0,0:0:0:0:
344,100,70333,2,0,L|344:136,1,32.5,0|0,3:0|0:0,0:0:0:0:
416,72,70508,2,0,L|416:28,1,32.5,0|0,3:0|3:0,0:0:0:0:
488,104,70682,5,4,1:0:0:0:
488,104,70856,2,0,P|480:168|444:232,1,130,0|0,0:0|3:0,0:0:0:0:
356,296,71380,1,8,0:0:0:0:
368,324,71467,1,0,3:0:0:0:
380,352,71554,1,0,3:0:0:0:
264,296,71728,2,0,P|244:260|240:220,1,65,0|0,3:0|3:0,0:0:0:0:
156,192,72077,5,2,3:0:0:0:
140,188,72164,1,2,3:0:0:0:
124,184,72252,1,2,3:0:0:0:
108,180,72339,1,2,3:0:0:0:
92,176,72426,2,0,L|40:164,3,32.5,2|2|2|2,3:0|3:0|3:0|3:0,0:0:0:0:
48,144,72775,2,0,P|64:104|88:80,1,65,8|0,0:0|3:0,0:0:0:0:
156,192,73124,1,2,3:0:0:0:
136,216,73211,1,2,3:0:0:0:
112,232,73298,1,2,3:0:0:0:
84,244,73385,1,2,3:0:0:0:
56,248,73473,5,2,0:0:0:0:
152,304,73647,2,0,P|200:316|284:308,1,130,0|0,0:0|0:0,0:0:0:0:
456,252,74170,1,8,0:0:0:0:
348,200,74345,1,0,0:0:0:0:
392,372,74519,1,0,0:0:0:0:
284,320,74694,2,0,P|255:301|250:296,1,32.5
348,200,74868,5,0,0:0:0:0:
356,231,74955,1,0,0:0:0:0:
364,262,75042,1,0,0:0:0:0:
372,294,75129,1,0,0:0:0:0:
380,325,75217,2,0,L|396:379,3,32.5
448,254,75566,6,0,L|448:210,1,32.5,8|0,0:0|0:0,0:0:0:0:
512,183,75740,2,0,L|512:139,1,32.5,0|0,3:0|0:0,0:0:0:0:
440,149,75914,2,0,L|436:109,1,32.5
512,52,76089,6,0,P|460:68|380:48,1,130,0|0,3:0|0:0,0:0:0:0:
316,8,76612,1,0,0:0:0:0:
324,136,76787,1,0,0:0:0:0:
176,32,76961,2,0,P|124:16|56:80,1,130,8|0,0:0|0:0,0:0:0:0:
112,156,77484,1,0,3:0:0:0:
112,156,77571,1,0,3:0:0:0:
112,156,77659,5,0,3:0:0:0:
48,240,77833,1,0,0:0:0:0:
160,240,78008,1,0,0:0:0:0:
164,244,78096,1,2,3:0:0:0:
168,248,78183,1,2,3:0:0:0:
172,252,78270,1,2,3:0:0:0:
176,256,78356,2,0,P|212:288|244:300,1,65,8|0,0:0|0:0,0:0:0:0:
368,264,78705,1,0,3:0:0:0:
364,260,78793,1,2,3:0:0:0:
360,256,78880,1,2,3:0:0:0:
356,252,78967,1,2,3:0:0:0:
352,248,79054,6,0,P|340:192|384:136,1,130,2|0,0:0|0:0,0:0:0:0:
492,100,79577,1,0,0:0:0:0:
360,48,79752,2,0,P|320:32|292:8,1,65,8|0,0:0|0:0,0:0:0:0:
204,36,80101,2,0,P|177:54|146:65,1,65,0|2,0:0|3:0,0:0:0:0:
72,40,80362,1,2,3:0:0:0:
72,40,80449,2,0,L|68:112,1,65,2|2,3:0|3:0,0:0:0:0:
136,208,80798,2,0,L|160:140,1,65,2|0,3:0|0:0,0:0:0:0:
232,208,81147,6,0,L|228:248,1,32.5,8|0,1:0|0:0,0:0:0:0:
304,248,81321,2,0,L|308:288,1,32.5,0|0,1:0|0:0,0:0:0:0:
384,272,81496,2,0,L|396:304,1,32.5,0|0,1:0|0:0,0:0:0:0:
468,280,81670,1,0,1:0:0:0:
424,160,81845,6,0,B|376:104|376:104|320:100|320:100|272:44,2,195,2|2|2,0:0|0:0|0:0,0:0:0:0:
488,212,83066,2,0,L|496:276,2,65,0|0|2,0:0|0:0|0:0,0:0:0:0:
384,112,83763,1,0,0:0:0:0:
384,112,83938,2,0,P|336:104|256:144,1,130,2|2,0:0|0:0,0:0:0:0:
236,272,84635,6,0,B|228:136|228:136|164:84,2,195,2|2|2,0:0|0:0|0:0,0:0:0:0:
320,288,85856,2,0,L|312:360,2,65,0|0|2,0:0|0:0|0:0,0:0:0:0:
404,240,86380,2,0,L|400:160,1,65,0|0,0:0|0:0,0:0:0:0:
280,68,86728,5,0,3:0:0:0:
166,94,86903,1,0,3:0:0:0:
192,208,87078,1,0,3:0:0:0:
306,182,87252,1,0,3:0:0:0:
166,94,87426,6,0,P|116:108|84:184,1,107.25000327301,6|0,0:0|0:0,0:0:0:0:
48,220,87775,2,0,L|44:108,1,107.25000327301,2|0,0:0|0:0,0:0:0:0:
88,32,88124,2,0,P|147:14|179:18,1,71.5000021820069,4|0,0:0|0:0,0:0:0:0:
164,172,88473,1,0,0:0:0:0:
44,112,88647,1,0,3:0:0:0:
240,160,88821,6,0,P|232:208|204:240,1,71.5000021820069,0|0,3:0|3:0,0:0:0:0:
27,286,89170,2,0,P|35:238|63:206,1,71.5000021820069,0|0,3:0|0:0,0:0:0:0:
228,352,89519,2,0,P|182:369|140:360,1,71.5000021820069,8|0,0:0|0:0,0:0:0:0:
276,272,89868,1,0,3:0:0:0:
300,292,89955,1,0,3:0:0:0:
316,320,90042,1,0,3:0:0:0:
320,352,90130,1,0,3:0:0:0:
316,384,90217,6,0,L|364:312,1,71.5000021820069,2|2,0:0|0:0,0:0:0:0:
488,264,90566,2,0,L|440:336,1,71.5000021820069,2|2,0:0|0:0,0:0:0:0:
316,384,90914,1,8,0:0:0:0:
340,216,91089,2,0,P|380:240|400:268,1,71.5000021820069,0|0,0:0|1:0,0:0:0:0:
316,384,91438,1,0,1:0:0:0:
236,208,91612,6,0,L|224:124,1,71.5000021820069,0|0,3:0|3:0,0:0:0:0:
225,137,91874,1,0,3:0:0:0:
225,137,91961,1,0,3:0:0:0:
116,76,92135,1,0,3:0:0:0:
116,76,92223,1,0,3:0:0:0:
116,76,92310,6,0,L|116:112,1,35.7500010910034,0|0,3:0|0:0,0:0:0:0:
44,172,92484,2,0,L|40:136,1,35.7500010910034,0|0,3:0|3:0,0:0:0:0:
120,184,92659,2,0,L|127:219,1,35.7500010910034,0|0,3:0|0:0,0:0:0:0:
56,284,92833,2,0,L|56:240,1,35.7500010910034,0|0,0:0|0:0,0:0:0:0:
124,316,93008,6,0,P|168:336|200:336,1,71.5000021820069,6|2,0:0|0:0,0:0:0:0:
292,240,93356,2,0,P|248:220|216:220,1,71.5000021820069,2|2,0:0|0:0,0:0:0:0:
360,336,93705,2,0,P|396:296|396:192,1,143.000004364014,12|0,0:0|0:0,0:0:0:0:
304,92,94228,1,0,3:0:0:0:
304,92,94316,1,0,3:0:0:0:
304,92,94403,6,0,L|292:176,1,71.5000021820069,0|0,3:0|3:0,0:0:0:0:
180,272,94752,2,0,P|176:236|188:184,1,71.5000021820069,0|0,3:0|3:0,0:0:0:0:
299,299,95101,2,0,P|332:313|371:349,1,71.5000021820069,8|0,0:0|0:0,0:0:0:0:
436,264,95449,1,0,0:0:0:0:
428,232,95537,1,0,0:0:0:0:
424,200,95624,1,0,3:0:0:0:
428,168,95711,1,0,3:0:0:0:
436,136,95798,6,0,P|464:88|484:76,1,71.5000021820069,2|0,0:0|0:0,0:0:0:0:
435,264,96147,2,0,P|407:312|387:324,1,71.5000021820069,2|0,0:0|0:0,0:0:0:0:
263,197,96496,1,10,0:0:0:0:
294,324,96670,1,0,0:0:0:0:
261,181,96845,1,0,1:0:0:0:
203,340,97019,1,0,1:0:0:0:
112,264,97194,6,0,P|88:220|96:172,1,71.5000021820069,0|0,3:0|3:0,0:0:0:0:
261,181,97542,2,0,P|234:223|189:240,1,71.5000021820069,0|0,3:0|3:0,0:0:0:0:
128,104,97891,1,0,3:0:0:0:
256,80,98066,1,0,3:0:0:0:
87,199,98240,1,0,3:0:0:0:
87,199,98589,6,0,P|148:216|200:200,1,97.50000371933,4|0,1:0|0:0,0:0:0:0:
348,76,99112,2,0,L|316:176,1,97.50000371933,4|0,1:0|0:0,0:0:0:0:
200,332,99635,2,0,P|245:315|293:321,1,97.50000371933,4|0,1:0|3:0,0:0:0:0:
180,216,100159,2,0,P|140:144|144:116,1,97.50000371933,4|0,1:0|0:0,0:0:0:0:
284,44,100682,5,0,0:0:0:0:
236,140,100856,1,0,0:0:0:0:
372,116,101031,1,0,0:0:0:0:
372,116,101118,1,0,3:0:0:0:
372,116,101205,1,2,3:0:0:0:
372,116,101292,1,0,3:0:0:0:
372,116,101380,6,0,L|388:216,1,97.50000371933,4|0,1:0|0:0,0:0:0:0:
148,296,101903,2,0,L|163:199,1,97.50000371933,4|0,1:0|0:0,0:0:0:0:
416,80,102426,2,0,L|404:188,1,97.50000371933,4|0,1:0|0:0,0:0:0:0:
192,332,102949,2,0,L|181:235,1,97.50000371933,4|0,1:0|3:0,0:0:0:0:
288,120,103473,5,8,0:0:0:0:
168,140,103647,1,0,0:0:0:0:
260,220,103821,1,0,3:0:0:0:
284,232,103909,1,0,3:0:0:0:
308,244,103996,1,2,3:0:0:0:
332,256,104083,1,0,3:0:0:0:
356,268,104170,6,0,P|423:276|459:252,1,97.50000371933,4|0,1:0|0:0,0:0:0:0:
180,201,104694,2,0,P|171:268|195:304,1,97.50000371933,4|0,1:0|0:0,0:0:0:0:
272,32,105217,2,0,P|204:23|168:47,1,97.50000371933,4|0,1:0|3:0,0:0:0:0:
448,98,105741,2,0,P|456:30|432:-5,1,97.50000371933,4|0,1:0|0:0,0:0:0:0:
392,156,106263,5,8,0:0:0:0:
472,224,106438,1,0,0:0:0:0:
380,272,106612,1,0,3:0:0:0:
380,272,106699,1,0,3:0:0:0:
380,272,106787,1,2,3:0:0:0:
380,272,106874,1,0,3:0:0:0:
380,272,106961,6,0,P|352:296|300:312,1,71.5000021820069,6|0,0:0|0:0,0:0:0:0:
188,272,107310,2,0,P|208:241|254:212,1,71.5000021820069,2|0,0:0|0:0,0:0:0:0:
380,271,107659,2,0,P|360:301|331:323,1,71.5000021820069,2|0,0:0|0:0,0:0:0:0:
187,272,108008,2,0,P|214:248|247:234,1,71.5000021820069,2|0,0:0|0:0,0:0:0:0:
196,352,108356,5,2,0:0:0:0:
164,348,108444,1,2,0:0:0:0:
136,336,108531,1,2,0:0:0:0:
187,218,108705,1,2,0:0:0:0:
219,222,108793,1,2,0:0:0:0:
247,234,108880,1,2,0:0:0:0:
88,272,109054,6,0,L|40:256,1,35.7500010910034,2|0,0:0|0:0,0:0:0:0:
72,188,109228,2,0,L|24:172,1,35.7500010910034,0|0,3:0|3:0,0:0:0:0:
56,104,109403,2,0,L|8:88,1,35.7500010910034,0|0,3:0|0:0,0:0:0:0:
40,20,109577,2,0,L|-8:4,1,35.7500010910034,0|0,3:0|0:0,0:0:0:0:
180,116,109752,6,0,P|204:84|292:64,1,130,4|0,0:0|0:0,0:0:0:0:
391,159,110449,2,0,P|367:191|279:211,1,130,8|0,0:0|0:0,0:0:0:0:
136,216,111147,5,0,3:0:0:0:
144,244,111234,1,0,3:0:0:0:
152,272,111321,1,0,3:0:0:0:
44,200,111496,1,0,3:0:0:0:
36,172,111583,1,0,3:0:0:0:
28,144,111670,1,0,3:0:0:0:
104,80,111845,2,0,P|136:52|176:40,1,65,4|0,0:0|0:0,0:0:0:0:
324,104,112194,2,0,P|299:69|262:48,1,65,0|0,0:0|0:0,0:0:0:0:
204,168,112542,6,0,P|196:220|228:300,1,130,4|0,0:0|0:0,0:0:0:0:
384,336,113240,2,0,P|408:276|401:212,1,130,8|0,0:0|0:0,0:0:0:0:
280,112,113938,5,0,3:0:0:0:
252,116,114025,1,0,3:0:0:0:
224,108,114112,1,0,3:0:0:0:
320,32,114287,1,0,3:0:0:0:
348,28,114374,1,0,3:0:0:0:
376,36,114461,1,0,3:0:0:0:
336,188,114635,6,0,B|336:224|324:244|324:244|330:262|336:276|336:276|320:300|329:326,1,130
200,168,120740,5,0,3:0:0:0:
200,168,120914,6,0,P|232:192|328:160,1,130,0|8,1:0|0:0,0:0:0:0:
360,72,121438,1,0,3:0:0:0:
162,75,121612,2,0,P|118:115|106:143,1,65,8|0,0:0|3:0,0:0:0:0:
214,231,121961,2,0,L|198:163,1,65,0|0,3:0|3:0,0:0:0:0:
199,167,122223,1,0,3:0:0:0:
199,167,122310,5,0,3:0:0:0:
284,24,122484,1,0,3:0:0:0:
300,132,122659,1,0,3:0:0:0:
162,75,122833,1,0,0:0:0:0:
108,224,123008,2,0,L|92:308,1,65,8|0,0:0|0:0,0:0:0:0:
208,340,123356,1,0,0:0:0:0:
220,348,123531,1,0,3:0:0:0:
348,272,123705,5,0,1:0:0:0:
336,280,123880,1,0,0:0:0:0:
224,232,124054,2,0,P|188:196|180:160,1,65,0|8,0:0|0:0,0:0:0:0:
100,296,124403,2,0,L|88:148,1,130,8|0,0:0|3:0,0:0:0:0:
148,80,124926,1,0,3:0:0:0:
148,80,125013,1,0,3:0:0:0:
148,80,125101,5,0,3:0:0:0:
216,148,125275,2,0,P|256:156|288:148,1,65,0|0,3:0|0:0,0:0:0:0:
364,80,125624,1,0,0:0:0:0:
364,80,125711,1,0,0:0:0:0:
364,80,125798,6,0,L|408:104,1,32.5,8|0,0:0|0:0,0:0:0:0:
356,192,125973,2,0,L|372:164,1,32.5,0|2,0:0|0:0,0:0:0:0:
472,204,126147,2,0,L|428:180,1,32.5,2|0,0:0|0:0,0:0:0:0:
480,92,126322,2,0,L|464:120,1,32.5,0|6,0:0|0:0,0:0:0:0:
400,256,126496,6,0,P|400:300|408:336,1,65,6|0,0:0|0:0,0:0:0:0:
288,264,126845,2,0,P|249:242|214:230,1,65,0|8,0:0|0:0,0:0:0:0:
80,328,127194,2,0,L|204:320,1,97.5,8|0,0:0|3:0,0:0:0:0:
200,340,127542,2,0,P|238:362|273:373,1,65,0|0,3:0|3:0,0:0:0:0:
288,364,127804,1,0,3:0:0:0:
288,364,127891,5,0,3:0:0:0:
288,264,128066,2,0,P|288:219|301:185,2,65,0|0|0,3:0|0:0|3:0,0:0:0:0:
392,168,128589,2,0,P|382:136|365:109,1,65,8|0,0:0|1:0,0:0:0:0:
248,96,128938,1,0,1:0:0:0:
184,192,129112,1,0,3:0:0:0:
184,192,129199,1,0,3:0:0:0:
184,192,129287,6,0,B|192:240|192:240|204:260,1,65,2|0,0:0|0:0,0:0:0:0:
320,312,129635,2,0,B|312:264|312:264|300:244,1,65,0|8,0:0|0:0,0:0:0:0:
92,160,129984,2,0,L|112:288,1,130,8|2,0:0|0:0,0:0:0:0:
188,356,130508,1,0,3:0:0:0:
188,356,130595,1,0,3:0:0:0:
188,356,130682,6,0,P|232:356|264:340,1,65,2|0,0:0|3:0,0:0:0:0:
296,220,131031,1,0,3:0:0:0:
364,316,131205,1,0,3:0:0:0:
364,316,131292,1,0,3:0:0:0:
364,316,131380,6,0,L|368:272,1,32.5,0|0,1:0|1:0,0:0:0:0:
440,272,131554,2,0,L|440:232,1,32.5,0|0,1:0|1:0,0:0:0:0:
372,208,131728,2,0,L|376:164,1,32.5,0|0,1:0|3:0,0:0:0:0:
448,164,131902,2,0,L|448:124,1,32.5,0|0,3:0|3:0,0:0:0:0:
376,96,132077,6,0,P|352:68|248:84,1,130,0|0,3:0|3:0,0:0:0:0:
188,140,132601,1,0,3:0:0:0:
244,292,132775,2,0,L|260:220,1,65,0|0,3:0|3:0,0:0:0:0:
136,280,133124,2,0,L|150:343,1,65,0|2,3:0|0:0,0:0:0:0:
244,384,133473,5,2,0:0:0:0:
258,228,133647,1,0,3:0:0:0:
136,280,133821,1,0,3:0:0:0:
244,384,133996,1,0,0:0:0:0:
340,232,134170,2,0,P|332:192|304:160,1,65,8|0,0:0|0:0,0:0:0:0:
156,168,134519,1,0,0:0:0:0:
216,304,134694,1,0,3:0:0:0:
216,304,134781,1,0,3:0:0:0:
216,304,134868,6,0,P|248:303|277:290,1,65,2|0,0:0|0:0,0:0:0:0:
156,168,135217,2,0,P|112:172|92:184,1,65,0|8,0:0|0:0,0:0:0:0:
277,290,135566,2,0,P|320:241|340:156,1,130,8|2,0:0|0:0,0:0:0:0:
272,88,136089,1,0,3:0:0:0:
272,88,136176,1,0,3:0:0:0:
272,88,136263,6,0,P|216:80|184:92,1,65,2|0,0:0|3:0,0:0:0:0:
280,203,136612,2,0,P|333:184|356:159,1,65,0|8,3:0|0:0,0:0:0:0:
184,172,136961,2,0,P|176:228|188:260,1,65,8|0,0:0|1:0,0:0:0:0:
272,88,137310,2,0,P|253:34|228:11,1,65,0|2,1:0|0:0,0:0:0:0:
112,56,137659,5,2,0:0:0:0:
112,56,137746,1,2,0:0:0:0:
112,56,137833,1,2,0:0:0:0:
60,140,138008,5,2,0:0:0:0:
60,140,138095,1,2,0:0:0:0:
60,140,138182,1,2,0:0:0:0:
76,236,138356,5,2,0:0:0:0:
76,236,138443,1,2,0:0:0:0:
76,236,138530,1,2,0:0:0:0:
148,304,138705,5,2,0:0:0:0:
148,304,138792,1,2,0:0:0:0:
148,304,138879,1,2,0:0:0:0:
244,325,139054,5,2,0:0:0:0:
244,325,139141,1,2,0:0:0:0:
244,325,139228,1,2,0:0:0:0:
329,279,139402,5,2,0:0:0:0:
329,279,139489,1,2,0:0:0:0:
329,279,139576,1,0,0:0:0:0:
384,196,139752,6,0,P|392:152|392:104,1,65,8|0,0:0|3:0,0:0:0:0:
316,56,140101,2,0,P|308:100|308:148,1,65,0|6,3:0|0:0,0:0:0:0:
220,156,140449,6,0,P|132:172|120:184,1,107.25000327301,6|0,0:0|0:0,0:0:0:0:
84,244,140798,2,0,L|80:124,1,107.25000327301,2|0,0:0|0:0,0:0:0:0:
136,84,141147,2,0,L|156:8,1,71.5000021820069,8|0,0:0|0:0,0:0:0:0:
300,60,141496,1,0,3:0:0:0:
216,164,141670,1,0,3:0:0:0:
216,164,141758,1,0,0:0:0:0:
216,164,141845,6,0,P|212:200|232:240,1,71.5000021820069,0|0,3:0|3:0,0:0:0:0:
364,208,142194,2,0,P|334:186|290:183,1,71.5000021820069,0|0,3:0|3:0,0:0:0:0:
252,312,142542,2,0,B|291:306|305:271|305:271|339:315|378:312,1,143.000004364014,8|0,0:0|0:0,0:0:0:0:
394,320,142978,1,0,0:0:0:0:
425,312,143066,1,0,3:0:0:0:
449,291,143153,1,0,3:0:0:0:
466,264,143240,6,0,P|480:224|479:185,1,71.5000021820069,2|0,0:0|0:0,0:0:0:0:
399,116,143589,2,0,P|385:156|386:195,1,71.5000021820069,2|0,0:0|0:0,0:0:0:0:
491,92,143938,2,0,P|470:54|440:29,1,71.5000021820069,10|0,0:0|0:0,0:0:0:0:
466,178,144287,1,2,0:0:0:0:
302,107,144461,1,0,0:0:0:0:
302,107,144548,1,0,0:0:0:0:
302,107,144635,5,2,0:0:0:0:
222,201,144810,1,0,0:0:0:0:
176,56,144984,5,2,0:0:0:0:
200,196,145159,1,0,0:0:0:0:
70,130,145333,5,2,0:0:0:0:
176,192,145508,1,0,0:0:0:0:
302,107,145682,2,0,P|310:63|294:19,1,71.5000021820069,2|0,0:0|3:0,0:0:0:0:
176,56,146031,5,4,0:0:0:0:
168,88,146118,1,0,0:0:0:0:
168,120,146205,1,0,0:0:0:0:
168,152,146292,1,0,0:0:0:0:
176,192,146380,2,0,P|184:220|196:236,3,35.7500010910034,2|0|0|0,0:0|0:0|0:0|0:0,0:0:0:0:
228,248,146728,2,0,B|152:308|152:308|132:368,1,143.000004364014,10|0,0:0|3:0,0:0:0:0:
48,280,147252,1,0,3:0:0:0:
48,280,147339,1,0,3:0:0:0:
48,280,147426,6,0,P|32:236|40:204,1,71.5000021820069,0|0,3:0|3:0,0:0:0:0:
164,124,147775,2,0,P|180:168|172:200,1,71.5000021820069,0|0,3:0|3:0,0:0:0:0:
248,336,148124,2,0,L|264:256,1,71.5000021820069,8|0,0:0|3:0,0:0:0:0:
360,164,148473,1,0,3:0:0:0:
396,288,148647,1,0,3:0:0:0:
396,288,148734,1,0,3:0:0:0:
396,288,148821,6,0,P|428:328|468:348,1,71.5000021820069,6|0,0:0|0:0,0:0:0:0:
360,164,149170,2,0,P|328:124|288:104,1,71.5000021820069,2|0,0:0|3:0,0:0:0:0:
216,200,149519,1,10,0:0:0:0:
154,313,149694,1,0,0:0:0:0:
214,198,149868,1,2,0:0:0:0:
154,313,150042,1,0,0:0:0:0:
136,152,150217,5,2,0:0:0:0:
256,288,150391,1,0,0:0:0:0:
256,288,150478,1,0,0:0:0:0:
256,288,150566,1,2,0:0:0:0:
312,128,150740,1,0,0:0:0:0:
312,128,150827,1,0,0:0:0:0:
312,128,150914,2,0,P|340:88|376:72,1,71.5000021820069,10|0,0:0|0:0,0:0:0:0:
496,104,151263,2,0,P|468:144|432:160,1,71.5000021820069,2|0,0:0|0:0,0:0:0:0:
368,256,151612,6,0,L|472:248,1,97.50000371933,4|0,1:0|0:0,0:0:0:0:
192,200,152135,2,0,L|88:208,1,97.50000371933,4|0,1:0|0:0,0:0:0:0:
352,280,152659,2,0,L|456:272,1,97.50000371933,4|0,1:0|0:0,0:0:0:0:
176,224,153182,2,0,L|72:232,1,97.50000371933,4|0,1:0|0:0,0:0:0:0:
228,148,153705,5,8,0:0:0:0:
136,92,153880,1,0,3:0:0:0:
232,40,154054,1,0,3:0:0:0:
252,32,154141,1,0,3:0:0:0:
272,28,154228,1,2,3:0:0:0:
292,32,154316,1,0,3:0:0:0:
312,40,154403,6,0,P|344:64|360:136,1,97.50000371933,4|0,1:0|0:0,0:0:0:0:
186,230,154926,2,0,P|190:190|245:140,1,97.50000371933,4|0,1:0|0:0,0:0:0:0:
414,245,155449,2,0,P|377:260|306:238,1,97.50000371933,4|0,1:0|0:0,0:0:0:0:
312,40,155972,2,0,P|344:64|360:136,1,97.50000371933,4|0,1:0|3:0,0:0:0:0:
272,164,156496,6,0,L|272:204,1,32.5,0|0,3:0|0:0,0:0:0:0:
196,208,156670,2,0,L|196:260,1,32.5,0|0,3:0|0:0,0:0:0:0:
120,252,156845,2,0,L|120:292,1,32.5,0|0,3:0|3:0,0:0:0:0:
44,296,157019,2,0,L|44:348,1,32.5,2|0,3:0|3:0,0:0:0:0:
48,216,157194,6,0,P|40:172|52:100,1,97.50000371933,4|0,1:0|0:0,0:0:0:0:
220,12,157717,2,0,L|196:128,1,97.50000371933,4|0,1:0|0:0,0:0:0:0:
244,308,158240,2,0,P|256:268|232:204,1,97.50000371933,4|0,1:0|0:0,0:0:0:0:
416,328,158763,2,0,P|492:288|504:272,1,97.50000371933,4|0,1:0|0:0,0:0:0:0:
460,124,159287,5,8,0:0:0:0:
404,208,159461,1,0,3:0:0:0:
348,96,159635,1,0,3:0:0:0:
348,96,159723,1,0,3:0:0:0:
348,96,159810,1,2,3:0:0:0:
348,96,159897,1,0,3:0:0:0:
348,96,159984,6,0,L|280:116,1,65,2|0,0:0|0:0,0:0:0:0:
168,152,160333,2,0,L|240:184,1,65,2|0,0:0|3:0,0:0:0:0:
80,248,160682,1,10,0:0:0:0:
88,100,160856,1,0,0:0:0:0:
80,248,161031,1,2,0:0:0:0:
88,100,161205,1,0,0:0:0:0:
168,300,161380,5,2,0:0:0:0:
248,352,161554,1,0,3:0:0:0:
248,352,161641,1,0,0:0:0:0:
248,352,161728,1,2,0:0:0:0:
344,316,161903,1,0,0:0:0:0:
344,316,161990,1,0,0:0:0:0:
344,316,162077,2,0,P|376:280|388:244,1,65,2|0,0:0|0:0,0:0:0:0:
312,148,162426,2,0,P|288:188|292:232,1,65,2|0,0:0|0:0,0:0:0:0:
168,300,162775,6,0,L|176:192,1,97.5,6|0,0:0|0:0,0:0:0:0:
152,120,163124,2,0,P|128:188|88:208,1,97.5,2|0,0:0|0:0,0:0:0:0:
32,196,163473,2,0,P|28:260|32:280,1,65,10|0,0:0|0:0,0:0:0:0:
164,364,163821,2,0,P|168:300|164:280,1,65,0|0,3:0|3:0,0:0:0:0:
32,196,164170,1,0,3:0:0:0:
152,120,164345,1,0,3:0:0:0:
32,196,164519,1,0,3:0:0:0:
152,120,164694,1,0,3:0:0:0:
56,280,164868,6,0,P|68:324|92:356,1,65,8|0,0:0|0:0,0:0:0:0:
174,180,165217,2,0,P|162:136|138:104,1,65,0|0,3:0|3:0,0:0:0:0:
204,268,165566,5,2,0:0:0:0:
232,256,165653,1,0,0:0:0:0:
252,236,165740,1,0,0:0:0:0:
264,212,165827,1,0,0:0:0:0:
272,184,165914,2,0,P|264:152|260:140,3,32.5,2|0|0|0,0:0|0:0|3:0|0:0,0:0:0:0:
288,112,166263,2,0,L|368:104,1,65,10|0,0:0|0:0,0:0:0:0:
440,176,166612,1,2,0:0:0:0:
392,16,166787,1,0,3:0:0:0:
440,176,166961,2,0,P|448:220|432:268,1,65,2|0,0:0|3:0,0:0:0:0:
304,248,167310,2,0,P|338:219|387:208,1,65,2|0,0:0|0:0,0:0:0:0:
216,280,167659,6,0,L|216:228,1,32.5,2|0,0:0|0:0,0:0:0:0:
140,260,167833,2,0,L|104:260,1,32.5,0|0,3:0|0:0,0:0:0:0:
136,336,168008,2,0,L|136:388,1,32.5,2|0,0:0|0:0,0:0:0:0:
216,356,168182,1,0,3:0:0:0:
304,248,168356,6,0,P|316:204|300:112,1,130,6|2,0:0|0:0,0:0:0:0:
220,60,168880,1,2,0:0:0:0:
404,172,169054,2,0,P|456:204|476:204,1,65,10|0,0:0|0:0,0:0:0:0:
336,67,169403,2,0,P|304:119|304:139,1,65,0|0,3:0|3:0,0:0:0:0:
240,172,169664,1,0,0:0:0:0:
240,172,169752,6,0,P|192:184|168:212,1,65,0|0,3:0|3:0,0:0:0:0:
168,300,170101,2,0,P|216:288|240:260,1,65,0|0,3:0|3:0,0:0:0:0:
80,260,170449,2,0,P|72:304|116:380,1,130,8|0,0:0|3:0,0:0:0:0:
248,380,170973,1,0,3:0:0:0:
248,380,171060,1,0,3:0:0:0:
248,380,171147,6,0,L|312:380,1,65,2|0,0:0|0:0,0:0:0:0:
368,264,171496,1,2,0:0:0:0:
428,352,171670,1,0,3:0:0:0:
452,216,171845,2,0,P|456:172|448:136,1,65,10|0,0:0|0:0,0:0:0:0:
348,96,172194,2,0,P|344:63|348:31,1,65,2|0,0:0|3:0,0:0:0:0:
348,31,172455,1,0,3:0:0:0:
348,31,172542,5,2,0:0:0:0:
232,8,172717,1,0,3:0:0:0:
232,8,172804,1,0,0:0:0:0:
232,8,172891,1,2,0:0:0:0:
164,104,173066,1,0,0:0:0:0:
164,104,173153,1,0,0:0:0:0:
164,104,173240,2,0,P|144:156|144:188,1,65,2|0,0:0|0:0,0:0:0:0:
236,264,173589,2,0,L|224:192,1,65,2|0,0:0|0:0,0:0:0:0:
344,248,173938,6,0,P|372:280|372:352,1,97.50000371933,4|0,1:0|0:0,0:0:0:0:
244,148,174461,2,0,P|216:116|216:44,1,97.50000371933,4|0,1:0|0:0,0:0:0:0:
318,264,174984,2,0,P|330:305|299:370,1,97.50000371933,4|0,1:0|3:0,0:0:0:0:
269,131,175507,2,0,P|257:90|288:25,1,97.50000371933,4|0,1:0|0:0,0:0:0:0:
160,144,176031,5,8,0:0:0:0:
120,52,176205,1,0,3:0:0:0:
60,136,176380,1,0,3:0:0:0:
60,136,176467,1,0,3:0:0:0:
60,136,176554,1,2,3:0:0:0:
60,136,176641,1,0,3:0:0:0:
60,136,176728,6,0,P|64:200|100:232,1,97.50000371933,4|0,1:0|0:0,0:0:0:0:
264,288,177252,2,0,P|271:224|241:186,1,97.50000371933,4|0,1:0|0:0,0:0:0:0:
172,24,177775,2,0,L|160:132,1,97.50000371933,4|0,1:0|0:0,0:0:0:0:
68,324,178298,2,0,L|57:227,1,97.50000371933,4|0,1:0|3:0,0:0:0:0:
112,160,178821,6,0,L|120:128,1,32.5,8|0,0:0|0:0,0:0:0:0:
192,176,178996,2,0,L|212:132,1,32.5,0|0,3:0|0:0,0:0:0:0:
264,216,179170,2,0,L|288:184,1,32.5,0|0,3:0|3:0,0:0:0:0:
332,264,179345,2,0,L|364:236,1,32.5,2|0,3:0|3:0,0:0:0:0:
260,296,179519,6,0,L|156:308,1,97.50000371933,4|0,1:0|0:0,0:0:0:0:
356,242,180042,2,0,L|452:253,1,97.50000371933,4|0,1:0|0:0,0:0:0:0:
208,194,180566,2,0,L|111:182,1,97.50000371933,4|0,1:0|0:0,0:0:0:0:
304,140,181089,2,0,L|400:128,1,97.50000371933,4|0,1:0|0:0,0:0:0:0:
208,88,181612,5,8,0:0:0:0:
268,4,181787,1,0,0:0:0:0:
320,156,181961,1,0,3:0:0:0:
320,156,182048,1,0,3:0:0:0:
320,156,182135,1,2,3:0:0:0:
320,156,182223,1,0,3:0:0:0:
320,156,182310,1,2,0:0:0:0:
338,258,182484,1,0,0:0:0:0:
235,200,182659,5,2,0:0:0:0:
228,319,182833,1,0,0:0:0:0:
119,199,183008,5,0,3:0:0:0:
96,192,183182,1,0,3:0:0:0:
132,72,183356,1,0,3:0:0:0:
155,79,183530,1,0,3:0:0:0:
256,112,183705,5,2,0:0:0:0:
268,104,183792,1,2,0:0:0:0:
280,96,183880,1,2,0:0:0:0:
292,88,183967,1,0,0:0:0:0:
304,80,184054,1,2,0:0:0:0:
316,72,184141,1,2,0:0:0:0:
328,64,184228,1,2,0:0:0:0:
340,56,184316,1,0,0:0:0:0:
352,48,184403,6,0,L|388:28,3,32.5,2|0|0|0,0:0|0:0|0:0|0:0,0:0:0:0:
424,40,184752,2,0,L|456:24,3,32.5,2|0|0|0,0:0|0:0|0:0|0:0,0:0:0:0:
496,36,185101,5,6,0:0:0:0:
