osu file format v14

[General]
AudioFilename: audio.mp3
AudioLeadIn: 0
PreviewTime: 36496
Countdown: 0
SampleSet: Soft
StackLeniency: 0.7
Mode: 0
LetterboxInBreaks: 0
WidescreenStoryboard: 1

[Editor]
Bookmarks: 6516,17659,37194,48356,59519,73473,98589,126496,140449,162775,185101
DistanceSpacing: 0.2
BeatDivisor: 8
GridSize: 4
TimelineZoom: 1.5

[Metadata]
Title:Ice Cream Cake
TitleUnicode:Ice Cream Cake
Artist:Red Velvet
ArtistUnicode:Red Velvet
Creator:Lilyanna
Version:CBH's Ice Cream Cake
Source:
Tags:missa1912 Ora HB24 Hobbes2 neonat Come[Back]Home kpop k-pop electropop Irene Seul Gi Wendy Joy Yeri S.M.Entertainment KT MUSIC 1st mini album
BeatmapID:1084356
BeatmapSetID:496096

[Difficulty]
HPDrainRate:7
CircleSize:4.3
OverallDifficulty:9
ApproachRate:9.2
SliderMultiplier:3
SliderTickRate:1

[Events]
//Background and Video events
0,0,"ice_cream_cake_by_hyugadaniela15-d8n7kam.jpg",0,0
//Break Periods
2,115533,120170
//Storyboard Layer 0 (Background)
//Storyboard Layer 1 (Fail)
//Storyboard Layer 2 (Pass)
//Storyboard Layer 3 (Foreground)
//Storyboard Sound Samples

[TimingPoints]
915,697.674418604651,4,2,1,70,1,0
37194,-80,4,2,1,70,0,1
48356,-133.333333333333,4,2,1,70,0,1
53240,-90.9090909090909,4,2,1,70,0,1
53938,-133.333333333333,4,2,1,70,0,1
56423,-133.333333333333,4,2,1,5,0,1
56467,-133.333333333333,4,2,1,70,0,1
56598,-133.333333333333,4,2,1,5,0,1
56641,-133.333333333333,4,2,1,70,0,1
56685,-133.333333333333,4,2,1,5,0,1
56728,-90.9090909090909,4,2,1,70,0,1
59519,-100,4,2,1,70,0,0
61612,-83.3333333333333,4,2,1,70,0,0
62310,-100,4,2,1,70,0,0
87426,-90.9090909090909,4,2,1,70,0,1
98589,-133.333333333333,4,2,1,70,0,1
106961,-90.9090909090909,4,2,1,70,0,1
109752,-100,4,2,1,70,0,0
140449,-90.9090909090909,4,2,1,70,0,1
151612,-133.333333333333,4,2,1,70,0,1
156496,-100,4,2,1,70,0,1
157194,-133.333333333333,4,2,1,70,0,1
159984,-100,4,2,1,70,0,1
162775,-90.9090909090909,4,2,1,70,0,1
173938,-133.333333333333,4,2,1,70,0,1
178821,-100,4,2,1,70,0,1
179519,-133.333333333333,4,2,1,70,0,1
181612,-100,4,2,1,70,0,1
185101,-100,4,2,1,70,0,0

[Colours]
Combo1 : 255,150,100
Combo2 : 255,164,209
Combo3 : 255,85,85
Combo4 : 255,136,17

[HitObjects]
65,59,6321,5,0,0:0:0:0:
279,115,6496,1,0,1:0:0:0:
176,258,6670,1,0,0:0:0:0:
211,62,6845,1,0,0:0:0:0:
356,172,7019,1,0,3:0:0:0:
198,165,7194,2,0,L|111:169,1,75,8|0,0:0|0:0,0:0:0:0:
55,227,7542,5,0,3:0:0:0:
149,82,7717,1,0,3:0:0:0:
149,82,7804,1,0,3:0:0:0:
149,82,7891,1,0,3:0:0:0:
267,284,8066,1,0,3:0:0:0:
159,104,8240,1,0,3:0:0:0:
106,295,8414,1,2,0:0:0:0:
262,149,8589,2,0,P|270:111|264:69,1,75,8|0,0:0|0:0,0:0:0:0:
191,23,8938,1,0,0:0:0:0:
377,116,9112,1,0,3:0:0:0:
399,113,9199,1,0,3:0:0:0:
421,110,9287,5,0,3:0:0:0:
302,245,9461,2,0,L|206:237,1,75
53,90,9810,2,0,L|149:82,1,75,0|8,3:0|0:0,0:0:0:0:
201,30,10159,1,0,0:0:0:0:
101,268,10333,1,0,3:0:0:0:
53,90,10508,1,0,3:0:0:0:
53,90,10595,1,0,3:0:0:0:
53,90,10682,5,0,3:0:0:0:
259,191,10856,1,0,3:0:0:0:
54,189,11031,1,0,3:0:0:0:
259,64,11205,1,0,3:0:0:0:
259,64,11292,1,0,3:0:0:0:
259,64,11380,1,8,0:0:0:0:
272,295,11554,1,0,3:0:0:0:
121,88,11728,5,0,0:0:0:0:
430,206,11903,1,0,0:0:0:0:
212,340,12077,6,0,P|198:301|272:221,1,150,6|0,0:0|3:0,0:0:0:0:
346,244,12601,1,0,3:0:0:0:
233,43,12775,2,0,L|237:129,1,75,8|0,0:0|0:0,0:0:0:0:
79,290,13124,2,0,L|82:215,1,75,0|0,3:0|3:0,0:0:0:0:
66,173,13385,1,0,3:0:0:0:
66,173,13473,5,0,3:0:0:0:
232,243,13647,1,0,3:0:0:0:
201,73,13821,1,0,3:0:0:0:
239,274,13996,1,0,0:0:0:0:
329,141,14170,2,0,L|420:149,1,75,8|0,0:0|3:0,0:0:0:0:
467,83,14519,1,0,3:0:0:0:
350,244,14694,1,0,3:0:0:0:
354,265,14781,1,0,3:0:0:0:
359,286,14868,6,0,L|206:276,1,150,0|0,3:0|0:0,0:0:0:0:
133,325,15391,1,0,3:0:0:0:
254,75,15566,2,0,P|271:113|269:158,1,75,8|0,0:0|0:0,0:0:0:0:
202,203,15914,1,0,3:0:0:0:
370,40,16089,1,0,3:0:0:0:
370,40,16176,1,0,3:0:0:0:
370,40,16263,5,0,3:0:0:0:
465,192,16438,1,0,3:0:0:0:
352,293,16612,2,0,L|361:202,1,75,0|0,3:0|0:0,0:0:0:0:
347,174,16874,1,0,0:0:0:0:
347,174,16961,1,8,0:0:0:0:
458,295,17135,1,0,0:0:0:0:
314,149,17310,1,0,0:0:0:0:
267,360,17484,1,0,0:0:0:0:
120,242,17659,6,0,L|128:151,1,75,0|0,3:0|0:0,0:0:0:0:
154,132,17920,1,0,0:0:0:0:
154,132,18008,1,0,0:0:0:0:
269,231,18182,1,0,3:0:0:0:
83,34,18356,2,0,L|121:30,1,37.5,10|0,0:0|0:0,0:0:0:0:
223,64,18531,2,0,L|285:72,1,37.5,2|0,0:0|0:0,0:0:0:0:
496,202,18705,2,0,L|458:206,1,37.5,2|0,0:0|0:0,0:0:0:0:
356,173,18880,2,0,L|294:165,1,37.5,2|0,0:0|0:0,0:0:0:0:
441,81,19054,5,0,0:0:0:0:
375,292,19228,1,0,3:0:0:0:
437,103,19403,1,0,3:0:0:0:
369,315,19577,1,0,0:0:0:0:
246,165,19752,2,0,P|284:157|335:181,1,75,8|0,0:0|3:0,0:0:0:0:
152,104,20101,2,0,P|113:111|62:87,1,75,0|0,3:0|3:0,0:0:0:0:
48,69,20362,1,0,3:0:0:0:
48,69,20449,5,0,3:0:0:0:
153,194,20624,2,0,B|156:244|156:244|148:279,1,75
59,362,20973,1,0,3:0:0:0:
112,116,21147,2,0,P|164:105|211:130,1,75,8|0,0:0|0:0,0:0:0:0:
320,277,21496,1,0,3:0:0:0:
350,70,21670,1,0,3:0:0:0:
341,41,21758,1,0,3:0:0:0:
332,12,21845,5,0,3:0:0:0:
433,196,22019,1,0,3:0:0:0:
218,95,22194,1,0,3:0:0:0:
269,304,22368,2,0,L|255:364,1,37.5,2|0,0:0|0:0,0:0:0:0:
248,222,22542,2,0,P|292:222|329:248,1,75,8|0,0:0|0:0,0:0:0:0:
108,290,22891,5,2,3:0:0:0:
334,57,23066,1,2,3:0:0:0:
99,267,23240,6,0,B|116:203|77:152|77:152|67:184,1,150,4|0,0:0|0:0,0:0:0:0:
15,308,23763,1,0,3:0:0:0:
201,211,23938,2,0,L|295:223,1,75,8|0,0:0|0:0,0:0:0:0:
371,305,24287,1,0,3:0:0:0:
443,87,24461,1,0,3:0:0:0:
431,58,24548,1,0,3:0:0:0:
421,29,24635,5,0,3:0:0:0:
293,205,24810,1,0,3:0:0:0:
112,127,24984,1,0,3:0:0:0:
313,204,25159,1,0,0:0:0:0:
124,287,25333,2,0,P|86:289|46:323,1,75,8|0,0:0|3:0,0:0:0:0:
196,355,25682,1,0,3:0:0:0:
215,157,25856,1,0,3:0:0:0:
215,157,25944,1,0,3:0:0:0:
215,157,26031,5,0,3:0:0:0:
215,157,26380,1,0,0:0:0:0:
311,280,26554,1,0,3:0:0:0:
386,117,26728,2,0,L|373:27,1,75,8|0,0:0|0:0,0:0:0:0:
464,183,27077,1,0,3:0:0:0:
290,76,27252,1,0,3:0:0:0:
284,46,27339,1,0,3:0:0:0:
278,16,27426,5,0,3:0:0:0:
190,230,27601,1,0,3:0:0:0:
290,76,27775,1,0,3:0:0:0:
332,337,27949,1,0,0:0:0:0:
111,312,28124,2,0,L|101:262,1,37.5,10|0,0:0|0:0,0:0:0:0:
111,72,28298,2,0,L|101:122,1,37.5,2|0,0:0|0:0,0:0:0:0:
104,313,28473,2,0,L|94:263,1,37.5,2|0,0:0|0:0,0:0:0:0:
104,71,28647,2,0,L|94:121,1,37.5,2|0,0:0|0:0,0:0:0:0:
52,194,28821,5,2,0:0:0:0:
233,249,29345,1,2,0:0:0:0:
230,263,29519,1,0,0:0:0:0:
403,318,29868,1,2,0:0:0:0:
400,304,30042,1,0,0:0:0:0:
295,349,30217,5,0,0:0:0:0:
387,114,30740,1,0,0:0:0:0:
390,100,30914,1,2,0:0:0:0:
287,186,31263,1,2,0:0:0:0:
393,86,31612,5,2,0:0:0:0:
195,59,32135,1,2,0:0:0:0:
181,56,32309,1,0,0:0:0:0:
43,132,32659,1,2,0:0:0:0:
57,135,32833,1,0,0:0:0:0:
84,43,33008,5,0,0:0:0:0:
237,225,33531,1,0,0:0:0:0:
234,239,33705,1,2,0:0:0:0:
312,327,34054,1,2,0:0:0:0:
240,210,34403,5,2,0:0:0:0:
441,272,34926,1,2,0:0:0:0:
455,276,35100,1,0,0:0:0:0:
366,371,35449,1,2,0:0:0:0:
352,368,35623,1,0,0:0:0:0:
452,362,35798,5,0,0:0:0:0:
277,277,36147,1,0,3:0:0:0:
262,273,36234,1,0,3:0:0:0:
243,273,36321,1,0,3:0:0:0:
224,276,36409,1,0,3:0:0:0:
190,298,36496,5,0,3:0:0:0:
167,317,36583,1,0,3:0:0:0:
136,332,36670,1,0,3:0:0:0:
98,330,36758,1,0,3:0:0:0:
64,313,36845,1,0,3:0:0:0:
36,281,36932,1,0,3:0:0:0:
26,241,37019,1,0,3:0:0:0:
36,197,37106,1,0,3:0:0:0:
64,155,37194,6,0,L|140:160,1,46.875,6|0,0:0|0:0,0:0:0:0:
230,99,37368,2,0,L|276:102,1,46.875,2|0,0:0|0:0,0:0:0:0:
467,214,37542,2,0,L|391:209,1,46.875,2|0,0:0|0:0,0:0:0:0:
311,267,37716,2,0,L|264:263,1,46.875,2|0,0:0|0:0,0:0:0:0:
64,155,37891,2,0,L|172:162,1,93.75,8|0,0:0|0:0,0:0:0:0:
157,161,38240,1,0,3:0:0:0:
122,336,38414,1,0,3:0:0:0:
122,336,38502,1,0,3:0:0:0:
122,336,38589,6,0,L|114:280,1,46.875,0|0,3:0|0:0,0:0:0:0:
18,180,38763,2,0,L|26:124,1,46.875,0|0,3:0|0:0,0:0:0:0:
222,65,38938,1,0,3:0:0:0:
226,81,39025,1,0,3:0:0:0:
229,96,39112,1,0,3:0:0:0:
231,111,39199,1,0,3:0:0:0:
239,154,39287,2,0,P|295:162|338:152,1,93.75,8|0,0:0|0:0,0:0:0:0:
408,38,39635,1,0,0:0:0:0:
427,234,39810,1,0,3:0:0:0:
424,261,39897,1,0,3:0:0:0:
421,288,39984,5,2,0:0:0:0:
175,320,40159,1,0,0:0:0:0:
481,353,40333,1,2,0:0:0:0:
136,247,40508,1,0,0:0:0:0:
456,212,40682,1,10,0:0:0:0:
235,368,40856,1,0,0:0:0:0:
512,317,41031,2,0,L|508:256,1,46.875,2|0,0:0|0:0,0:0:0:0:
338,58,41205,2,0,L|334:104,1,46.875,0|0,3:0|0:0,0:0:0:0:
207,185,41380,5,0,3:0:0:0:
449,70,41554,1,0,3:0:0:0:
449,70,41641,1,0,3:0:0:0:
449,70,41728,1,0,3:0:0:0:
419,319,41903,1,0,3:0:0:0:
419,319,41990,1,0,3:0:0:0:
419,319,42077,1,0,3:0:0:0:
282,45,42252,1,0,3:0:0:0:
282,45,42339,1,0,3:0:0:0:
282,45,42426,1,0,3:0:0:0:
169,351,42601,1,0,3:0:0:0:
169,351,42688,1,0,3:0:0:0:
169,351,42775,6,0,L|164:266,1,46.875,6|0,0:0|0:0,0:0:0:0:
267,209,42949,2,0,L|265:256,1,46.875,2|0,0:0|0:0,0:0:0:0:
50,158,43124,2,0,L|45:73,1,46.875,2|0,0:0|0:0,0:0:0:0:
148,16,43298,2,0,L|146:63,1,46.875,2|0,0:0|0:0,0:0:0:0:
174,218,43473,2,0,L|277:208,1,93.75,8|0,0:0|0:0,0:0:0:0:
363,266,43821,1,0,0:0:0:0:
415,67,43996,1,0,3:0:0:0:
415,67,44083,1,0,3:0:0:0:
415,67,44170,6,0,L|425:121,1,46.875,0|0,3:0|3:0,0:0:0:0:
451,242,44345,1,0,3:0:0:0:
295,16,44519,2,0,L|305:70,1,46.875,0|0,3:0|3:0,0:0:0:0:
451,242,44694,1,0,3:0:0:0:
177,9,44868,2,0,L|205:148,1,140.625,8|0,0:0|0:0,0:0:0:0:
204,146,45217,2,0,L|196:197,1,46.875,0|0,3:0|3:0,0:0:0:0:
337,343,45391,2,0,L|328:296,1,46.875,0|0,3:0|3:0,0:0:0:0:
382,192,45566,5,6,0:0:0:0:
211,279,45740,1,0,0:0:0:0:
440,250,45914,1,2,0:0:0:0:
196,193,46089,1,0,3:0:0:0:
459,328,46263,1,10,0:0:0:0:
224,113,46438,1,0,0:0:0:0:
380,372,46612,1,2,0:0:0:0:
291,65,46787,1,0,3:0:0:0:
291,65,46874,1,0,3:0:0:0:
291,65,46961,6,0,P|325:67|351:60,1,46.875,2|0,0:0|0:0,0:0:0:0:
492,148,47135,2,0,P|458:146|432:153,1,46.875,2|0,0:0|0:0,0:0:0:0:
343,229,47310,2,0,L|351:283,1,46.875,2|0,0:0|0:0,0:0:0:0:
202,352,47484,2,0,L|208:305,1,46.875,2|0,0:0|0:0,0:0:0:0:
118,143,47659,2,0,L|125:190,1,46.875,2|0,0:0|0:0,0:0:0:0:
186,44,47833,1,0,3:0:0:0:
186,44,47920,1,0,3:0:0:0:
186,44,48008,1,0,3:0:0:0:
37,236,48182,1,0,3:0:0:0:
37,236,48269,1,0,3:0:0:0:
37,236,48356,6,0,L|50:311,1,56.2500021457673,4|0,1:0|0:0,0:0:0:0:
101,348,48705,1,0,0:0:0:0:
216,229,48880,2,0,P|251:225|281:232,1,56.2500021457673,4|0,1:0|0:0,0:0:0:0:
319,290,49228,1,0,0:0:0:0:
445,191,49403,2,0,L|438:130,1,56.2500021457673,4|0,1:0|0:0,0:0:0:0:
479,67,49752,1,0,0:0:0:0:
292,42,49926,6,0,L|306:158,1,112.500004291535,4|0,1:0|0:0,0:0:0:0:
263,220,50449,1,8,0:0:0:0:
402,235,50624,1,0,0:0:0:0:
256,104,50798,1,0,0:0:0:0:
236,108,50885,1,0,3:0:0:0:
216,112,50973,1,2,3:0:0:0:
197,117,51060,1,0,3:0:0:0:
177,121,51147,6,0,L|119:135,1,56.2500021457673,4|0,1:0|0:0,0:0:0:0:
45,152,51496,1,0,0:0:0:0:
186,333,51670,2,0,P|193:295|192:272,1,56.2500021457673,4|0,1:0|0:0,0:0:0:0:
174,200,52019,1,0,0:0:0:0:
283,80,52194,2,0,L|355:85,1,56.2500021457673,4|0,1:0|0:0,0:0:0:0:
409,49,52542,1,0,0:0:0:0:
471,223,52717,6,0,B|432:240|432:240|358:229,1,112.500004291535,4|0,1:0|0:0,0:0:0:0:
343,226,53153,1,0,0:0:0:0:
343,226,53240,1,8,0:0:0:0:
260,145,53414,1,0,0:0:0:0:
177,225,53589,2,0,L|182:270,3,41.2500012588501,0|0|2|0,3:0|3:0|3:0|3:0,0:0:0:0:
286,346,53938,6,0,L|293:286,1,56.2500021457673,4|0,1:0|0:0,0:0:0:0:
366,263,54287,1,0,0:0:0:0:
366,106,54461,2,0,P|327:113|297:107,1,56.2500021457673,4|0,1:0|0:0,0:0:0:0:
241,72,54810,1,0,0:0:0:0:
56,28,54984,2,0,L|66:101,1,56.2500021457673,4|0,1:0|0:0,0:0:0:0:
40,159,55333,1,0,0:0:0:0:
150,294,55508,6,0,L|285:275,1,112.500004291535,4|0,1:0|0:0,0:0:0:0:
280,274,55944,1,0,0:0:0:0:
280,274,56031,1,0,0:0:0:0:
399,361,56205,1,0,0:0:0:0:
477,177,56380,1,0,0:0:0:0:
457,175,56467,1,0,3:0:0:0:
437,173,56554,1,2,3:0:0:0:
417,171,56641,1,0,3:0:0:0:
398,170,56728,6,0,L|312:163,1,82.5000025177003,2|0,0:0|0:0,0:0:0:0:
90,62,57077,2,0,L|172:55,1,82.5000025177003,2|0,0:0|0:0,0:0:0:0:
315,163,57426,2,0,P|326:211|322:259,1,82.5000025177003,2|0,0:0|0:0,0:0:0:0:
123,358,57775,2,0,P|112:310|116:262,1,82.5000025177003,2|0,0:0|0:0,0:0:0:0:
295,86,58124,6,0,L|339:93,2,41.2500012588501,2|2|2,0:0|0:0|0:0,0:0:0:0:
155,190,58473,2,0,L|111:197,2,41.2500012588501,2|2|2,0:0|0:0|0:0,0:0:0:0:
266,283,58821,2,0,L|353:307,1,82.5000025177003,2|0,0:0|0:0,0:0:0:0:
155,190,59170,2,0,L|73:203,1,82.5000025177003,2|0,0:0|0:0,0:0:0:0:
171,109,59519,5,2,0:0:0:0:
266,154,59694,1,0,0:0:0:0:
150,114,59868,1,2,0:0:0:0:
281,141,60042,1,0,0:0:0:0:
128,119,60217,1,2,0:0:0:0:
294,129,60391,1,0,0:0:0:0:
109,121,60566,1,2,0:0:0:0:
306,117,60740,1,0,0:0:0:0:
178,253,60914,5,2,0:0:0:0:
228,49,61089,1,0,0:0:0:0:
192,276,61263,1,2,0:0:0:0:
204,32,61438,1,0,0:0:0:0:
341,306,61612,5,0,1:0:0:0:
252,63,61787,1,0,1:0:0:0:
330,282,61961,1,0,1:0:0:0:
387,76,62135,1,0,3:0:0:0:
387,76,62223,1,0,3:0:0:0:
387,76,62310,6,0,L|375:156,1,75,4|0,0:0|0:0,0:0:0:0:
423,227,62659,1,0,0:0:0:0:
289,97,62833,1,0,3:0:0:0:
156,249,63008,2,0,B|206:243|206:243|241:249|241:249|308:242,1,150,8|0,0:0|3:0,0:0:0:0:
375,298,63531,2,0,L|421:285,1,37.5,0|0,3:0|3:0,0:0:0:0:
427,281,63705,6,0,L|414:191,1,75,2|0,0:0|3:0,0:0:0:0:
455,125,64054,1,0,3:0:0:0:
234,47,64228,1,0,3:0:0:0:
247,46,64316,1,0,3:0:0:0:
260,46,64403,1,8,0:0:0:0:
185,207,64577,1,0,3:0:0:0:
81,36,64752,1,0,1:0:0:0:
281,132,64926,1,0,1:0:0:0:
112,291,65101,5,0,3:0:0:0:
112,291,65188,1,0,3:0:0:0:
112,291,65275,1,0,3:0:0:0:
175,113,65449,2,0,L|171:37,1,75,0|0,0:0|3:0,0:0:0:0:
90,197,65798,1,8,0:0:0:0:
271,276,65973,1,0,0:0:0:0:
199,63,66147,2,0,L|202:137,1,75,0|0,3:0|3:0,0:0:0:0:
203,148,66409,1,0,3:0:0:0:
204,161,66496,5,0,3:0:0:0:
133,285,66670,1,0,3:0:0:0:
216,319,66845,1,0,3:0:0:0:
95,209,67019,1,0,0:0:0:0:
150,359,67194,1,8,0:0:0:0:
286,166,67368,1,0,3:0:0:0:
152,68,67542,1,2,3:0:0:0:
302,269,67717,2,0,L|341:261,1,37.5,0|0,3:0|3:0,0:0:0:0:
382,253,67891,5,0,3:0:0:0:
382,253,67978,1,0,0:0:0:0:
382,253,68066,1,0,0:0:0:0:
230,347,68240,1,0,0:0:0:0:
454,291,68414,1,0,3:0:0:0:
176,290,68589,1,8,0:0:0:0:
454,211,68763,1,0,0:0:0:0:
230,347,68938,1,0,3:0:0:0:
398,151,69112,2,0,L|355:143,1,37.5
350,140,69287,6,0,L|263:148,1,75,2|0,0:0|3:0,0:0:0:0:
268,138,69548,1,0,3:0:0:0:
268,138,69635,1,0,3:0:0:0:
103,249,69810,2,0,L|111:335,1,75,0|8,0:0|0:0,0:0:0:0:
283,224,70159,1,0,3:0:0:0:
300,221,70246,1,0,3:0:0:0:
317,218,70333,1,0,3:0:0:0:
144,84,70508,2,0,L|149:131,1,37.5,0|0,3:0|3:0,0:0:0:0:
149,137,70682,6,0,L|135:216,1,75,4|0,1:0|0:0,0:0:0:0:
74,276,71031,1,0,0:0:0:0:
259,354,71205,1,0,3:0:0:0:
257,169,71380,1,8,0:0:0:0:
257,169,71467,1,0,3:0:0:0:
257,169,71554,1,0,3:0:0:0:
150,340,71728,1,0,3:0:0:0:
72,120,71903,2,0,L|114:124,1,37.5,0|0,3:0|3:0,0:0:0:0:
151,139,72077,5,2,3:0:0:0:
173,178,72164,1,2,3:0:0:0:
170,223,72252,1,2,3:0:0:0:
195,260,72339,1,2,3:0:0:0:
239,268,72426,1,2,3:0:0:0:
287,247,72513,1,2,3:0:0:0:
314,201,72601,1,2,3:0:0:0:
298,151,72688,1,2,3:0:0:0:
317,102,72775,1,8,0:0:0:0:
394,267,72949,1,0,3:0:0:0:
317,102,73124,2,0,L|261:108,1,37.5,2|2,3:0|3:0,0:0:0:0:
227,111,73298,1,2,3:0:0:0:
227,111,73385,1,2,3:0:0:0:
227,111,73473,6,0,P|250:158|191:236,1,150,2|0,0:0|0:0,0:0:0:0:
98,257,73996,1,0,0:0:0:0:
284,342,74170,2,0,L|390:328,1,75,8|0,0:0|0:0,0:0:0:0:
465,145,74519,1,0,0:0:0:0:
281,43,74694,2,0,L|291:101,1,37.5,0|0,3:0|3:0,0:0:0:0:
284,124,74868,5,2,3:0:0:0:
253,156,74955,1,2,3:0:0:0:
209,166,75042,1,2,3:0:0:0:
164,159,75130,1,2,3:0:0:0:
128,131,75217,1,2,3:0:0:0:
150,178,75304,1,2,3:0:0:0:
138,229,75391,1,2,3:0:0:0:
109,272,75478,1,2,3:0:0:0:
60,294,75566,5,8,0:0:0:0:
332,354,75740,1,0,3:0:0:0:
85,301,75914,1,0,0:0:0:0:
374,201,76089,1,0,3:0:0:0:
214,346,76263,6,0,L|207:184,1,150,6|0,0:0|0:0,0:0:0:0:
123,132,76787,1,0,0:0:0:0:
250,268,76961,2,0,P|302:275|345:264,1,75,8|0,0:0|0:0,0:0:0:0:
410,211,77310,1,0,0:0:0:0:
243,73,77484,2,0,L|250:113,1,37.5,0|0,3:0|3:0,0:0:0:0:
253,125,77659,5,0,3:0:0:0:
88,242,77833,2,0,L|97:144,1,75
125,123,78095,1,2,3:0:0:0:
143,155,78182,1,2,3:0:0:0:
162,186,78269,1,2,3:0:0:0:
182,217,78356,2,0,L|271:207,1,75,8|0,0:0|0:0,0:0:0:0:
456,279,78705,2,0,L|406:275,1,37.5,0|2,3:0|3:0,0:0:0:0:
365,270,78880,1,2,3:0:0:0:
365,270,78967,1,2,3:0:0:0:
365,270,79054,6,0,B|370:231|370:231|362:171|362:171|371:116,1,150,2|0,0:0|0:0,0:0:0:0:
436,39,79577,1,0,0:0:0:0:
261,173,79752,2,0,L|160:161,1,75,8|0,0:0|0:0,0:0:0:0:
115,86,80101,1,0,0:0:0:0:
201,300,80275,1,2,3:0:0:0:
201,300,80362,1,2,3:0:0:0:
201,300,80449,6,0,L|194:254,1,37.5,2|2,3:0|3:0,0:0:0:0:
306,78,80624,2,0,L|300:115,1,37.5,2|2,3:0|3:0,0:0:0:0:
279,270,80798,2,0,P|298:273|319:270,1,37.5,2|2,3:0|3:0,0:0:0:0:
230,85,80973,2,0,P|211:82|190:85,1,37.5
179,89,81147,5,8,1:0:0:0:
363,190,81321,1,0,1:0:0:0:
196,99,81496,1,0,1:0:0:0:
317,335,81670,1,0,1:0:0:0:
454,150,81845,5,2,0:0:0:0:
223,251,82368,1,2,0:0:0:0:
208,249,82542,1,2,0:0:0:0:
76,147,82891,1,2,0:0:0:0:
90,144,83066,1,0,0:0:0:0:
206,52,83240,5,0,0:0:0:0:
367,182,83763,1,0,0:0:0:0:
362,196,83938,1,2,0:0:0:0:
423,330,84287,1,2,0:0:0:0:
234,234,84635,5,2,0:0:0:0:
323,82,85159,1,2,0:0:0:0:
337,83,85333,1,2,0:0:0:0:
457,232,85682,1,2,0:0:0:0:
443,237,85856,1,0,0:0:0:0:
268,164,86031,5,0,0:0:0:0:
124,317,86380,6,0,L|127:228,1,75
69,154,86728,1,0,3:0:0:0:
94,147,86816,1,0,3:0:0:0:
119,139,86903,1,0,3:0:0:0:
144,131,86990,1,0,3:0:0:0:
169,123,87077,1,0,3:0:0:0:
201,154,87164,1,0,3:0:0:0:
243,170,87252,1,0,3:0:0:0:
287,172,87339,1,0,3:0:0:0:
333,154,87426,6,0,L|324:88,1,41.2500012588501,6|0,0:0|0:0,0:0:0:0:
431,239,87601,2,0,L|425:279,1,41.2500012588501,2|0,0:0|0:0,0:0:0:0:
200,200,87775,2,0,L|191:134,1,41.2500012588501,2|0,0:0|0:0,0:0:0:0:
297,284,87950,2,0,L|291:324,1,41.2500012588501,2|0,0:0|0:0,0:0:0:0:
200,200,88124,6,0,L|181:81,1,82.5000025177003,4|0,0:0|0:0,0:0:0:0:
245,18,88473,1,0,0:0:0:0:
91,189,88647,1,0,3:0:0:0:
75,187,88734,1,0,3:0:0:0:
60,186,88821,1,0,3:0:0:0:
185,316,88996,1,0,3:0:0:0:
265,134,89170,2,0,L|260:49,1,82.5000025177003,0|0,3:0|0:0,0:0:0:0:
401,197,89519,2,0,P|382:235|388:283,1,82.5000025177003,8|0,0:0|0:0,0:0:0:0:
471,93,89868,1,0,3:0:0:0:
442,99,89955,1,0,3:0:0:0:
413,105,90042,1,0,3:0:0:0:
384,111,90130,1,0,3:0:0:0:
356,118,90217,6,0,L|301:111,1,41.2500012588501,2|0,0:0|0:0,0:0:0:0:
201,44,90391,2,0,L|160:49,1,41.2500012588501,2|0,0:0|0:0,0:0:0:0:
47,153,90566,2,0,L|102:160,1,41.2500012588501,2|0,0:0|0:0,0:0:0:0:
202,227,90740,2,0,L|242:221,1,41.2500012588501,2|0,0:0|0:0,0:0:0:0:
376,321,90914,1,8,0:0:0:0:
226,122,91089,1,0,0:0:0:0:
142,316,91263,2,0,L|243:301,1,82.5000025177003,0|0,1:0|1:0,0:0:0:0:
238,302,91525,1,0,3:0:0:0:
238,302,91612,5,0,3:0:0:0:
126,63,91787,1,0,3:0:0:0:
126,63,91874,1,0,3:0:0:0:
126,63,91961,1,0,3:0:0:0:
60,291,92135,1,0,3:0:0:0:
60,291,92223,1,0,3:0:0:0:
60,291,92310,1,0,3:0:0:0:
302,197,92484,1,0,3:0:0:0:
302,197,92571,1,0,3:0:0:0:
302,197,92659,1,0,3:0:0:0:
65,160,92833,1,0,0:0:0:0:
297,337,93008,6,0,L|341:330,1,41.2500012588501,6|0,0:0|0:0,0:0:0:0:
464,219,93182,2,0,L|417:213,1,41.2500012588501,2|0,0:0|0:0,0:0:0:0:
169,198,93356,2,0,L|213:191,1,41.2500012588501,2|0,0:0|0:0,0:0:0:0:
336,80,93530,2,0,L|289:74,1,41.2500012588501,2|0,0:0|0:0,0:0:0:0:
169,198,93705,6,0,L|256:183,1,82.5000025177003,12|0,0:0|0:0,0:0:0:0:
345,249,94054,1,0,0:0:0:0:
471,73,94228,1,0,3:0:0:0:
474,91,94316,1,0,3:0:0:0:
476,108,94403,1,0,3:0:0:0:
322,34,94577,1,0,3:0:0:0:
454,207,94752,1,0,3:0:0:0:
333,58,94926,1,0,3:0:0:0:
283,310,95101,2,0,L|176:304,1,82.5000025177003,8|0,0:0|0:0,0:0:0:0:
92,345,95449,1,0,0:0:0:0:
186,171,95624,2,0,L|177:118,1,41.2500012588501,0|0,3:0|3:0,0:0:0:0:
177,116,95798,5,2,0:0:0:0:
341,189,95973,1,0,0:0:0:0:
98,174,96147,1,2,0:0:0:0:
387,107,96321,1,0,0:0:0:0:
116,169,96496,1,10,0:0:0:0:
317,288,96670,1,0,0:0:0:0:
241,104,96845,2,0,L|256:11,1,82.5000025177003,0|0,1:0|1:0,0:0:0:0:
257,12,97106,1,0,3:0:0:0:
257,12,97194,5,0,3:0:0:0:
340,196,97368,1,0,3:0:0:0:
340,196,97455,1,0,3:0:0:0:
340,196,97542,1,0,3:0:0:0:
121,155,97717,1,0,3:0:0:0:
121,155,97804,1,0,3:0:0:0:
121,155,97891,1,0,3:0:0:0:
383,77,98066,1,0,3:0:0:0:
383,77,98153,1,0,3:0:0:0:
383,77,98240,1,0,3:0:0:0:
339,325,98414,1,0,0:0:0:0:
239,157,98589,6,0,L|248:76,1,56.2500021457673,4|0,1:0|0:0,0:0:0:0:
293,38,98938,1,0,0:0:0:0:
361,192,99112,2,0,L|369:263,1,56.2500021457673,4|0,1:0|0:0,0:0:0:0:
423,303,99461,1,0,0:0:0:0:
417,129,99635,2,0,P|387:109|346:109,1,56.2500021457673,4|0,1:0|0:0,0:0:0:0:
350,108,99897,1,0,3:0:0:0:
350,108,99984,5,0,3:0:0:0:
291,160,100159,2,0,B|261:180|261:180|182:167,1,112.500004291535,4|0,1:0|0:0,0:0:0:0:
137,105,100682,1,0,0:0:0:0:
169,241,100856,1,0,0:0:0:0:
246,90,101031,1,0,0:0:0:0:
242,74,101118,1,0,3:0:0:0:
238,58,101205,1,2,3:0:0:0:
234,42,101292,1,0,3:0:0:0:
229,27,101380,6,0,L|291:33,1,56.2500021457673,4|0,1:0|0:0,0:0:0:0:
362,43,101728,1,0,0:0:0:0:
206,192,101903,2,0,L|135:199,1,56.2500021457673,4|0,1:0|0:0,0:0:0:0:
71,206,102252,1,0,0:0:0:0:
247,342,102426,2,0,L|309:348,1,56.2500021457673,4|0,1:0|0:0,0:0:0:0:
381,359,102775,5,0,0:0:0:0:
435,302,102949,2,0,B|451:267|451:267|444:182,1,112.500004291535,4|0,1:0|3:0,0:0:0:0:
444,180,103385,1,0,3:0:0:0:
444,180,103473,1,8,0:0:0:0:
478,109,103647,1,0,0:0:0:0:
321,42,103821,1,0,3:0:0:0:
317,62,103909,1,0,3:0:0:0:
314,82,103996,1,2,3:0:0:0:
311,103,104083,1,0,3:0:0:0:
308,123,104170,6,0,L|315:183,1,56.2500021457673,4|0,1:0|0:0,0:0:0:0:
381,221,104519,1,0,0:0:0:0:
226,167,104694,2,0,P|197:167|168:151,1,56.2500021457673,4|0,1:0|0:0,0:0:0:0:
119,97,105042,1,0,0:0:0:0:
214,248,105217,2,0,L|208:320,1,56.2500021457673,4|0,1:0|3:0,0:0:0:0:
208,321,105478,1,0,3:0:0:0:
208,321,105566,5,0,3:0:0:0:
275,360,105740,2,0,L|395:345,1,112.500004291535,4|0,1:0|0:0,0:0:0:0:
478,217,106263,2,0,L|411:208,1,56.2500021457673,8|0,0:0|0:0,0:0:0:0:
327,112,106612,1,0,3:0:0:0:
309,118,106699,1,0,3:0:0:0:
293,125,106787,1,2,3:0:0:0:
276,133,106874,1,0,3:0:0:0:
261,140,106961,5,6,0:0:0:0:
242,253,107135,1,0,0:0:0:0:
155,176,107310,1,2,0:0:0:0:
345,208,107484,1,0,0:0:0:0:
229,347,107659,6,0,L|137:340,1,82.5000025177003,2|0,0:0|0:0,0:0:0:0:
25,112,108008,2,0,L|117:105,1,82.5000025177003,2|0,0:0|0:0,0:0:0:0:
330,27,108356,5,2,0:0:0:0:
324,68,108444,1,2,0:0:0:0:
318,108,108531,1,2,0:0:0:0:
211,241,108705,1,2,0:0:0:0:
205,201,108792,1,2,0:0:0:0:
199,160,108880,1,2,0:0:0:0:
357,246,109054,2,0,L|353:342,1,82.5000025177003,2|0,0:0|3:0,0:0:0:0:
352,348,109316,1,0,3:0:0:0:
352,348,109403,1,0,3:0:0:0:
477,202,109577,1,0,3:0:0:0:
302,77,109752,6,0,L|217:84,1,75,4|0,0:0|0:0,0:0:0:0:
164,46,110101,1,0,0:0:0:0:
89,176,110449,2,0,P|88:223|75:254,1,75,8|0,0:0|0:0,0:0:0:0:
30,306,110798,1,0,0:0:0:0:
175,342,111147,5,0,3:0:0:0:
211,335,111234,1,0,3:0:0:0:
247,328,111321,1,0,3:0:0:0:
299,274,111496,1,0,3:0:0:0:
335,267,111583,1,0,3:0:0:0:
371,260,111670,1,0,3:0:0:0:
440,288,111845,1,4,0:0:0:0:
440,288,112019,1,0,0:0:0:0:
475,221,112194,1,0,0:0:0:0:
381,104,112542,6,0,P|346:115|300:101,1,75,4|0,0:0|0:0,0:0:0:0:
250,59,112891,1,0,0:0:0:0:
117,128,113240,2,0,L|131:204,1,75,8|0,0:0|0:0,0:0:0:0:
94,267,113589,1,0,0:0:0:0:
226,336,113938,6,0,L|271:327,1,37.5,0|0,3:0|3:0,0:0:0:0:
299,320,114112,1,0,3:0:0:0:
353,268,114287,2,0,L|398:259,1,37.5,0|0,3:0|3:0,0:0:0:0:
426,252,114461,1,0,3:0:0:0:
256,192,114635,12,0,115333,0:0:0:0:
131,333,120740,5,0,3:0:0:0:
131,333,120914,2,0,L|117:151,1,150,0|0,1:0|0:0,0:0:0:0:
62,133,121438,1,0,3:0:0:0:
174,253,121612,2,0,L|260:241,1,75,8|0,0:0|0:0,0:0:0:0:
378,315,121961,1,0,3:0:0:0:
269,162,122135,1,0,3:0:0:0:
269,162,122223,1,0,3:0:0:0:
269,162,122310,5,0,3:0:0:0:
265,367,122484,1,0,3:0:0:0:
268,192,122659,1,0,3:0:0:0:
117,268,122833,1,0,0:0:0:0:
323,285,123008,1,8,0:0:0:0:
161,154,123182,1,0,3:0:0:0:
186,365,123356,1,0,0:0:0:0:
186,365,123531,2,0,L|229:358,1,37.5,0|0,3:0|3:0,0:0:0:0:
231,345,123705,6,0,L|311:351,1,75,0|0,1:0|0:0,0:0:0:0:
444,210,124054,1,0,0:0:0:0:
317,341,124228,1,0,3:0:0:0:
224,171,124403,2,0,L|240:86,1,75,8|0,0:0|0:0,0:0:0:0:
299,54,124752,1,0,3:0:0:0:
146,153,124926,1,0,3:0:0:0:
126,150,125013,1,0,3:0:0:0:
106,148,125101,5,0,3:0:0:0:
217,305,125275,1,0,3:0:0:0:
289,182,125449,2,0,P|285:142|303:107,1,75,0|0,3:0|0:0,0:0:0:0:
311,102,125711,1,0,0:0:0:0:
311,102,125798,1,8,0:0:0:0:
391,258,125973,1,0,0:0:0:0:
172,191,126147,1,2,0:0:0:0:
401,149,126321,1,0,0:0:0:0:
296,312,126496,6,0,B|255:327|255:327|131:308,1,150,6|0,0:0|0:0,0:0:0:0:
91,262,127019,1,0,3:0:0:0:
238,73,127194,2,0,L|246:147,1,75,8|0,0:0|0:0,0:0:0:0:
310,186,127542,1,0,3:0:0:0:
136,122,127717,2,0,L|95:131,1,37.5,0|0,3:0|3:0,0:0:0:0:
86,133,127891,5,0,3:0:0:0:
212,238,128066,1,0,3:0:0:0:
50,298,128240,1,0,3:0:0:0:
206,163,128414,1,0,0:0:0:0:
266,364,128589,1,8,0:0:0:0:
112,209,128763,1,0,3:0:0:0:
250,347,128938,1,0,1:0:0:0:
312,133,129112,1,0,3:0:0:0:
307,117,129199,1,0,3:0:0:0:
302,101,129287,6,0,L|291:259,1,150,2|0,0:0|0:0,0:0:0:0:
340,307,129810,1,0,3:0:0:0:
250,168,129984,2,0,L|170:175,1,75,8|0,0:0|0:0,0:0:0:0:
108,139,130333,1,0,3:0:0:0:
201,322,130508,2,0,L|213:277,1,37.5,0|0,3:0|3:0,0:0:0:0:
231,281,130682,6,0,L|224:182,1,75,2|0,0:0|0:0,0:0:0:0:
322,79,131031,1,0,3:0:0:0:
139,233,131205,1,0,3:0:0:0:
139,233,131292,1,0,3:0:0:0:
139,233,131380,1,0,1:0:0:0:
307,310,131554,1,0,1:0:0:0:
181,109,131728,1,0,1:0:0:0:
58,291,131903,2,0,L|64:333,1,37.5,0|0,3:0|3:0,0:0:0:0:
65,343,132077,6,0,L|153:323,1,75,0|0,3:0|0:0,0:0:0:0:
240,198,132426,1,0,0:0:0:0:
138,326,132601,1,0,3:0:0:0:
86,150,132775,2,0,L|92:96,1,37.5,0|0,3:0|3:0,0:0:0:0:
195,41,132949,2,0,L|199:78,1,37.5,0|0,3:0|3:0,0:0:0:0:
289,134,133124,1,0,3:0:0:0:
166,224,133298,1,0,3:0:0:0:
147,222,133385,1,0,3:0:0:0:
130,221,133473,5,2,0:0:0:0:
251,346,133647,1,0,3:0:0:0:
296,165,133821,1,0,3:0:0:0:
152,314,133996,1,0,0:0:0:0:
72,113,134170,1,8,0:0:0:0:
226,235,134345,1,0,3:0:0:0:
309,57,134519,2,0,L|207:66,1,75,0|0,0:0|3:0,0:0:0:0:
218,65,134781,1,0,3:0:0:0:
218,65,134868,6,0,L|383:89,1,150,2|0,0:0|0:0,0:0:0:0:
432,50,135391,1,0,3:0:0:0:
317,190,135566,2,0,L|327:273,1,75,8|0,0:0|0:0,0:0:0:0:
275,319,135914,1,0,3:0:0:0:
134,194,136089,1,0,3:0:0:0:
136,176,136176,1,0,3:0:0:0:
139,157,136263,5,2,0:0:0:0:
105,89,136438,1,0,3:0:0:0:
224,185,136612,2,0,P|265:180|301:157,1,75,0|0,3:0|0:0,0:0:0:0:
331,98,136961,1,8,0:0:0:0:
313,307,137135,1,0,0:0:0:0:
329,121,137310,1,0,1:0:0:0:
411,362,137484,1,0,1:0:0:0:
200,245,137659,6,0,L|252:236,2,37.5,2|2|2,0:0|0:0|0:0,0:0:0:0:
402,50,138008,2,0,L|350:41,2,37.5,2|2|2,0:0|0:0|0:0,0:0:0:0:
487,213,138356,5,2,0:0:0:0:
485,231,138444,1,2,0:0:0:0:
482,250,138531,1,2,0:0:0:0:
209,131,138705,1,2,0:0:0:0:
206,112,138792,1,2,0:0:0:0:
204,94,138880,1,2,0:0:0:0:
369,332,139054,1,2,0:0:0:0:
367,350,139142,1,2,0:0:0:0:
364,369,139229,1,2,0:0:0:0:
91,250,139403,1,2,0:0:0:0:
88,231,139490,1,2,0:0:0:0:
86,213,139578,1,2,0:0:0:0:
334,82,139752,6,0,L|323:177,1,75,8|0,0:0|0:0,0:0:0:0:
450,278,140101,1,0,3:0:0:0:
236,167,140275,1,0,3:0:0:0:
441,75,140449,6,0,L|446:35,1,41.2500012588501,6|0,0:0|0:0,0:0:0:0:
325,156,140624,2,0,L|330:197,1,41.2500012588501,2|0,0:0|0:0,0:0:0:0:
207,81,140798,2,0,L|202:40,1,41.2500012588501,2|0,0:0|0:0,0:0:0:0:
92,162,140973,2,0,L|87:203,1,41.2500012588501,2|0,0:0|0:0,0:0:0:0:
207,81,141147,6,0,L|196:-4,1,82.5000025177003,8|0,0:0|0:0,0:0:0:0:
177,179,141496,1,0,3:0:0:0:
312,43,141670,1,0,3:0:0:0:
123,48,141845,2,0,L|72:66,1,41.2500012588501,0|0,3:0|3:0,0:0:0:0:
21,154,142019,1,0,3:0:0:0:
248,130,142194,2,0,L|299:148,1,41.2500012588501,0|0,3:0|3:0,0:0:0:0:
350,236,142368,1,0,3:0:0:0:
476,77,142542,2,0,L|362:87,1,82.5000025177003,8|0,0:0|0:0,0:0:0:0:
292,28,142891,1,0,0:0:0:0:
449,214,143066,1,0,3:0:0:0:
449,214,143153,1,0,3:0:0:0:
449,214,143240,5,2,0:0:0:0:
429,11,143414,1,0,0:0:0:0:
350,246,143589,1,2,0:0:0:0:
480,106,143763,1,0,0:0:0:0:
499,354,143938,1,10,0:0:0:0:
378,140,144112,1,0,0:0:0:0:
292,345,144287,2,0,L|192:340,1,82.5000025177003,2|0,0:0|0:0,0:0:0:0:
86,96,144635,5,2,0:0:0:0:
301,200,144810,1,0,0:0:0:0:
138,207,144984,1,2,0:0:0:0:
220,125,145159,1,0,0:0:0:0:
35,178,145333,1,2,0:0:0:0:
230,308,145508,1,0,0:0:0:0:
127,102,145682,1,2,0:0:0:0:
67,344,145856,1,0,3:0:0:0:
67,344,145944,1,0,3:0:0:0:
67,344,146031,6,0,L|159:339,1,82.5000025177003,4|0,0:0|0:0,0:0:0:0:
420,144,146380,2,0,L|328:139,1,82.5000025177003,2|0,0:0|0:0,0:0:0:0:
141,36,146728,2,0,P|157:79|144:119,1,82.5000025177003,2|0,0:0|0:0,0:0:0:0:
52,178,147077,1,0,3:0:0:0:
232,83,147252,1,0,3:0:0:0:
251,88,147339,1,0,3:0:0:0:
273,95,147426,6,0,L|323:90,1,41.2500012588501,0|0,3:0|3:0,0:0:0:0:
371,82,147601,1,0,3:0:0:0:
427,278,147775,2,0,L|377:273,1,41.2500012588501,0|0,3:0|3:0,0:0:0:0:
327,267,147949,1,0,3:0:0:0:
177,335,148124,2,0,L|184:246,1,82.5000025177003,8|0,0:0|3:0,0:0:0:0:
110,162,148473,1,0,3:0:0:0:
264,318,148647,1,0,3:0:0:0:
279,316,148734,1,0,3:0:0:0:
293,314,148821,5,6,0:0:0:0:
87,273,148996,1,0,0:0:0:0:
306,312,149170,1,2,0:0:0:0:
181,139,149345,1,0,3:0:0:0:
183,350,149519,1,10,0:0:0:0:
318,110,149694,1,0,0:0:0:0:
108,104,149868,2,0,P|99:151|120:195,1,82.5000025177003,2|0,0:0|0:0,0:0:0:0:
290,268,150217,5,2,0:0:0:0:
213,39,150391,1,0,0:0:0:0:
199,298,150566,1,2,0:0:0:0:
299,78,150740,1,0,0:0:0:0:
362,320,150914,1,10,0:0:0:0:
226,117,151089,1,0,0:0:0:0:
251,363,151263,1,2,0:0:0:0:
390,189,151438,1,0,0:0:0:0:
203,47,151612,6,0,L|132:54,1,56.2500021457673,4|0,1:0|0:0,0:0:0:0:
68,61,151961,1,0,0:0:0:0:
208,183,152135,2,0,L|241:129,1,56.2500021457673,4|0,1:0|0:0,0:0:0:0:
282,70,152484,1,0,0:0:0:0:
355,213,152659,2,0,L|368:283,1,56.2500021457673,4|0,1:0|0:0,0:0:0:0:
383,345,153008,1,0,0:0:0:0:
459,196,153182,6,0,L|469:70,1,112.500004291535,4|0,1:0|0:0,0:0:0:0:
423,18,153705,1,8,0:0:0:0:
291,117,153880,1,0,3:0:0:0:
363,232,154054,1,0,3:0:0:0:
381,238,154141,1,0,3:0:0:0:
399,244,154228,1,2,3:0:0:0:
417,251,154316,1,0,3:0:0:0:
435,258,154403,6,0,L|366:263,1,56.2500021457673,4|0,1:0|0:0,0:0:0:0:
343,332,154752,1,0,0:0:0:0:
224,172,154926,2,0,P|259:184|276:202,1,56.2500021457673,4|0,1:0|0:0,0:0:0:0:
287,274,155275,1,0,0:0:0:0:
109,174,155449,2,0,L|116:112,1,56.2500021457673,4|0,1:0|0:0,0:0:0:0:
78,48,155798,1,0,0:0:0:0:
216,118,155973,6,0,B|250:127|250:127|336:110,1,112.500004291535,4|0,1:0|3:0,0:0:0:0:
339,109,156409,1,0,3:0:0:0:
339,109,156496,1,0,3:0:0:0:
399,23,156670,1,0,3:0:0:0:
461,191,156845,1,0,3:0:0:0:
458,217,156932,1,0,3:0:0:0:
455,243,157019,1,2,3:0:0:0:
453,269,157106,1,0,3:0:0:0:
451,292,157194,6,0,P|414:300|385:294,1,56.2500021457673,4|0,1:0|0:0,0:0:0:0:
333,249,157542,1,0,0:0:0:0:
377,69,157717,2,0,L|449:81,1,56.2500021457673,4|0,1:0|0:0,0:0:0:0:
502,113,158066,1,0,0:0:0:0:
286,159,158240,2,0,L|224:172,1,56.2500021457673,4|0,1:0|0:0,0:0:0:0:
156,195,158589,1,0,0:0:0:0:
259,73,158763,6,0,L|374:91,1,112.500004291535,4|0,1:0|0:0,0:0:0:0:
438,49,159287,1,8,0:0:0:0:
498,224,159461,1,0,3:0:0:0:
354,192,159635,1,0,3:0:0:0:
352,172,159723,1,0,3:0:0:0:
349,152,159810,1,2,3:0:0:0:
346,132,159897,1,0,3:0:0:0:
344,115,159984,6,0,L|354:40,1,75,2|0,0:0|0:0,0:0:0:0:
215,95,160333,1,2,0:0:0:0:
445,162,160508,1,0,3:0:0:0:
303,261,160682,1,10,0:0:0:0:
442,65,160856,1,0,0:0:0:0:
486,261,161031,2,0,L|479:356,1,75,2|0,0:0|0:0,0:0:0:0:
364,184,161380,5,2,0:0:0:0:
491,73,161554,1,0,3:0:0:0:
378,171,161728,1,2,0:0:0:0:
354,12,161903,1,0,0:0:0:0:
261,189,162077,1,2,0:0:0:0:
401,88,162252,1,0,0:0:0:0:
223,50,162426,2,0,L|146:58,1,75,2|0,0:0|0:0,0:0:0:0:
53,212,162775,6,0,L|113:217,1,41.2500012588501,6|0,0:0|0:0,0:0:0:0:
180,302,162949,2,0,L|221:298,1,41.2500012588501,2|0,0:0|0:0,0:0:0:0:
299,197,163124,2,0,L|359:202,1,41.2500012588501,2|0,0:0|0:0,0:0:0:0:
426,287,163298,2,0,L|467:283,1,41.2500012588501,2|0,0:0|0:0,0:0:0:0:
340,200,163473,2,0,L|246:195,1,82.5000025177003,10|0,0:0|0:0,0:0:0:0:
187,104,163821,1,0,3:0:0:0:
312,278,163996,1,0,3:0:0:0:
409,126,164170,6,0,L|405:77,1,41.2500012588501,0|0,3:0|3:0,0:0:0:0:
323,21,164345,1,0,3:0:0:0:
134,162,164519,2,0,L|138:211,1,41.2500012588501,0|0,3:0|3:0,0:0:0:0:
220,267,164694,1,0,3:0:0:0:
44,322,164868,2,0,L|53:217,1,82.5000025177003,8|0,0:0|0:0,0:0:0:0:
24,126,165217,1,0,3:0:0:0:
42,120,165304,1,0,3:0:0:0:
61,113,165391,1,0,3:0:0:0:
78,106,165478,1,0,3:0:0:0:
97,100,165566,5,2,0:0:0:0:
177,17,165740,1,0,0:0:0:0:
233,188,165914,1,2,0:0:0:0:
182,41,166089,1,0,3:0:0:0:
148,251,166263,1,10,0:0:0:0:
309,82,166438,1,0,0:0:0:0:
131,157,166612,2,0,L|32:155,1,82.5000025177003,2|0,0:0|3:0,0:0:0:0:
33,156,166874,1,0,3:0:0:0:
33,156,166961,5,2,0:0:0:0:
181,337,167135,1,0,3:0:0:0:
170,85,167310,1,2,0:0:0:0:
80,272,167484,1,0,0:0:0:0:
286,175,167659,1,2,0:0:0:0:
80,272,167833,1,0,3:0:0:0:
268,88,168008,2,0,P|326:96|353:115,1,82.5000025177003,2|0,0:0|3:0,0:0:0:0:
393,213,168356,6,0,L|387:270,1,41.2500012588501,6|0,0:0|0:0,0:0:0:0:
305,342,168531,2,0,L|300:300,1,41.2500012588501,2|0,0:0|0:0,0:0:0:0:
234,192,168705,2,0,L|228:249,1,41.2500012588501,2|0,0:0|0:0,0:0:0:0:
146,321,168880,2,0,L|141:279,1,41.2500012588501,2|0,0:0|0:0,0:0:0:0:
133,222,169054,2,0,L|125:132,1,82.5000025177003,10|0,0:0|0:0,0:0:0:0:
45,55,169403,1,0,3:0:0:0:
203,118,169577,1,0,3:0:0:0:
95,243,169752,6,0,L|48:240,1,41.2500012588501,0|0,3:0|3:0,0:0:0:0:
18,195,169926,1,0,3:0:0:0:
203,118,170101,2,0,L|250:121,1,41.2500012588501,0|0,3:0|3:0,0:0:0:0:
280,166,170275,1,0,3:0:0:0:
235,340,170449,2,0,P|206:300|200:248,1,82.5000025177003,8|0,0:0|3:0,0:0:0:0:
314,254,170798,1,0,3:0:0:0:
336,255,170885,1,0,3:0:0:0:
360,258,170973,1,0,3:0:0:0:
382,261,171060,1,0,3:0:0:0:
406,265,171147,5,2,0:0:0:0:
295,251,171321,1,0,0:0:0:0:
437,114,171496,1,2,0:0:0:0:
366,338,171670,1,0,3:0:0:0:
332,81,171845,1,10,0:0:0:0:
491,207,172019,1,0,0:0:0:0:
267,154,172194,2,0,L|168:159,1,82.5000025177003,2|0,0:0|3:0,0:0:0:0:
168,159,172455,1,0,3:0:0:0:
168,159,172542,5,2,0:0:0:0:
266,318,172717,1,0,3:0:0:0:
321,74,172891,1,2,0:0:0:0:
273,293,173066,1,0,0:0:0:0:
228,47,173240,1,2,0:0:0:0:
411,192,173414,1,0,0:0:0:0:
185,288,173589,2,0,L|101:284,1,82.5000025177003,2|0,0:0|0:0,0:0:0:0:
59,105,173938,6,0,P|94:110|117:106,1,56.2500021457673,4|0,1:0|0:0,0:0:0:0:
177,59,174287,1,0,0:0:0:0:
290,144,174461,2,0,L|288:222,1,56.2500021457673,4|0,1:0|0:0,0:0:0:0:
326,269,174810,1,0,0:0:0:0:
446,89,174984,2,0,L|379:95,1,56.2500021457673,4|0,1:0|3:0,0:0:0:0:
372,96,175246,1,0,3:0:0:0:
372,96,175333,1,0,3:0:0:0:
221,48,175508,6,0,B|231:79|231:79|217:178,1,112.500004291535,4|0,1:0|0:0,0:0:0:0:
154,202,176031,1,8,0:0:0:0:
268,308,176205,1,0,3:0:0:0:
339,193,176380,1,0,3:0:0:0:
319,188,176467,1,0,3:0:0:0:
299,183,176554,1,2,3:0:0:0:
279,178,176641,1,0,3:0:0:0:
259,173,176728,6,0,L|193:177,1,56.2500021457673,4|0,1:0|0:0,0:0:0:0:
130,144,177077,1,0,0:0:0:0:
58,314,177252,2,0,P|86:305|113:287,1,56.2500021457673,4|0,1:0|0:0,0:0:0:0:
139,218,177601,1,0,0:0:0:0:
110,50,177775,2,0,P|83:58|59:73,1,56.2500021457673,4|0,1:0|0:0,0:0:0:0:
28,145,178124,1,0,0:0:0:0:
218,166,178298,6,0,B|261:162|261:162|292:167|292:167|335:163,1,112.500004291535,4|0,1:0|3:0,0:0:0:0:
349,160,178734,1,0,3:0:0:0:
349,160,178821,1,8,0:0:0:0:
423,85,178996,1,0,3:0:0:0:
465,252,179170,1,0,3:0:0:0:
461,278,179258,1,0,3:0:0:0:
458,304,179345,1,2,3:0:0:0:
455,330,179432,1,0,3:0:0:0:
452,353,179519,6,0,L|385:348,1,56.2500021457673,4|0,1:0|0:0,0:0:0:0:
349,284,179868,1,0,0:0:0:0:
177,212,180042,2,0,L|190:283,1,56.2500021457673,4|0,1:0|0:0,0:0:0:0:
204,344,180391,1,0,0:0:0:0:
304,199,180566,2,0,L|314:143,1,56.2500021457673,4|0,1:0|0:0,0:0:0:0:
329,66,180914,1,0,0:0:0:0:
366,250,181089,6,0,P|339:272|253:259,1,112.500004291535,4|0,1:0|0:0,0:0:0:0:
194,189,181612,2,0,L|202:103,1,75,8|0,0:0|0:0,0:0:0:0:
76,236,181961,2,0,L|83:288,3,37.5,0|0|2|0,3:0|3:0|3:0|3:0,0:0:0:0:
131,289,182310,6,0,L|120:383,1,75,2|0,0:0|0:0,0:0:0:0:
318,206,182659,2,0,L|309:131,1,75,2|0,0:0|0:0,0:0:0:0:
363,41,183008,1,0,3:0:0:0:
229,182,183182,1,0,3:0:0:0:
348,59,183356,1,0,3:0:0:0:
390,270,183531,1,0,3:0:0:0:
259,93,183705,5,2,0:0:0:0:
233,98,183792,1,2,0:0:0:0:
207,103,183880,1,2,0:0:0:0:
88,289,184054,1,2,0:0:0:0:
114,294,184141,1,2,0:0:0:0:
140,299,184229,1,2,0:0:0:0:
325,140,184403,2,0,P|340:94|325:47,1,75,2|0,0:0|0:0,0:0:0:0:
20,242,184752,2,0,P|5:288|20:335,1,75,2|0,0:0|0:0,0:0:0:0:
268,353,185101,6,0,P|247:276|288:209,1,150,6|2,0:0|0:0,0:0:0:0:
449,95,185798,1,10,0:0:0:0:
32,42,186496,6,0,L|40:89,1,37.5,2|2,0:0|0:0,0:0:0:0:
51,129,186670,1,2,0:0:0:0:
147,262,186845,2,0,L|153:225,1,37.5,2|2,0:0|0:0,0:0:0:0:
166,174,187019,1,2,0:0:0:0:
249,109,187194,2,0,L|331:117,1,75,2|0,0:0|0:0,0:0:0:0:
414,64,187542,1,2,0:0:0:0:
362,267,187891,6,0,B|315:287|315:287|204:257,1,150,2|2,0:0|0:0,0:0:0:0:
118,76,188589,1,10,0:0:0:0:
444,103,189287,5,2,0:0:0:0:
444,103,189374,1,2,0:0:0:0:
444,103,189461,1,2,0:0:0:0:
273,168,189635,1,2,0:0:0:0:
273,168,189723,1,2,0:0:0:0:
273,168,189810,1,2,0:0:0:0:
417,287,189984,2,0,L|411:198,1,75,10|0,0:0|0:0,0:0:0:0:
191,53,190333,2,0,L|185:127,1,75,2|0,0:0|0:0,0:0:0:0:
