osu file format v14

[General]
AudioFilename: audio.mp3
AudioLeadIn: 0
PreviewTime: 36496
Countdown: 0
SampleSet: Soft
StackLeniency: 0.7
Mode: 0
LetterboxInBreaks: 0
WidescreenStoryboard: 0

[Editor]
Bookmarks: 59539,62330,109772,144307,162795
DistanceSpacing: 1.4
BeatDivisor: 8
GridSize: 4
TimelineZoom: 1.8

[Metadata]
Title:Ice Cream Cake
TitleUnicode:Ice Cream Cake
Artist:Red Velvet
ArtistUnicode:Red Velvet
Creator:Lilyanna
Version:Sponge Cake
Source:
Tags:missa1912 Ora HB24 Hobbes2 neonat Come[Back]Home kpop k-pop electropop Irene Seul Gi Wendy Joy Yeri S.M.Entertainment KT MUSIC 1st mini album
BeatmapID:1055981
BeatmapSetID:496096

[Difficulty]
HPDrainRate:6
CircleSize:4.5
OverallDifficulty:6
ApproachRate:7
SliderMultiplier:2.2
SliderTickRate:1

[Events]
//Background and Video events
0,0,"ice_cream_cake_by_hyugadaniela15-d8n7kam.jpg",0,0
//Break Periods
2,15067,16584
2,29021,33503
2,82045,83735
2,109952,114433
2,137684,139026
//Storyboard Layer 0 (Background)
//Storyboard Layer 1 (Fail)
//Storyboard Layer 2 (Pass)
//Storyboard Layer 3 (Foreground)
//Storyboard Sound Samples

[TimingPoints]
915,697.674418604651,4,2,1,70,1,0
6496,-100,4,2,1,70,0,0
37194,-90.9090909090909,4,2,1,70,0,1
56423,-90.9090909090909,4,2,1,5,0,1
56467,-90.9090909090909,4,2,1,70,0,1
56598,-90.9090909090909,4,2,1,5,0,1
56641,-90.9090909090909,4,2,1,70,0,1
56685,-90.9090909090909,4,2,1,5,0,1
56728,-90.9090909090909,4,2,1,70,0,1
59519,-100,4,2,1,70,0,0
87426,-100,4,2,1,70,0,1
109752,-100,4,2,1,70,0,0
140449,-90.9090909090909,4,2,1,70,0,1
185101,-100,4,2,1,70,0,0

[Colours]
Combo1 : 255,150,100
Combo2 : 255,164,209
Combo3 : 255,85,85
Combo4 : 255,136,17
SliderBorder : 255,255,255

[HitObjects]
152,80,6321,5,0,0:0:0:0:
152,80,6496,6,0,P|204:64|268:72,1,110,0|0,1:0|0:0,0:0:0:0:
324,88,7019,1,0,3:0:0:0:
392,72,7194,2,0,P|372:136|332:156,1,110,8|0,0:0|3:0,0:0:0:0:
268,164,7717,1,0,3:0:0:0:
211,206,7891,2,0,P|155:207|103:247,1,110,0|0,3:0|3:0,0:0:0:0:
90,304,8414,1,2,0:0:0:0:
19,317,8589,2,0,L|5:390,2,55,8|0|0,0:0|0:0|0:0,0:0:0:0:
1,247,9112,1,0,3:0:0:0:
43,189,9287,6,0,P|92:169|151:181,1,110,0|0,3:0|0:0,0:0:0:0:
208,218,9810,1,0,3:0:0:0:
262,172,9984,2,0,P|314:124|314:76,1,110,8|0,0:0|3:0,0:0:0:0:
271,34,10508,1,0,3:0:0:0:
317,89,10682,2,0,P|379:102|431:85,1,110,0|0,3:0|3:0,0:0:0:0:
481,48,11205,1,0,3:0:0:0:
496,118,11380,2,0,L|516:195,2,55,8|0|0,0:0|3:0|0:0,0:0:0:0:
481,48,11903,1,0,0:0:0:0:
422,89,12077,6,0,P|373:111|355:162,1,110,6|0,0:0|3:0,0:0:0:0:
383,229,12601,1,0,3:0:0:0:
355,162,12775,2,0,P|303:142|251:158,2,110,8|0|0,0:0|3:0|3:0,0:0:0:0:
383,229,13647,2,0,L|439:237,2,55,0|0|0,3:0|3:0|0:0,0:0:0:0:
357,295,14170,2,0,P|305:315|253:299,2,110,8|0|0,0:0|3:0|3:0,0:0:0:0:
132,48,17484,5,0,0:0:0:0:
132,48,17659,6,0,P|104:100|116:160,1,110,0|0,3:0|0:0,0:0:0:0:
176,176,18182,1,0,3:0:0:0:
248,188,18356,2,0,P|204:244|165:250,1,110,10|2,0:0|0:0,0:0:0:0:
100,228,18880,1,2,0:0:0:0:
45,182,19054,2,0,P|29:231|61:290,1,110,0|0,0:0|3:0,0:0:0:0:
115,314,19577,1,0,0:0:0:0:
186,310,19752,2,0,L|209:360,2,55,8|0|0,0:0|3:0|3:0,0:0:0:0:
234,257,20275,1,0,3:0:0:0:
290,213,20449,6,0,P|327:169|316:103,1,110,0|0,3:0|0:0,0:0:0:0:
260,148,20973,1,0,3:0:0:0:
229,83,21147,2,0,P|192:127|203:193,1,110,8|0,0:0|3:0,0:0:0:0:
233,236,21670,1,0,3:0:0:0:
186,290,21845,2,0,B|228:322|273:295|273:295|310:295,1,110,0|0,3:0|3:0,0:0:0:0:
360,293,22368,1,2,0:0:0:0:
426,268,22542,2,0,L|450:322,2,55,8|0|2,0:0|0:0|3:0,0:0:0:0:
396,202,23066,1,2,3:0:0:0:
396,202,23240,6,0,B|423:142|423:142|415:91,1,110,4|0,0:0|0:0,0:0:0:0:
357,56,23763,1,0,3:0:0:0:
299,98,23938,2,0,B|292:141|292:141|319:201,2,110,8|0|0,0:0|3:0|3:0,0:0:0:0:
357,56,24810,2,0,L|357:-10,2,55,0|0|0,3:0|3:0|0:0,0:0:0:0:
416,99,25333,2,0,B|422:142|422:142|395:202,2,110,8|0|0,0:0|3:0|3:0,0:0:0:0:
206,53,26554,5,0,3:0:0:0:
171,115,26728,6,0,L|114:134,1,55,8|0,0:0|0:0,0:0:0:0:
160,190,27077,2,0,L|107:207,1,55,0|0,3:0|3:0,0:0:0:0:
40,182,27426,2,0,P|41:234|90:279,1,110,0|0,3:0|3:0,0:0:0:0:
150,278,27949,1,0,0:0:0:0:
221,280,28124,2,0,L|273:297,1,55,10|2,0:0|0:0,0:0:0:0:
276,225,28473,2,0,L|328:242,1,55,2|2,0:0|0:0,0:0:0:0:
397,257,28821,5,2,0:0:0:0:
256,192,34403,12,0,36147,3:0:0:0:
117,109,36670,6,0,L|62:70,2,55,0|0|0,3:0|3:0|3:0,0:0:0:0:
197,92,37194,6,0,P|256:80|330:100,1,121.000003692627,6|2,0:0|0:0,0:0:0:0:
365,152,37717,1,2,0:0:0:0:
316,213,37891,2,0,P|257:225|198:213,1,121.000003692627,8|0,0:0|3:0,0:0:0:0:
141,158,38414,1,0,3:0:0:0:
129,79,38589,2,0,L|134:13,1,60.5000018463135,0|0,3:0|3:0,0:0:0:0:
58,42,38938,2,0,L|52:102,1,60.5000018463135,0|0,3:0|3:0,0:0:0:0:
33,178,39287,2,0,B|70:243|134:251,1,121.000003692627,8|0,0:0|0:0,0:0:0:0:
198,213,39810,1,0,3:0:0:0:
276,210,39984,6,0,L|284:140,1,60.5000018463135,2|0,0:0|0:0,0:0:0:0:
355,179,40333,2,0,L|363:109,1,60.5000018463135,2|0,0:0|0:0,0:0:0:0:
439,107,40682,2,0,L|431:167,1,60.5000018463135,10|0,0:0|0:0,0:0:0:0:
432,245,41031,1,2,0:0:0:0:
432,245,41205,1,0,3:0:0:0:
358,273,41380,6,0,L|365:333,1,60.5000018463135,0|0,3:0|3:0,0:0:0:0:
288,312,41729,2,0,L|280:251,1,60.5000018463135,0|0,3:0|3:0,0:0:0:0:
209,269,42078,2,0,L|201:208,1,60.5000018463135,0|0,3:0|3:0,0:0:0:0:
188,131,42426,1,0,3:0:0:0:
188,131,42601,1,0,3:0:0:0:
228,63,42775,6,0,P|163:54|121:91,1,121.000003692627,6|2,0:0|0:0,0:0:0:0:
89,158,43298,1,2,0:0:0:0:
58,230,43473,2,0,P|67:263|70:304,1,60.5000018463135,8|0,0:0|0:0,0:0:0:0:
148,281,43822,2,0,P|139:314|136:355,1,60.5000018463135,0|0,0:0|3:0,0:0:0:0:
213,329,44170,2,0,P|255:326|284:318,1,60.5000018463135,0|0,3:0|3:0,0:0:0:0:
259,243,44519,2,0,P|301:246|330:254,1,60.5000018463135,0|0,3:0|3:0,0:0:0:0:
396,263,44868,2,0,B|401:208|379:208|395:137,1,121.000003692627,8|0,0:0|3:0,0:0:0:0:
424,69,45392,1,0,3:0:0:0:
352,36,45566,6,0,P|312:40|275:33,1,60.5000018463135,6|0,0:0|0:0,0:0:0:0:
282,116,45914,2,0,P|242:112|205:119,1,60.5000018463135,2|0,0:0|3:0,0:0:0:0:
185,44,46263,2,0,P|145:48|108:41,1,60.5000018463135,10|0,0:0|0:0,0:0:0:0:
51,73,46612,1,2,0:0:0:0:
51,73,46787,1,0,3:0:0:0:
56,151,46961,6,0,L|65:230,1,60.5000018463135,2|2,0:0|0:0,0:0:0:0:
136,181,47310,2,0,L|145:260,1,60.5000018463135,2|2,0:0|0:0,0:0:0:0:
79,288,47659,2,0,L|88:367,2,60.5000018463135,2|0|0,0:0|3:0|3:0,0:0:0:0:
63,211,48182,1,0,3:0:0:0:
136,181,48356,6,0,P|213:184|246:151,1,121.000003692627,4|0,1:0|0:0,0:0:0:0:
319,139,48880,2,0,P|281:89|221:80,1,121.000003692627,4|0,1:0|0:0,0:0:0:0:
151,103,49403,2,0,P|155:47|208:1,1,121.000003692627,4|0,1:0|0:0,0:0:0:0:
228,79,49926,2,0,P|216:152|174:184,1,121.000003692627,4|0,1:0|0:0,0:0:0:0:
105,201,50450,1,8,0:0:0:0:
105,201,50624,1,0,0:0:0:0:
57,137,50799,2,0,L|55:106,2,30.2500009231568,0|0|2,0:0|0:0|3:0,0:0:0:0:
29,210,51147,6,0,P|45:280|104:309,1,121.000003692627,4|0,1:0|0:0,0:0:0:0:
104,230,51670,2,0,P|157:278|160:328,1,121.000003692627,4|0,1:0|0:0,0:0:0:0:
240,319,52194,2,0,P|251:261|299:227,1,121.000003692627,4|0,1:0|0:0,0:0:0:0:
318,305,52717,2,0,P|375:250|375:207,1,121.000003692627,4|0,1:0|0:0,0:0:0:0:
371,133,53240,1,8,0:0:0:0:
371,133,53415,1,0,0:0:0:0:
384,55,53589,2,0,L|386:19,2,30.2500009231568,0|0|2,3:0|3:0|3:0,0:0:0:0:
305,47,53938,6,0,B|245:27|245:49|185:42,1,121.000003692627,4|0,1:0|0:0,0:0:0:0:
182,120,54461,2,0,B|242:127|242:105|302:125,1,121.000003692627,4|0,1:0|0:0,0:0:0:0:
295,203,54984,2,0,B|235:183|235:205|175:198,1,121.000003692627,4|0,1:0|0:0,0:0:0:0:
162,276,55508,2,0,B|222:283|222:261|282:281,1,121.000003692627,4|0,1:0|0:0,0:0:0:0:
360,285,56031,1,0,0:0:0:0:
360,285,56206,1,0,0:0:0:0:
405,220,56380,2,0,L|448:207,2,30.2500009231568,0|0|2,0:0|3:0|3:0,0:0:0:0:
371,144,56729,6,0,L|298:139,1,60.5000018463135,2|0,0:0|0:0,0:0:0:0:
291,63,57078,2,0,L|218:68,1,60.5000018463135,2|0,0:0|0:0,0:0:0:0:
161,145,57426,2,0,L|221:140,1,60.5000018463135,2|0,0:0|0:0,0:0:0:0:
210,218,57775,2,0,L|270:213,1,60.5000018463135,2|0,0:0|0:0,0:0:0:0:
348,223,58124,6,0,L|382:205,2,30.2500009231568,2|2|2,0:0|0:0|0:0,0:0:0:0:
376,296,58473,2,0,L|417:303,2,30.2500009231568,2|2|2,0:0|0:0|0:0,0:0:0:0:
298,284,58821,2,0,L|236:289,1,60.5000018463135,2|0,0:0|0:0,0:0:0:0:
260,361,59170,2,0,L|320:356,1,60.5000018463135,2|0,0:0|0:0,0:0:0:0:
378,141,61612,6,0,L|378:209,1,55,0|0,1:0|1:0,0:0:0:0:
310,109,61961,2,0,L|366:53,1,55,0|0,1:0|3:0,0:0:0:0:
284,37,62310,6,0,P|230:66|162:62,1,110,4|0,0:0|0:0,0:0:0:0:
112,49,62833,1,0,3:0:0:0:
84,115,63008,2,0,L|44:239,1,110,8|0,0:0|3:0,0:0:0:0:
100,270,63531,1,0,3:0:0:0:
169,262,63705,2,0,L|212:327,1,55,2|0,0:0|3:0,0:0:0:0:
207,203,64054,2,0,L|163:137,1,55,0|0,3:0|3:0,0:0:0:0:
275,186,64403,2,0,P|305:189|334:183,1,55,8|0,0:0|3:0,0:0:0:0:
364,121,64752,1,0,1:0:0:0:
364,121,64926,1,0,1:0:0:0:
441,49,65101,6,0,B|463:78|464:112|464:112|484:136|491:164,1,110,0|0,3:0|0:0,0:0:0:0:
475,218,65624,1,0,3:0:0:0:
405,213,65798,2,0,L|292:272,1,110,8|0,0:0|3:0,0:0:0:0:
244,297,66321,2,0,L|257:336,2,27.5,0|0|0,3:0|3:0|3:0,0:0:0:0:
205,236,66670,1,0,3:0:0:0:
241,174,66845,1,0,3:0:0:0:
201,114,67019,1,0,0:0:0:0:
132,133,67194,2,0,L|54:141,1,55,8|0,0:0|3:0,0:0:0:0:
115,58,67542,2,0,L|180:49,1,55,2|0,3:0|3:0,0:0:0:0:
241,44,67891,6,0,P|286:47|335:89,1,110,0|0,3:0|0:0,0:0:0:0:
373,147,68414,1,0,3:0:0:0:
304,172,68589,2,0,L|234:260,1,110,8|0,0:0|3:0,0:0:0:0:
278,315,69112,2,0,P|313:308|357:311,1,55,0|2,0:0|0:0,0:0:0:0:
402,322,69461,1,0,3:0:0:0:
461,283,69635,1,0,3:0:0:0:
462,211,69810,1,0,0:0:0:0:
407,165,69984,2,0,P|371:161|334:179,1,55,8|0,0:0|3:0,0:0:0:0:
302,116,70333,2,0,P|283:149|283:188,1,55,0|0,3:0|3:0,0:0:0:0:
239,261,70682,6,0,P|176:266|123:170,1,165,4|0,1:0|3:0,0:0:0:0:
203,188,71380,2,0,B|214:140|177:111|177:111|159:135,1,110,8|0,0:0|3:0,0:0:0:0:
121,191,71903,2,0,L|85:161,2,27.5,0|0|2,3:0|3:0|3:0,0:0:0:0:
163,248,72252,1,2,3:0:0:0:
92,261,72426,1,2,3:0:0:0:
71,329,72601,1,2,3:0:0:0:
142,332,72775,2,0,L|209:334,1,55,8|0,0:0|3:0,0:0:0:0:
246,281,73124,1,2,3:0:0:0:
246,281,73298,1,2,3:0:0:0:
286,340,73473,6,0,B|334:389|373:388|415:333|350:280|337:334,1,165,2|0,0:0|0:0,0:0:0:0:
415,272,74170,2,0,P|360:246|304:263,1,110,8|0,0:0|0:0,0:0:0:0:
294,187,74694,2,0,L|328:171,2,27.5,0|0|2,3:0|3:0|3:0,0:0:0:0:
236,229,75042,1,2,3:0:0:0:
178,188,75217,1,2,3:0:0:0:
182,117,75391,1,2,3:0:0:0:
182,117,75566,2,0,L|187:56,1,55,8|0,0:0|3:0,0:0:0:0:
257,62,75914,2,0,L|252:121,1,55,0|0,0:0|3:0,0:0:0:0:
178,188,76263,6,0,B|105:269|105:269|184:274,1,165,6|0,0:0|0:0,0:0:0:0:
82,337,76961,2,0,L|203:346,1,110,8|0,0:0|0:0,0:0:0:0:
262,333,77484,2,0,L|257:378,2,27.5,0|0|0,3:0|3:0|3:0,0:0:0:0:
279,263,77833,1,0,0:0:0:0:
349,253,78008,2,0,L|386:204,1,55,0|2,0:0|3:0,0:0:0:0:
449,171,78356,2,0,L|392:119,1,55,8|0,0:0|0:0,0:0:0:0:
405,56,78705,2,0,L|335:91,1,55,0|2,3:0|3:0,0:0:0:0:
316,140,79054,6,0,P|272:164|252:78,1,165,2|0,0:0|0:0,0:0:0:0:
164,138,79752,2,0,P|165:91|201:34,1,110,8|0,0:0|0:0,0:0:0:0:
247,80,80275,2,0,L|285:84,2,27.5,2|2|2,3:0|3:0|3:0,0:0:0:0:
180,107,80624,1,2,3:0:0:0:
111,125,80798,2,0,L|52:135,1,55,2|0,3:0|0:0,0:0:0:0:
49,205,81147,2,0,L|54:264,1,55,8|0,1:0|1:0,0:0:0:0:
123,275,81496,2,0,L|128:216,1,55,0|0,1:0|1:0,0:0:0:0:
185,178,81845,5,2,0:0:0:0:
256,192,84635,12,0,86380,0:0:0:0:
386,92,86903,6,0,L|370:39,2,55,0|0|0,3:0|3:0|3:0,0:0:0:0:
450,136,87426,6,0,P|460:188|444:258,1,110,6|2,0:0|0:0,0:0:0:0:
378,271,87949,1,2,0:0:0:0:
311,232,88124,2,0,P|233:232|189:259,1,110,4|0,0:0|0:0,0:0:0:0:
159,307,88647,1,0,3:0:0:0:
102,254,88821,6,0,L|28:288,1,55,0|0,3:0|3:0,0:0:0:0:
54,199,89170,2,0,L|-9:204,1,55,0|0,3:0|0:0,0:0:0:0:
28,131,89519,2,0,P|72:93|142:88,1,110,8|0,0:0|3:0,0:0:0:0:
194,109,90042,1,0,3:0:0:0:
249,162,90217,6,0,L|293:198,1,55,2|2,0:0|0:0,0:0:0:0:
316,123,90566,2,0,L|360:159,1,55,2|2,0:0|0:0,0:0:0:0:
382,84,90914,2,0,L|426:120,1,55,8|0,0:0|0:0,0:0:0:0:
476,175,91263,1,0,1:0:0:0:
476,175,91438,1,0,1:0:0:0:
401,192,91612,6,0,L|357:156,1,55,0|0,3:0|3:0,0:0:0:0:
334,231,91961,2,0,L|290:195,1,55,0|0,3:0|3:0,0:0:0:0:
268,270,92309,2,0,L|224:234,1,55,0|0,3:0|3:0,0:0:0:0:
163,191,92658,1,0,3:0:0:0:
163,191,92833,1,0,0:0:0:0:
182,304,93008,6,0,P|238:309|268:251,1,110,6|2,0:0|0:0,0:0:0:0:
291,196,93531,1,2,0:0:0:0:
358,157,93705,2,0,P|375:141|401:205,1,110,12|0,0:0|0:0,0:0:0:0:
402,265,94228,1,0,3:0:0:0:
336,306,94403,6,0,L|368:364,1,55,0|0,3:0|3:0,0:0:0:0:
267,269,94752,2,0,L|259:334,1,55,0|0,3:0|3:0,0:0:0:0:
291,196,95101,2,0,P|244:177|173:202,1,110,8|0,0:0|0:0,0:0:0:0:
131,243,95624,1,0,3:0:0:0:
116,167,95798,6,0,B|77:151|70:118|70:118|17:111,1,110,2|2,0:0|0:0,0:0:0:0:
59,47,96321,1,0,0:0:0:0:
132,39,96496,2,0,P|185:29|250:40,1,110,10|0,0:0|1:0,0:0:0:0:
308,71,97019,1,0,1:0:0:0:
369,117,97194,6,0,L|413:105,2,27.5,0|0|0,3:0|0:0|3:0,0:0:0:0:
307,162,97542,2,0,L|262:146,2,27.5,0|0|0,3:0|0:0|3:0,0:0:0:0:
363,215,97891,1,0,3:0:0:0:
319,279,98066,1,0,3:0:0:0:
246,305,98240,2,0,P|198:305|175:300,1,55,0|0,3:0|0:0,0:0:0:0:
115,319,98589,6,0,P|65:243|57:205,1,110,4|0,1:0|0:0,0:0:0:0:
55,148,99112,2,0,P|112:138|177:156,1,110,4|0,1:0|0:0,0:0:0:0:
230,184,99635,2,0,P|280:108|288:70,1,110,4|0,1:0|3:0,0:0:0:0:
315,19,100159,2,0,P|356:61|354:126,1,110,4|0,1:0|0:0,0:0:0:0:
340,182,100682,1,0,0:0:0:0:
340,182,100856,1,0,0:0:0:0:
367,254,101031,2,0,L|416:243,2,27.5,0|0|2,0:0|3:0|3:0,0:0:0:0:
291,269,101380,6,0,P|230:282|166:277,1,110,4|0,1:0|0:0,0:0:0:0:
110,253,101903,2,0,P|127:173|159:140,1,110,4|0,1:0|0:0,0:0:0:0:
216,179,102426,2,0,P|199:259|167:292,1,110,4|0,1:0|0:0,0:0:0:0:
123,329,102949,2,0,P|65:318|35:277,1,110,4|0,1:0|3:0,0:0:0:0:
32,201,103473,1,8,0:0:0:0:
32,201,103647,1,0,0:0:0:0:
69,134,103821,2,0,L|29:122,2,27.5,0|0|2,3:0|3:0|3:0,0:0:0:0:
143,152,104170,6,0,P|205:179|259:213,1,110,4|0,1:0|0:0,0:0:0:0:
268,273,104694,2,0,L|358:189,1,110,4|0,1:0|0:0,0:0:0:0:
321,125,105217,2,0,L|231:209,1,110,4|0,1:0|3:0,0:0:0:0:
194,262,105740,2,0,P|215:326|274:347,1,110,4|0,1:0|0:0,0:0:0:0:
326,347,106263,1,8,0:0:0:0:
326,347,106438,1,0,0:0:0:0:
397,318,106612,2,0,L|417:345,2,27.5,0|0|2,3:0|3:0|3:0,0:0:0:0:
427,245,106961,6,0,P|439:190|406:125,1,110,6|2,0:0|0:0,0:0:0:0:
268,273,107659,2,0,L|358:189,1,110,2|2,0:0|0:0,0:0:0:0:
231,97,108356,6,0,L|209:78,2,27.5,2|2|2,0:0|0:0|0:0,0:0:0:0:
175,150,108705,2,0,L|123:159,2,27.5,2|2|2,0:0|0:0|0:0,0:0:0:0:
175,227,109054,1,2,0:0:0:0:
215,292,109228,2,0,P|273:311|328:297,1,110,0|0,3:0|3:0,0:0:0:0:
275,201,109752,5,4,0:0:0:0:
346,180,115333,6,0,L|322:247,1,55,0|0,0:0|0:0,0:0:0:0:
302,299,115682,1,0,0:0:0:0:
258,242,115856,1,0,0:0:0:0:
275,172,116031,2,0,P|278:105|245:69,1,110,0|0,0:0|0:0,0:0:0:0:
214,134,116554,1,0,0:0:0:0:
274,172,116728,2,0,P|340:179|381:142,1,110,0|0,0:0|0:0,0:0:0:0:
313,113,117252,1,0,0:0:0:0:
274,172,117426,2,0,P|264:233|277:292,2,110,0|0|0,0:0|0:0|0:0,0:0:0:0:
379,86,118473,5,0,0:0:0:0:
446,107,118647,1,0,0:0:0:0:
484,166,118821,2,0,B|491:214|491:214|468:280,1,110,0|0,0:0|0:0,0:0:0:0:
422,325,119345,1,0,0:0:0:0:
369,274,119519,2,0,P|312:259|251:282,1,110,0|0,0:0|0:0,0:0:0:0:
206,316,120042,1,0,0:0:0:0:
136,297,120217,2,0,P|89:262|77:189,1,110,0|0,0:0|0:0,0:0:0:0:
153,224,120740,1,0,3:0:0:0:
153,224,120914,6,0,P|206:203|295:270,1,165,0|0,1:0|3:0,0:0:0:0:
324,332,121612,2,0,P|367:282|356:217,1,110,8|0,0:0|3:0,0:0:0:0:
337,172,122135,2,0,P|312:162|297:155,2,27.5,0|0|0,3:0|3:0|3:0,0:0:0:0:
407,184,122484,1,0,3:0:0:0:
469,148,122659,2,0,P|481:93|475:52,1,55,0|0,3:0|0:0,0:0:0:0:
405,59,123008,2,0,P|393:114|399:155,1,55,8|0,0:0|3:0,0:0:0:0:
407,184,123356,5,0,0:0:0:0:
425,253,123531,1,0,3:0:0:0:
354,244,123705,2,0,L|281:232,1,55,0|0,1:0|0:0,0:0:0:0:
238,273,124054,1,0,0:0:0:0:
238,273,124228,1,0,3:0:0:0:
171,247,124403,2,0,L|158:188,1,55,8|0,0:0|0:0,0:0:0:0:
199,133,124752,5,0,3:0:0:0:
260,96,124926,2,0,L|297:73,2,27.5,0|0|0,3:0|3:0|3:0,0:0:0:0:
199,133,125275,1,0,3:0:0:0:
127,127,125449,2,0,P|82:109|58:91,1,55,0|0,3:0|0:0,0:0:0:0:
27,172,125798,2,0,P|32:204|43:228,1,55,8|0,0:0|0:0,0:0:0:0:
82,285,126147,1,2,0:0:0:0:
143,320,126321,1,0,0:0:0:0:
214,329,126496,6,0,P|257:312|282:204,1,165,6|0,0:0|3:0,0:0:0:0:
259,126,127194,2,0,P|321:134|359:177,1,110,8|0,0:0|3:0,0:0:0:0:
376,240,127717,2,0,P|405:238|418:233,2,27.5,0|0|0,3:0|3:0|3:0,0:0:0:0:
304,233,128066,1,0,3:0:0:0:
257,286,128240,2,0,P|249:320|252:350,1,55,0|0,3:0|0:0,0:0:0:0:
330,321,128589,2,0,B|386:307|386:307|435:324,1,110,8|0,0:0|1:0,0:0:0:0:
475,264,129112,6,0,L|505:250,2,27.5,0|0|2,3:0|3:0|0:0,0:0:0:0:
414,226,129461,1,0,0:0:0:0:
343,212,129635,2,0,P|304:215|274:235,1,55,0|0,0:0|3:0,0:0:0:0:
212,250,129984,2,0,P|150:251|99:219,1,110,8|0,0:0|3:0,0:0:0:0:
71,166,130508,2,0,L|31:168,2,27.5,0|0|2,3:0|3:0|0:0,0:0:0:0:
131,118,130856,2,0,P|165:125|200:144,1,55,0|0,0:0|3:0,0:0:0:0:
254,164,131205,6,0,L|254:203,2,27.5,0|0|0,3:0|3:0|1:0,0:0:0:0:
262,87,131554,1,0,1:0:0:0:
335,64,131728,1,0,1:0:0:0:
399,106,131903,1,0,3:0:0:0:
414,179,132077,6,0,P|450:217|510:220,1,110,0|0,3:0|0:0,0:0:0:0:
482,152,132601,1,0,3:0:0:0:
414,179,132775,2,0,P|376:217|376:272,1,110,0|0,3:0|3:0,0:0:0:0:
398,339,133298,2,0,P|410:332|420:324,2,27.5,0|0|2,3:0|3:0|0:0,0:0:0:0:
328,355,133647,1,0,3:0:0:0:
256,349,133821,2,0,L|224:297,1,55,0|0,3:0|0:0,0:0:0:0:
297,258,134170,2,0,L|303:202,1,55,8|0,0:0|3:0,0:0:0:0:
256,148,134519,1,0,0:0:0:0:
201,101,134694,6,0,L|209:71,2,27.5,0|0|2,3:0|3:0|0:0,0:0:0:0:
151,152,135042,1,0,0:0:0:0:
130,220,135217,2,0,P|123:246|125:274,1,55,0|0,0:0|3:0,0:0:0:0:
205,253,135566,2,0,P|256:247|315:283,1,110,8|0,0:0|3:0,0:0:0:0:
349,330,136089,2,0,P|359:357|361:372,2,27.5,0|0|2,3:0|3:0|0:0,0:0:0:0:
306,273,136438,1,0,3:0:0:0:
332,206,136612,2,0,P|343:173|369:141,1,55,0|0,3:0|0:0,0:0:0:0:
413,215,136961,2,0,P|448:215|486:202,1,55,8|0,0:0|0:0,0:0:0:0:
487,141,137310,2,0,P|459:140|432:145,1,55,0|0,1:0|1:0,0:0:0:0:
122,195,139926,6,0,P|111:161|87:127,2,55,0|0|0,0:0|3:0|3:0,0:0:0:0:
140,272,140449,6,0,L|216:286,1,60.5000018463135,6|2,0:0|0:0,0:0:0:0:
251,342,140798,2,0,L|323:316,1,60.5000018463135,2|2,0:0|0:0,0:0:0:0:
382,295,141147,1,8,0:0:0:0:
382,295,141321,1,0,0:0:0:0:
401,218,141496,2,0,L|343:197,1,60.5000018463135,0|0,3:0|3:0,0:0:0:0:
432,152,141845,2,0,P|460:178|457:262,1,121.000003692627,0|0,3:0|3:0,0:0:0:0:
447,333,142368,1,0,3:0:0:0:
382,295,142542,2,0,P|346:295|285:348,1,121.000003692627,8|0,0:0|0:0,0:0:0:0:
361,371,143066,1,0,3:0:0:0:
382,295,143240,6,0,L|391:211,1,60.5000018463135,2|0,0:0|0:0,0:0:0:0:
315,205,143589,2,0,L|309:145,1,60.5000018463135,2|0,0:0|0:0,0:0:0:0:
383,119,143938,2,0,L|392:35,1,60.5000018463135,10|0,0:0|0:0,0:0:0:0:
315,30,144287,1,2,0:0:0:0:
315,30,144461,1,0,0:0:0:0:
233,50,144635,6,0,P|174:55|149:49,1,60.5000018463135,2|0,0:0|0:0,0:0:0:0:
120,121,144984,2,0,P|89:120|60:125,1,60.5000018463135,2|0,0:0|0:0,0:0:0:0:
110,212,145333,2,0,P|140:207|166:191,1,60.5000018463135,2|0,0:0|0:0,0:0:0:0:
233,131,145682,1,2,0:0:0:0:
233,131,145856,1,0,3:0:0:0:
309,179,146031,6,0,L|291:251,1,60.5000018463135,4|0,0:0|0:0,0:0:0:0:
221,267,146380,2,0,L|239:339,1,60.5000018463135,2|0,0:0|0:0,0:0:0:0:
317,364,146728,1,2,0:0:0:0:
317,364,146903,1,0,0:0:0:0:
360,284,147077,2,0,P|385:255|409:242,1,60.5000018463135,0|0,3:0|3:0,0:0:0:0:
485,204,147426,2,0,P|503:171|486:89,1,121.000003692627,0|0,3:0|3:0,0:0:0:0:
413,143,147949,1,0,3:0:0:0:
326,170,148124,2,0,P|287:161|236:93,1,121.000003692627,8|0,0:0|3:0,0:0:0:0:
326,82,148647,1,0,3:0:0:0:
326,170,148821,6,0,L|315:252,1,60.5000018463135,6|0,0:0|0:0,0:0:0:0:
301,307,149170,2,0,L|236:255,1,60.5000018463135,2|0,0:0|3:0,0:0:0:0:
198,212,149519,2,0,L|274:181,1,60.5000018463135,10|0,0:0|0:0,0:0:0:0:
326,170,149868,1,2,0:0:0:0:
326,170,150042,1,0,0:0:0:0:
260,107,150217,6,0,P|253:71|259:38,1,60.5000018463135,2|0,0:0|0:0,0:0:0:0:
175,75,150566,2,0,P|140:88|107:87,1,60.5000018463135,2|0,0:0|0:0,0:0:0:0:
157,168,150915,2,0,P|185:191|201:220,1,60.5000018463135,10|0,0:0|0:0,0:0:0:0:
117,238,151263,1,2,0:0:0:0:
117,238,151438,1,0,0:0:0:0:
100,320,151612,6,0,L|115:384,1,60.5000018463135,4|0,1:0|0:0,0:0:0:0:
184,325,151961,1,0,0:0:0:0:
257,297,152135,2,0,P|322:299|379:337,1,121.000003692627,4|0,1:0|0:0,0:0:0:0:
447,314,152659,2,0,P|428:276|409:257,1,60.5000018463135,4|0,1:0|0:0,0:0:0:0:
352,215,153008,1,0,0:0:0:0:
286,171,153182,2,0,P|266:142|276:52,1,121.000003692627,4|0,1:0|0:0,0:0:0:0:
333,108,153705,2,0,L|401:99,1,60.5000018463135,8|0,0:0|3:0,0:0:0:0:
461,139,154054,1,0,3:0:0:0:
432,211,154228,1,2,3:0:0:0:
398,282,154403,6,0,L|410:352,1,60.5000018463135,4|0,1:0|0:0,0:0:0:0:
329,332,154752,1,0,0:0:0:0:
268,282,154926,2,0,B|209:267|209:267|142:282,1,121.000003692627,4|0,1:0|0:0,0:0:0:0:
75,304,155449,2,0,P|72:273|79:244,1,60.5000018463135,4|0,1:0|0:0,0:0:0:0:
122,179,155798,1,0,0:0:0:0:
191,141,155973,2,0,L|256:141,1,60.5000018463135,4|0,1:0|0:0,0:0:0:0:
329,141,156321,6,0,L|338:105,2,30.2500009231568,0|0|0,3:0|3:0|3:0,0:0:0:0:
309,217,156670,1,0,3:0:0:0:
289,293,156845,2,0,L|280:329,2,30.2500009231568,0|0|2,3:0|3:0|3:0,0:0:0:0:
366,278,157194,6,0,P|393:253|416:165,1,121.000003692627,4|0,1:0|0:0,0:0:0:0:
401,97,157717,2,0,P|359:77|280:108,1,121.000003692627,4|0,1:0|0:0,0:0:0:0:
226,143,158240,2,0,P|185:146|158:139,1,60.5000018463135,4|0,1:0|0:0,0:0:0:0:
94,109,158589,1,0,0:0:0:0:
34,160,158763,2,0,P|16:215|24:281,1,121.000003692627,4|0,1:0|0:0,0:0:0:0:
95,245,159287,2,0,P|134:249|168:269,1,60.5000018463135,8|0,0:0|3:0,0:0:0:0:
217,303,159635,1,0,3:0:0:0:
273,247,159810,1,2,3:0:0:0:
351,254,159984,6,0,P|383:252|411:243,1,60.5000018463135,2|0,0:0|0:0,0:0:0:0:
454,177,160333,2,0,P|416:173|388:162,1,60.5000018463135,2|0,0:0|3:0,0:0:0:0:
347,100,160682,2,0,P|381:97|413:85,2,60.5000018463135,10|0|2,0:0|0:0|0:0,0:0:0:0:
191,75,161380,6,0,L|110:53,1,60.5000018463135,2|0,0:0|3:0,0:0:0:0:
162,137,161728,2,0,L|109:167,1,60.5000018463135,2|0,0:0|0:0,0:0:0:0:
187,200,162077,2,0,L|171:258,2,60.5000018463135,2|0|2,0:0|0:0|0:0,0:0:0:0:
39,228,162775,6,0,P|50:282|116:326,1,121.000003692627,6|2,0:0|0:0,0:0:0:0:
183,328,163298,1,2,0:0:0:0:
254,282,163473,2,0,L|319:286,1,60.5000018463135,10|0,0:0|0:0,0:0:0:0:
387,328,163821,2,0,L|452:324,1,60.5000018463135,0|0,3:0|3:0,0:0:0:0:
472,243,164170,2,0,P|454:216|436:173,1,60.5000018463135,0|0,3:0|3:0,0:0:0:0:
413,110,164519,2,0,P|429:84|442:57,1,60.5000018463135,0|0,3:0|3:0,0:0:0:0:
363,28,164868,2,0,P|334:83|294:134,1,121.000003692627,8|0,0:0|3:0,0:0:0:0:
225,172,165391,1,0,3:0:0:0:
146,139,165566,6,0,B|113:134|113:134|74:140,1,60.5000018463135,2|0,0:0|0:0,0:0:0:0:
54,216,165914,2,0,B|87:221|87:221|126:215,1,60.5000018463135,2|0,0:0|3:0,0:0:0:0:
194,244,166263,2,0,L|186:324,1,60.5000018463135,10|0,0:0|0:0,0:0:0:0:
252,359,166612,1,2,0:0:0:0:
252,359,166787,1,0,3:0:0:0:
314,302,166961,6,0,L|320:241,1,60.5000018463135,2|0,0:0|3:0,0:0:0:0:
330,157,167310,2,0,P|362:172|390:183,1,60.5000018463135,2|0,0:0|0:0,0:0:0:0:
425,106,167659,2,0,P|453:94|480:81,1,60.5000018463135,2|0,0:0|3:0,0:0:0:0:
435,9,168008,1,2,0:0:0:0:
435,9,168182,1,0,3:0:0:0:
353,32,168356,6,0,B|298:53|276:8|211:41,1,121.000003692627,6|2,0:0|0:0,0:0:0:0:
153,61,168880,1,2,0:0:0:0:
206,126,169054,2,0,P|215:159|218:200,1,60.5000018463135,10|0,0:0|0:0,0:0:0:0:
284,238,169403,2,0,P|275:271|272:312,1,60.5000018463135,0|0,3:0|3:0,0:0:0:0:
202,346,169752,2,0,L|135:339,1,60.5000018463135,0|0,3:0|3:0,0:0:0:0:
100,265,170101,2,0,L|167:258,1,60.5000018463135,0|0,3:0|3:0,0:0:0:0:
181,176,170449,2,0,L|50:162,1,121.000003692627,8|0,0:0|3:0,0:0:0:0:
27,84,170973,1,0,3:0:0:0:
95,34,171147,6,0,P|138:31|167:38,1,60.5000018463135,2|0,0:0|0:0,0:0:0:0:
217,91,171496,2,0,L|289:89,1,60.5000018463135,2|0,0:0|3:0,0:0:0:0:
362,86,171845,2,0,B|375:58|375:58|372:17,2,60.5000018463135,10|0|2,0:0|0:0|0:0,0:0:0:0:
323,161,172368,1,0,3:0:0:0:
274,230,172542,2,0,L|286:310,1,60.5000018463135,2|0,0:0|3:0,0:0:0:0:
190,336,172891,2,0,L|190:275,1,60.5000018463135,2|0,0:0|0:0,0:0:0:0:
103,225,173240,2,0,L|91:305,2,60.5000018463135,2|0|2,0:0|0:0|0:0,0:0:0:0:
121,142,173763,1,0,0:0:0:0:
199,151,173938,6,0,B|240:148|240:148|281:160|281:160|332:159,1,121.000003692627,4|0,1:0|0:0,0:0:0:0:
300,85,174461,2,0,B|250:69|250:69|175:74,1,121.000003692627,4|0,1:0|0:0,0:0:0:0:
116,128,174984,2,0,B|119:173|119:173|140:196|140:232|140:232|140:260,1,121.000003692627,4|0,1:0|3:0,0:0:0:0:
58,270,175508,2,0,B|55:225|55:225|34:202|34:166|34:166|34:138,1,121.000003692627,4|0,1:0|0:0,0:0:0:0:
55,72,176031,1,8,0:0:0:0:
55,72,176205,1,0,3:0:0:0:
121,124,176380,2,0,L|123:160,2,30.2500009231568,0|0|2,3:0|3:0|3:0,0:0:0:0:
182,65,176728,6,0,P|234:61|297:114,1,121.000003692627,4|0,1:0|0:0,0:0:0:0:
296,182,177252,2,0,P|348:186|411:133,1,121.000003692627,4|0,1:0|0:0,0:0:0:0:
482,109,177775,2,0,L|479:229,1,121.000003692627,4|0,1:0|0:0,0:0:0:0:
401,270,178298,2,0,L|403:149,1,121.000003692627,4|0,1:0|3:0,0:0:0:0:
350,82,178821,1,8,0:0:0:0:
350,82,178996,1,0,3:0:0:0:
288,140,179170,2,0,L|287:185,2,30.2500009231568,0|0|2,3:0|3:0|3:0,0:0:0:0:
229,78,179519,6,0,B|168:60|166:102|85:71,1,121.000003692627,4|0,1:0|0:0,0:0:0:0:
31,45,180042,2,0,P|26:108|31:191,1,121.000003692627,4|0,1:0|0:0,0:0:0:0:
94,219,180566,2,0,P|149:194|207:176,1,121.000003692627,4|0,1:0|0:0,0:0:0:0:
291,177,181089,2,0,P|346:201|404:219,1,121.000003692627,4|0,1:0|0:0,0:0:0:0:
488,215,181612,1,8,0:0:0:0:
488,215,181787,1,0,0:0:0:0:
483,130,181961,2,0,L|526:117,2,30.2500009231568,0|0|2,3:0|3:0|3:0,0:0:0:0:
405,95,182310,6,0,L|332:90,1,60.5000018463135,2|0,0:0|0:0,0:0:0:0:
269,51,182659,2,0,L|196:56,1,60.5000018463135,2|0,0:0|0:0,0:0:0:0:
138,103,183008,2,0,P|131:148|134:189,1,60.5000018463135,0|0,3:0|3:0,0:0:0:0:
65,216,183356,2,0,P|83:257|108:290,1,60.5000018463135,0|0,3:0|3:0,0:0:0:0:
146,335,183705,2,0,L|125:366,2,30.2500009231568,2|2|2,0:0|0:0|0:0,0:0:0:0:
229,352,184054,2,0,L|250:383,2,30.2500009231568,2|2|2,0:0|0:0|0:0,0:0:0:0:
221,267,184403,1,2,0:0:0:0:
221,267,184577,1,0,0:0:0:0:
280,206,184752,2,0,L|356:210,1,60.5000018463135,2|0,0:0|0:0,0:0:0:0:
417,209,185101,6,0,P|421:156|433:89,1,110,6|2,0:0|0:0,0:0:0:0:
299,19,185798,2,0,P|295:72|283:139,1,110,10|0,0:0|0:0,0:0:0:0:
166,226,186496,2,0,L|128:221,2,27.5,2|2|2,0:0|0:0|0:0,0:0:0:0:
217,283,186845,2,0,L|255:288,2,27.5,2|2|2,0:0|0:0|0:0,0:0:0:0:
149,320,187194,2,0,L|33:303,1,110,2|2,0:0|0:0,0:0:0:0:
107,165,187891,6,0,B|123:108|123:108|111:49,1,110,2|2,0:0|0:0,0:0:0:0:
267,55,188589,2,0,B|256:104|256:104|272:161,1,110,10|0,0:0|0:0,0:0:0:0:
287,315,189287,2,0,L|294:341,2,27.5,2|2|2,0:0|0:0|0:0,0:0:0:0:
220,276,189635,2,0,L|212:249,2,27.5,2|2|2,0:0|0:0|0:0,0:0:0:0:
288,240,189984,2,0,P|328:227|402:217,1,110,10|2,0:0|0:0,0:0:0:0:
