osu file format v14

[General]
AudioFilename: audio.mp3
AudioLeadIn: 0
PreviewTime: 36496
Countdown: 0
SampleSet: Soft
StackLeniency: 0.7
Mode: 0
LetterboxInBreaks: 0
WidescreenStoryboard: 0

[Editor]
Bookmarks: 6496,62330,64423,144307,162795
DistanceSpacing: 1
BeatDivisor: 6
GridSize: 4
TimelineZoom: 1.8

[Metadata]
Title:Ice Cream Cake
TitleUnicode:Ice Cream Cake
Artist:Red Velvet
ArtistUnicode:Red Velvet
Creator:Lilyanna
Version:Cupcake
Source:
Tags:missa1912 Ora HB24 Hobbes2 neonat Come[Back]Home kpop k-pop electropop Irene Seul Gi Wendy Joy Yeri S.M.Entertainment KT MUSIC 1st mini album
BeatmapID:1055980
BeatmapSetID:496096

[Difficulty]
HPDrainRate:1
CircleSize:3
OverallDifficulty:1
ApproachRate:2
SliderMultiplier:0.9
SliderTickRate:1

[Events]
//Background and Video events
0,0,"ice_cream_cake_by_hyugadaniela15-d8n7kam.jpg",0,0
//Break Periods
2,29021,32145
2,82045,85866
2,109952,113773
//Storyboard Layer 0 (Background)
//Storyboard Layer 1 (Fail)
//Storyboard Layer 2 (Pass)
//Storyboard Layer 3 (Foreground)
//Storyboard Sound Samples

[TimingPoints]
915,697.674418604651,4,2,1,70,1,0
6496,-100,4,2,1,70,0,0
37194,-100,4,2,1,70,0,1
56423,-100,4,2,1,5,0,1
56467,-100,4,2,1,70,0,1
56598,-100,4,2,1,5,0,1
56641,-100,4,2,1,70,0,1
56685,-100,4,2,1,5,0,1
56728,-100,4,2,1,70,0,1
59519,-100,4,2,1,70,0,0
87426,-100,4,2,1,70,0,1
109752,-100,4,2,1,70,0,0
140449,-100,4,2,1,70,0,1
185101,-100,4,2,1,70,0,0

[Colours]
Combo1 : 255,150,100
Combo2 : 255,164,209
Combo3 : 255,85,85
Combo4 : 255,136,17
SliderBorder : 255,255,255

[HitObjects]
117,127,6496,6,0,B|170:72|170:72|226:116|226:116|270:64|336:82,1,270,0|8,1:0|0:0,0:0:0:0:
301,164,9287,2,0,B|365:198|447:146|447:146|479:221|455:275,1,270,0|8,3:0|0:0,0:0:0:0:
372,275,12077,6,0,L|299:334,2,90,6|8|0,0:0|0:0|3:0,0:0:0:0:
318,202,14170,2,0,L|395:142,1,90,8|0,0:0|3:0,0:0:0:0:
32,96,17659,6,0,B|85:74|85:74|140:98|140:98|213:32|287:90,1,270,0|8,3:0|0:0,0:0:0:0:
216,152,20449,2,0,B|160:195|160:195|106:191|106:191|35:263|107:323,1,270,0|8,3:0|0:0,0:0:0:0:
192,316,23240,6,0,L|280:357,2,90,4|8|0,0:0|0:0|3:0,0:0:0:0:
224,232,25333,2,0,L|312:273,1,90,8|0,0:0|3:0,0:0:0:0:
346,189,26728,2,0,B|385:205|385:205|441:155|441:155|397:71|310:95,1,270,8|2,0:0|0:0,0:0:0:0:
256,192,33705,12,0,35798,0:0:0:0:
196,37,37194,6,0,B|266:22|316:53|352:109|352:109|441:125,1,270,6|8,0:0|0:0,0:0:0:0:
402,207,39984,2,0,L|299:188,1,90,2|10,0:0|0:0,0:0:0:0:
295,279,41380,2,0,L|383:295,1,90,0|0,3:0|3:0,0:0:0:0:
450,356,42775,6,0,B|471:341|496:275|448:225|448:225|429:182|429:182|455:103,1,270,6|8,0:0|0:0,0:0:0:0:
364,100,45566,2,0,L|393:14,1,90,6|10,0:0|0:0,0:0:0:0:
303,7,46961,2,0,L|272:97,1,90,2|2,0:0|0:0,0:0:0:0:
184,106,48356,6,0,P|230:173|288:179,2,135,4|4|8,1:0|1:0|0:0,0:0:0:0:
273,92,51147,2,0,P|343:119|367:176,2,135,4|4|8,1:0|1:0|0:0,0:0:0:0:
271,185,53938,6,0,P|312:250|368:264,2,135,4|4|0,1:0|1:0|0:0,0:0:0:0:
360,173,56728,1,2,0:0:0:0:
299,106,57426,1,2,0:0:0:0:
225,53,58124,2,0,P|208:109|218:152,1,90,2|2,0:0|0:0,0:0:0:0:
128,70,62310,6,0,B|178:47|255:64|255:64|333:46|396:76,1,270,4|8,0:0|0:0,0:0:0:0:
384,164,65101,2,0,B|316:127|256:155|256:155|191:126|125:163,1,270,0|8,3:0|0:0,0:0:0:0:
181,233,67891,6,0,B|124:282|44:239|23:206|20:132|72:93,1,270,0|0,3:0|0:0,0:0:0:0:
139,53,70682,1,4,1:0:0:0:
227,36,71380,2,0,B|235:109|170:138|170:138|235:138,1,180,8|8,0:0|0:0,0:0:0:0:
311,154,73473,5,2,0:0:0:0:
363,227,74170,2,0,B|408:183|395:130|395:130|465:169,1,180,8|0,0:0|0:0,0:0:0:0:
465,255,76263,2,0,L|430:341,2,90,6|8|0,0:0|0:0|3:0,0:0:0:0:
377,230,78356,2,0,L|410:146,1,90,8|2,0:0|0:0,0:0:0:0:
487,101,79752,6,0,B|461:58|395:38|345:84|345:84|282:78|282:78|312:43,1,270,8|2,0:0|0:0,0:0:0:0:
282,73,87426,6,0,B|337:76|413:36|413:36|395:118|408:168,1,270,6|8,0:0|0:0,0:0:0:0:
475,227,90217,2,0,P|411:257|383:253,1,90,2|8,0:0|0:0,0:0:0:0:
409,166,91612,2,0,P|359:171|320:204,1,90,0|0,3:0|3:0,0:0:0:0:
262,255,93008,6,0,B|207:252|131:292|131:292|149:210|136:160,1,270,6|8,0:0|0:0,0:0:0:0:
71,97,95799,2,0,P|136:70|163:71,1,90,2|10,0:0|0:0,0:0:0:0:
136,161,97194,2,0,P|184:157|224:129,1,90,0|0,3:0|3:0,0:0:0:0:
262,56,98589,5,4,1:0:0:0:
347,26,99287,1,0,0:0:0:0:
436,42,99984,2,0,P|414:85|374:111,1,90,0|0,3:0|0:0,0:0:0:0:
290,108,101380,1,4,1:0:0:0:
204,79,102077,1,0,0:0:0:0:
153,4,102775,2,0,P|121:44|113:91,1,90,0|8,0:0|0:0,0:0:0:0:
160,157,104170,6,0,B|226:120|226:120|266:129|297:124,2,135,4|4|8,1:0|1:0|0:0,0:0:0:0:
95,219,106961,1,6,0:0:0:0:
128,302,107659,1,2,0:0:0:0:
217,290,108356,2,0,P|243:248|245:199,1,90,2|2,0:0|0:0,0:0:0:0:
206,127,109752,5,4,0:0:0:0:
159,41,115333,6,0,B|88:146|150:225|150:225|186:199|184:161,1,270,0|0,0:0|0:0,0:0:0:0:
245,99,118124,2,0,B|292:148|277:189|251:253|251:253|345:211,1,270,0|0,0:0|0:0,0:0:0:0:
432,232,120914,6,0,B|441:153|365:121|365:121|409:72|409:72|354:29,1,270,0|8,1:0|0:0,0:0:0:0:
270,46,123705,1,0,1:0:0:0:
186,80,124403,1,8,0:0:0:0:
98,60,125101,2,0,P|103:118|124:147,1,90,0|8,3:0|0:0,0:0:0:0:
174,215,126496,6,0,L|189:316,1,90,6|8,0:0|0:0,0:0:0:0:
272,274,127891,2,0,L|287:375,1,90,0|8,3:0|0:0,0:0:0:0:
370,334,129287,6,0,L|356:244,1,90,2|8,0:0|0:0,0:0:0:0:
445,238,130682,2,0,L|431:148,1,90,2|0,0:0|1:0,0:0:0:0:
373,79,132077,2,0,P|343:131|344:168,1,90,0|0,3:0|3:0,0:0:0:0:
347,249,133473,2,0,P|303:240|269:211,1,90,2|8,0:0|0:0,0:0:0:0:
258,122,134868,6,0,P|217:139|183:184,1,90,2|8,0:0|0:0,0:0:0:0:
127,240,136263,1,2,0:0:0:0:
170,319,136961,1,8,0:0:0:0:
257,344,137659,5,2,0:0:0:0:
174,86,140449,6,0,B|150:26|150:26|122:48|63:110|123:224,1,270,6|8,0:0|0:0,0:0:0:0:
198,172,143240,2,0,P|205:230|189:265,1,90,2|10,0:0|0:0,0:0:0:0:
116,211,144635,2,0,P|111:162|130:117,1,90,2|2,0:0|0:0,0:0:0:0:
202,78,146031,6,0,B|226:18|226:18|254:40|313:102|253:216,1,270,4|8,0:0|0:0,0:0:0:0:
178,164,148822,2,0,P|171:222|187:257,1,90,6|10,0:0|0:0,0:0:0:0:
260,203,150217,2,0,P|266:158|249:108,1,90,2|10,0:0|0:0,0:0:0:0:
184,57,151612,5,4,1:0:0:0:
116,116,152310,2,0,L|82:215,2,90,0|0|8,0:0|0:0|0:0,0:0:0:0:
184,57,154403,1,4,1:0:0:0:
254,112,155101,2,0,L|287:207,2,90,0|0|0,0:0|0:0|3:0,0:0:0:0:
262,22,157194,6,0,P|309:38|339:71,1,90,4|0,1:0|0:0,0:0:0:0:
425,77,158589,2,0,P|407:123|370:149,1,90,0|8,0:0|0:0,0:0:0:0:
296,189,159984,5,2,0:0:0:0:
142,95,161380,1,2,0:0:0:0:
142,274,162775,6,0,B|213:248|267:291|267:291|325:331|399:271,1,270,6|0,0:0|0:0,0:0:0:0:
400,185,165566,2,0,L|420:85,1,90,2|10,0:0|0:0,0:0:0:0:
331,68,166961,2,0,L|313:156,1,90,2|2,0:0|0:0,0:0:0:0:
267,234,168356,6,0,B|215:205|224:140|224:140|187:103|134:78|134:78|145:139,1,270,6|8,0:0|0:0,0:0:0:0:
81,192,171147,2,0,L|90:289,1,90,2|10,0:0|0:0,0:0:0:0:
179,284,172542,2,0,L|170:194,1,90,2|2,0:0|0:0,0:0:0:0:
260,187,173938,6,0,L|274:323,2,135,4|4|8,1:0|1:0|0:0,0:0:0:0:
326,126,176728,2,0,P|256:98|200:120,2,135,4|4|8,1:0|1:0|0:0,0:0:0:0:
260,187,179519,6,0,P|184:205|132:172,2,135,4|4|8,1:0|1:0|0:0,0:0:0:0:
253,97,182310,2,0,B|202:89|202:89|153:104,2,90,2|0|2,0:0|3:0|0:0,0:0:0:0:
340,120,184403,1,2,0:0:0:0:
412,174,185101,6,0,B|463:182|463:182|512:167,2,90,6|10|2,0:0|0:0|0:0,0:0:0:0:
333,217,187194,1,2,0:0:0:0:
252,256,187891,6,0,B|201:248|201:248|152:263,2,90,2|10|2,0:0|0:0|0:0,0:0:0:0:
328,305,189984,1,10,0:0:0:0:
