osu file format v14

[General]
AudioFilename: audio.mp3
AudioLeadIn: 0
PreviewTime: 36496
Countdown: 0
SampleSet: Soft
StackLeniency: 0.7
Mode: 0
LetterboxInBreaks: 0
WidescreenStoryboard: 0

[Editor]
Bookmarks: 59539,62330,64423,109772,144307,162795
DistanceSpacing: 1.2
BeatDivisor: 6
GridSize: 8
TimelineZoom: 1.8

[Metadata]
Title:Ice Cream Cake
TitleUnicode:Ice Cream Cake
Artist:Red Velvet
ArtistUnicode:Red Velvet
Creator:Lilyanna
Version:Cheesecake
Source:
Tags:missa1912 Ora HB24 Hobbes2 neonat Come[Back]Home kpop k-pop electropop Irene Seul Gi Wendy Joy Yeri S.M.Entertainment KT MUSIC 1st mini album
BeatmapID:1055982
BeatmapSetID:496096

[Difficulty]
HPDrainRate:5
CircleSize:4
OverallDifficulty:5
ApproachRate:5
SliderMultiplier:1.5
SliderTickRate:1

[Events]
//Background and Video events
0,0,"ice_cream_cake_by_hyugadaniela15-d8n7kam.jpg",0,0
//Break Periods
2,29021,33203
2,82044,83435
2,109952,114133
//Storyboard Layer 0 (Background)
//Storyboard Layer 1 (Fail)
//Storyboard Layer 2 (Pass)
//Storyboard Layer 3 (Foreground)
//Storyboard Sound Samples

[TimingPoints]
915,697.674418604651,4,2,1,70,1,0
6496,-100,4,2,1,70,0,0
37194,-100,4,2,1,70,0,1
56423,-100,4,2,1,5,0,1
56467,-100,4,2,1,70,0,1
56598,-100,4,2,1,5,0,1
56641,-100,4,2,1,70,0,1
56685,-100,4,2,1,5,0,1
56728,-100,4,2,1,70,0,1
59519,-100,4,2,1,70,0,0
87426,-100,4,2,1,70,0,1
109752,-100,4,2,1,70,0,0
140449,-100,4,2,1,70,0,1
185101,-100,4,2,1,70,0,0

[Colours]
Combo1 : 255,150,100
Combo2 : 255,164,209
Combo3 : 255,85,85
Combo4 : 255,136,17
SliderBorder : 255,255,255

[HitObjects]
446,129,6496,6,0,P|408:161|303:143,1,150,0|8,1:0|0:0,0:0:0:0:
244,93,7542,1,0,3:0:0:0:
168,44,7891,2,0,P|95:33|36:83,1,150,0|8,3:0|0:0,0:0:0:0:
118,119,8938,1,0,0:0:0:0:
68,193,9287,6,0,P|141:205|200:154,1,150,0|8,3:0|0:0,0:0:0:0:
258,94,10333,1,0,3:0:0:0:
314,23,10682,2,0,P|345:76|314:164,1,150,0|8,3:0|0:0,0:0:0:0:
254,217,11728,1,0,0:0:0:0:
189,280,12077,6,0,B|104:238|104:238|38:236,2,150,6|8|0,0:0|0:0|3:0,0:0:0:0:
254,217,13821,1,0,3:0:0:0:
319,279,14170,2,0,B|404:237|404:237|459:235,1,150,8|0,0:0|3:0,0:0:0:0:
477,42,17659,6,0,B|487:115|487:115|448:193,1,150,0|10,3:0|0:0,0:0:0:0:
387,244,18705,1,2,0:0:0:0:
324,179,19054,2,0,B|289:110|289:110|299:37,1,150,0|8,0:0|0:0,0:0:0:0:
210,53,20101,1,0,3:0:0:0:
121,27,20449,6,0,P|130:99|190:142,1,150,0|8,3:0|0:0,0:0:0:0:
276,168,21496,1,0,3:0:0:0:
340,105,21845,2,0,P|363:149|324:244,1,150,0|8,3:0|0:0,0:0:0:0:
258,284,22891,1,2,3:0:0:0:
180,238,23240,6,0,B|127:239|95:204|95:204|38:199,2,150,4|8|0,0:0|0:0|3:0,0:0:0:0:
256,288,24984,1,0,3:0:0:0:
331,238,25333,2,0,B|384:239|416:204|416:204|473:199,1,150,8|0,0:0|3:0,0:0:0:0:
328,91,26728,6,0,L|253:85,1,75,8|0,0:0|3:0,0:0:0:0:
282,170,27426,2,0,L|207:164,1,75,0|0,3:0|3:0,0:0:0:0:
119,184,28124,2,0,L|112:258,2,75,10|2|2,0:0|0:0|0:0,0:0:0:0:
256,192,34403,12,0,35798,0:0:0:0:
183,102,37194,6,0,B|257:87|257:87|337:104,1,150,6|8,0:0|0:0,0:0:0:0:
391,167,38240,1,0,3:0:0:0:
330,234,38589,2,0,B|256:249|256:249|176:232,1,150,0|8,3:0|0:0,0:0:0:0:
121,167,39635,1,0,0:0:0:0:
200,105,39984,6,0,L|208:29,1,75,2|2,0:0|0:0,0:0:0:0:
288,74,40682,2,0,L|280:148,1,75,10|2,0:0|0:0,0:0:0:0:
359,191,41380,2,0,L|367:114,1,75,0|0,3:0|3:0,0:0:0:0:
446,159,42077,2,0,L|438:233,1,75,0|0,3:0|3:0,0:0:0:0:
488,308,42775,6,0,P|424:324|354:266,1,150,6|8,0:0|0:0,0:0:0:0:
353,188,43821,1,0,0:0:0:0:
279,136,44170,2,0,P|343:98|418:125,1,150,0|8,3:0|0:0,0:0:0:0:
473,185,45217,1,0,3:0:0:0:
401,239,45566,6,0,L|392:315,1,75,6|2,0:0|0:0,0:0:0:0:
314,271,46263,2,0,L|321:196,1,75,10|2,0:0|0:0,0:0:0:0:
243,154,46961,2,0,L|234:230,1,75,2|2,0:0|0:0,0:0:0:0:
156,186,47659,2,0,L|163:111,1,75,2|0,0:0|3:0,0:0:0:0:
208,34,48356,6,0,P|249:48|300:112,1,112.5,4|4,1:0|1:0,0:0:0:0:
220,211,49403,2,0,P|255:254|306:275,1,112.5,4|4,1:0|1:0,0:0:0:0:
426,214,50449,1,8,0:0:0:0:
447,126,50798,1,0,0:0:0:0:
360,99,51147,6,0,P|319:113|268:177,1,112.5,4|4,1:0|1:0,0:0:0:0:
348,276,52194,2,0,P|312:319|261:340,1,112.5,4|4,1:0|1:0,0:0:0:0:
142,279,53240,1,8,0:0:0:0:
121,191,53589,1,0,3:0:0:0:
186,129,53938,6,0,P|229:129|297:174,1,112.5,4|4,1:0|1:0,0:0:0:0:
252,293,54984,2,0,P|299:322|354:326,1,112.5,4|4,1:0|1:0,0:0:0:0:
449,233,56031,1,0,0:0:0:0:
442,142,56380,1,0,0:0:0:0:
353,127,56728,6,0,B|317:127|317:127|285:104,1,75,2|2,0:0|0:0,0:0:0:0:
344,36,57426,2,0,B|313:14|313:14|277:14,1,75,2|2,0:0|0:0,0:0:0:0:
192,49,58124,1,2,0:0:0:0:
117,100,58473,1,2,0:0:0:0:
66,174,58821,2,0,P|121:189|163:177,1,75,2|2,0:0|0:0,0:0:0:0:
170,83,61612,6,0,L|108:68,2,37.5,0|0|0,1:0|1:0|1:0,0:0:0:0:
259,93,62310,6,0,B|267:172,1,75,4|0,0:0|0:0,0:0:0:0:
176,168,63008,2,0,B|184:247,1,75,8|0,0:0|3:0,0:0:0:0:
112,297,63705,2,0,P|175:332|262:286,1,150,2|8,0:0|0:0,0:0:0:0:
285,227,64752,1,0,1:0:0:0:
364,183,65101,6,0,B|357:261|374:261|364:355,1,150,0|8,3:0|0:0,0:0:0:0:
455,335,66147,1,0,3:0:0:0:
479,248,66496,2,0,B|488:210|471:210|480:174,1,75,0|0,3:0|3:0,0:0:0:0:
496,84,67194,1,8,0:0:0:0:
421,34,67542,1,2,3:0:0:0:
387,117,67891,6,0,B|337:94|333:36|333:36|260:24,1,150,0|8,3:0|0:0,0:0:0:0:
204,66,68938,1,0,3:0:0:0:
122,28,69287,2,0,P|117:93|136:126,1,75,2|0,0:0|3:0,0:0:0:0:
166,177,69984,1,8,0:0:0:0:
252,201,70333,1,0,3:0:0:0:
341,190,70682,6,0,L|350:268,1,75,4|0,1:0|0:0,0:0:0:0:
430,225,71380,2,0,L|439:303,1,75,8|0,0:0|3:0,0:0:0:0:
362,347,72077,1,2,3:0:0:0:
274,324,72426,2,0,L|199:351,2,75,2|8|2,3:0|0:0|3:0,0:0:0:0:
344,267,73473,6,0,P|310:218|203:194,1,150,2|8,0:0|0:0,0:0:0:0:
154,243,74519,1,0,0:0:0:0:
91,307,74868,2,0,P|65:260|66:230,1,75,2|2,3:0|3:0,0:0:0:0:
68,149,75566,1,8,0:0:0:0:
114,72,75914,1,0,0:0:0:0:
179,133,76263,6,0,P|248:159|330:127,2,150,6|8|0,0:0|0:0|3:0,0:0:0:0:
146,48,78008,1,0,0:0:0:0:
85,114,78356,2,0,P|62:177|103:266,1,150,8|2,0:0|0:0,0:0:0:0:
172,92,79752,6,0,L|247:86,1,75,8|0,0:0|0:0,0:0:0:0:
218,171,80449,2,0,L|293:165,1,75,2|2,3:0|3:0,0:0:0:0:
381,180,81147,2,0,L|392:263,2,75,8|0|2,1:0|1:0|0:0,0:0:0:0:
256,192,84635,12,0,86031,0:0:0:0:
57,134,87426,6,0,P|33:203|58:285,1,150,6|4,0:0|0:0,0:0:0:0:
113,341,88473,1,0,0:0:0:0:
176,277,88821,2,0,P|194:205|170:135,1,150,0|8,3:0|0:0,0:0:0:0:
116,62,89868,1,0,3:0:0:0:
205,58,90217,6,0,L|284:67,1,75,2|2,0:0|0:0,0:0:0:0:
309,151,90914,2,0,L|234:142,1,75,8|0,0:0|1:0,0:0:0:0:
266,226,91612,2,0,L|345:235,1,75,0|0,3:0|3:0,0:0:0:0:
369,319,92310,2,0,L|294:310,1,75,0|0,3:0|3:0,0:0:0:0:
204,303,93008,6,0,P|133:326|60:289,1,150,6|12,0:0|0:0,0:0:0:0:
27,215,94054,1,0,0:0:0:0:
72,137,94403,2,0,P|143:114|216:151,1,150,0|8,3:0|0:0,0:0:0:0:
259,217,95449,1,0,0:0:0:0:
311,289,95798,6,0,L|390:279,1,75,2|2,0:0|0:0,0:0:0:0:
416,194,96496,2,0,L|341:202,1,75,10|0,0:0|1:0,0:0:0:0:
289,128,97194,2,0,L|368:118,1,75,0|0,3:0|3:0,0:0:0:0:
393,33,97891,2,0,L|318:41,1,75,0|0,3:0|3:0,0:0:0:0:
225,57,98589,6,0,P|186:83|117:91,1,112.5,4|4,1:0|1:0,0:0:0:0:
52,214,99635,2,0,P|91:188|160:180,1,112.5,4|4,1:0|1:0,0:0:0:0:
268,258,100682,1,0,0:0:0:0:
348,297,101031,1,0,0:0:0:0:
350,206,101380,6,0,P|389:180|458:172,1,112.5,4|4,1:0|1:0,0:0:0:0:
487,41,102426,2,0,P|448:67|379:75,1,112.5,4|4,1:0|1:0,0:0:0:0:
248,71,103473,1,8,0:0:0:0:
168,48,103821,1,0,3:0:0:0:
150,136,104170,6,0,P|111:162|42:170,1,112.5,4|4,1:0|1:0,0:0:0:0:
13,301,105217,2,0,P|52:275|121:267,1,112.5,4|4,1:0|1:0,0:0:0:0:
252,271,106263,1,8,0:0:0:0:
332,294,106612,1,0,3:0:0:0:
356,207,106961,6,0,B|398:218|398:201|443:208,1,75,6|2,0:0|0:0,0:0:0:0:
387,127,107659,2,0,B|354:132|354:115|312:126,1,75,2|2,0:0|0:0,0:0:0:0:
229,91,108356,1,2,0:0:0:0:
163,154,108705,1,2,0:0:0:0:
76,177,109054,2,0,P|104:225|142:238,1,75,2|0,0:0|3:0,0:0:0:0:
205,260,109752,5,4,0:0:0:0:
120,96,115333,6,0,B|194:56|194:56|221:71|279:55,1,150,0|0,0:0|0:0,0:0:0:0:
334,108,116380,1,0,0:0:0:0:
292,187,116728,2,0,B|218:227|218:227|191:212|133:228,1,150,0|0,0:0|0:0,0:0:0:0:
99,295,117775,1,0,0:0:0:0:
38,228,118124,6,0,P|8:299|44:368,1,150,0|0,0:0|0:0,0:0:0:0:
99,295,119170,1,0,0:0:0:0:
156,364,119519,2,0,P|190:295|154:224,1,150,0|0,0:0|0:0,0:0:0:0:
183,143,120566,1,0,0:0:0:0:
98,111,120914,6,0,P|126:72|160:55,1,75,0|0,1:0|0:0,0:0:0:0:
238,69,121612,2,0,B|280:68|314:88|314:88|351:68|395:69,2,150,8|0|8,0:0|3:0|0:0,0:0:0:0:
149,88,123356,2,0,L|133:142,1,37.5,0|0,0:0|3:0,0:0:0:0:
130,168,123705,6,0,L|116:214,1,37.5,0|0,1:0|0:0,0:0:0:0:
107,248,124054,1,0,0:0:0:0:
171,311,124403,2,0,B|210:319|210:319|258:311,1,75,8|0,0:0|3:0,0:0:0:0:
303,244,125101,2,0,L|390:253,1,75,0|0,3:0|3:0,0:0:0:0:
367,162,125798,2,0,L|454:171,1,75,8|2,0:0|0:0,0:0:0:0:
476,85,126496,6,0,P|406:89|343:37,1,150,6|8,0:0|0:0,0:0:0:0:
256,32,127542,1,0,3:0:0:0:
165,38,127891,2,0,P|107:84|34:81,1,150,0|8,3:0|0:0,0:0:0:0:
24,171,128938,1,0,1:0:0:0:
26,261,129287,6,0,P|99:244|161:292,1,150,2|8,0:0|0:0,0:0:0:0:
225,342,130333,1,0,3:0:0:0:
308,307,130682,2,0,P|337:204|303:148,1,150,2|0,0:0|1:0,0:0:0:0:
251,112,131728,1,0,1:0:0:0:
166,142,132077,6,0,P|116:200|32:194,1,150,0|0,3:0|3:0,0:0:0:0:
79,117,133124,1,0,3:0:0:0:
147,58,133473,2,0,B|222:48|221:64|315:59,1,150,2|8,0:0|0:0,0:0:0:0:
355,128,134519,1,0,0:0:0:0:
425,71,134868,6,0,P|446:127|386:213,1,150,2|8,0:0|0:0,0:0:0:0:
316,204,135914,1,0,3:0:0:0:
353,285,136263,2,0,P|309:326|207:304,1,150,2|8,0:0|0:0,0:0:0:0:
143,279,137310,1,0,1:0:0:0:
158,189,137659,6,0,B|176:148|226:130|226:130|190:92|188:32|258:-7|328:32|326:92|290:130|290:130|341:148|360:190,1,450,2|8,0:0|0:0,0:0:0:0:
294,251,140101,1,0,3:0:0:0:
229,313,140449,6,0,P|299:340|368:302,1,150,6|8,0:0|0:0,0:0:0:0:
368,218,141496,1,0,3:0:0:0:
326,138,141845,2,0,P|404:136|457:206,1,150,0|8,3:0|0:0,0:0:0:0:
368,218,142891,1,0,0:0:0:0:
325,297,143240,6,0,L|317:372,1,75,2|2,0:0|0:0,0:0:0:0:
241,322,143938,2,0,L|248:246,1,75,10|2,0:0|0:0,0:0:0:0:
175,193,144635,2,0,L|167:268,1,75,2|2,0:0|0:0,0:0:0:0:
95,212,145333,2,0,L|102:136,1,75,2|2,0:0|0:0,0:0:0:0:
120,48,146031,6,0,P|180:16|264:44,1,150,4|2,0:0|0:0,0:0:0:0:
288,121,147077,1,0,3:0:0:0:
356,184,147426,2,0,P|376:264|344:324,1,150,0|8,3:0|0:0,0:0:0:0:
256,328,148473,1,0,3:0:0:0:
272,238,148821,6,0,B|264:198|282:198|272:147,1,75,6|2,0:0|0:0,0:0:0:0:
190,131,149519,2,0,B|197:165|179:165|187:205,1,75,10|2,0:0|0:0,0:0:0:0:
101,176,150217,2,0,B|93:136|111:136|103:101,1,75,2|2,0:0|0:0,0:0:0:0:
21,64,150914,2,0,B|28:98|10:98|18:138,1,75,10|2,0:0|0:0,0:0:0:0:
25,229,151612,6,0,P|78:271|128:274,1,112.5,4|4,1:0|1:0,0:0:0:0:
220,183,152659,2,0,P|290:193|326:225,1,112.5,4|4,1:0|1:0,0:0:0:0:
420,309,153705,1,8,0:0:0:0:
448,223,154054,1,0,3:0:0:0:
467,135,154403,6,0,P|414:93|364:90,1,112.5,4|4,1:0|1:0,0:0:0:0:
272,181,155449,2,0,P|202:171|166:139,1,112.5,4|4,1:0|1:0,0:0:0:0:
72,55,156496,1,0,3:0:0:0:
50,142,156845,1,0,3:0:0:0:
47,230,157194,6,0,P|100:272|150:275,1,112.5,4|4,1:0|1:0,0:0:0:0:
249,193,158240,2,0,P|319:203|355:235,1,112.5,4|4,1:0|1:0,0:0:0:0:
462,303,159287,1,8,0:0:0:0:
495,220,159635,1,0,3:0:0:0:
460,137,159984,6,0,B|425:149|425:149|377:133,1,75,2|2,0:0|0:0,0:0:0:0:
399,47,160682,2,0,B|362:34|362:34|327:46,1,75,10|2,0:0|0:0,0:0:0:0:
268,114,161380,2,0,B|233:102|233:102|196:114,1,75,2|2,0:0|0:0,0:0:0:0:
156,196,162077,2,0,B|191:208|191:208|227:195,1,75,2|2,0:0|0:0,0:0:0:0:
316,184,162775,6,0,P|383:152|462:195,1,150,6|10,0:0|0:0,0:0:0:0:
385,242,163821,1,0,3:0:0:0:
328,312,164170,2,0,B|257:331|257:331|177:306,1,150,0|8,3:0|0:0,0:0:0:0:
103,269,165217,1,0,3:0:0:0:
62,188,165566,6,0,L|69:113,1,75,2|2,0:0|0:0,0:0:0:0:
156,90,166263,2,0,L|148:164,1,75,10|2,0:0|0:0,0:0:0:0:
229,204,166961,2,0,L|236:129,1,75,2|2,0:0|0:0,0:0:0:0:
322,102,167659,2,0,L|315:177,1,75,2|2,0:0|0:0,0:0:0:0:
404,163,168356,6,0,B|428:230|428:230|404:313,1,150,6|10,0:0|0:0,0:0:0:0:
314,309,169403,1,0,3:0:0:0:
240,361,169752,2,0,B|210:313|235:264|235:264|208:207,1,150,0|8,3:0|0:0,0:0:0:0:
235,133,170798,1,0,3:0:0:0:
190,53,171147,6,0,P|154:99|146:132,1,75,2|2,0:0|0:0,0:0:0:0:
60,131,171845,2,0,P|96:177|104:210,1,75,10|2,0:0|0:0,0:0:0:0:
189,210,172542,2,0,P|153:256|145:289,1,75,2|2,0:0|0:0,0:0:0:0:
58,279,173240,2,0,P|94:325|102:358,1,75,2|2,0:0|0:0,0:0:0:0:
191,339,173938,6,0,P|244:299|306:304,1,112.5,4|4,1:0|1:0,0:0:0:0:
415,251,174984,2,0,P|375:216|302:207,1,112.5,4|4,1:0|1:0,0:0:0:0:
184,181,176031,1,8,0:0:0:0:
101,216,176380,1,0,3:0:0:0:
176,264,176728,6,0,P|229:299|252:352,1,112.5,4|4,1:0|1:0,0:0:0:0:
384,328,177775,2,0,P|394:275|365:208,1,112.5,4|4,1:0|1:0,0:0:0:0:
318,98,178821,1,8,0:0:0:0:
247,41,179170,1,0,3:0:0:0:
235,131,179519,6,0,P|182:171|120:166,1,112.5,4|4,1:0|1:0,0:0:0:0:
14,226,180566,2,0,P|54:261|127:270,1,112.5,4|4,1:0|1:0,0:0:0:0:
244,291,181612,1,8,0:0:0:0:
325,253,181961,1,0,3:0:0:0:
414,246,182310,6,0,P|424:193|410:154,1,75,2|2,0:0|0:0,0:0:0:0:
375,94,183008,2,0,P|324:75|283:83,1,75,0|0,3:0|3:0,0:0:0:0:
218,102,183705,1,2,0:0:0:0:
156,167,184054,1,2,0:0:0:0:
81,217,184403,2,0,P|110:246|161:257,1,75,2|2,0:0|0:0,0:0:0:0:
230,273,185101,6,0,P|203:320|167:340,1,75,6|2,0:0|0:0,0:0:0:0:
97,330,185798,2,0,P|45:311|19:279,1,75,10|0,0:0|0:0,0:0:0:0:
100,239,186496,1,2,0:0:0:0:
127,153,186845,1,2,0:0:0:0:
98,67,187194,2,0,P|138:63|184:87,1,75,2|2,0:0|0:0,0:0:0:0:
250,35,187891,6,0,P|260:88|246:127,1,75,2|2,0:0|0:0,0:0:0:0:
199,178,188589,2,0,P|250:197|291:189,1,75,10|0,0:0|0:0,0:0:0:0:
357,174,189287,1,2,0:0:0:0:
420,110,189635,1,2,0:0:0:0:
495,61,189984,2,0,P|466:32|415:21,1,75,10|2,0:0|0:0,0:0:0:0:
