osu file format v14

[General]
AudioFilename: audio.mp3
AudioLeadIn: 0
PreviewTime: 36496
Countdown: 0
SampleSet: Soft
StackLeniency: 0.7
Mode: 0
LetterboxInBreaks: 0
WidescreenStoryboard: 0

[Editor]
Bookmarks: 6496,62330,64423,144307,162795
DistanceSpacing: 1
BeatDivisor: 8
GridSize: 4
TimelineZoom: 1.3

[Metadata]
Title:Ice Cream Cake
TitleUnicode:Ice Cream Cake
Artist:Red Velvet
ArtistUnicode:Red Velvet
Creator:Lilyanna
Version:Cake
Source:
Tags:missa1912 Ora HB24 Hobbes2 neonat Come[Back]Home kpop k-pop electropop Irene Seul Gi Wendy Joy Yeri S.M.Entertainment KT MUSIC 1st mini album
BeatmapID:1055979
BeatmapSetID:496096

[Difficulty]
HPDrainRate:2
CircleSize:3
OverallDifficulty:2
ApproachRate:3
SliderMultiplier:1.1
SliderTickRate:1

[Events]
//Background and Video events
0,0,"ice_cream_cake_by_hyugadaniela15-d8n7kam.jpg",0,0
//Break Periods
2,29021,32963
2,82045,83195
2,109952,113893
2,137160,139009
//Storyboard Layer 0 (Background)
//Storyboard Layer 1 (Fail)
//Storyboard Layer 2 (Pass)
//Storyboard Layer 3 (Foreground)
//Storyboard Sound Samples

[TimingPoints]
915,697.674418604651,4,2,1,70,1,0
6496,-100,4,2,1,70,0,0
37194,-100,4,2,1,70,0,1
56423,-100,4,2,1,5,0,1
56467,-100,4,2,1,70,0,1
56598,-100,4,2,1,5,0,1
56641,-100,4,2,1,70,0,1
56685,-100,4,2,1,5,0,1
56728,-100,4,2,1,70,0,1
59519,-100,4,2,1,70,0,0
87426,-100,4,2,1,70,0,1
109752,-100,4,2,1,70,0,0
140449,-100,4,2,1,70,0,1
185101,-100,4,2,1,70,0,0

[Colours]
Combo1 : 255,150,100
Combo2 : 255,164,209
Combo3 : 255,85,85
Combo4 : 255,136,17
SliderBorder : 255,255,255

[HitObjects]
200,92,6496,6,0,P|148:72|72:156,2,165,0|0|8,1:0|3:0|0:0,0:0:0:0:
312,92,9287,2,0,P|364:72|440:156,2,165,0|0|8,3:0|3:0|0:0,0:0:0:0:
256,188,12077,5,6,0:0:0:0:
184,272,12775,1,8,0:0:0:0:
256,356,13473,2,0,L|368:356,1,110,0|8,3:0|0:0,0:0:0:0:
428,264,14868,2,0,P|452:188|428:108,2,165,0|0|8,3:0|3:0|0:0,0:0:0:0:
366,356,17659,6,0,L|256:356,1,110,0|10,3:0|0:0,0:0:0:0:
172,288,19054,2,0,L|60:288,1,110,0|8,0:0|0:0,0:0:0:0:
4,192,20449,1,0,3:0:0:0:
60,96,21147,1,8,0:0:0:0:
156,152,21845,2,0,B|208:160|208:160|264:152,1,110,0|8,3:0|0:0,0:0:0:0:
320,56,23240,6,0,B|268:48|268:48|212:56,2,110,4|8|0,0:0|0:0|3:0,0:0:0:0:
424,96,25333,1,8,0:0:0:0:
352,179,26031,2,0,P|341:232|361:288,1,110,0|8,3:0|0:0,0:0:0:0:
448,228,27426,2,0,L|228:228,1,220,0|2,3:0|0:0,0:0:0:0:
256,192,34403,12,0,35798,0:0:0:0:
84,128,37194,6,0,B|144:140|136:116|192:128,1,110,6|8,0:0|0:0,0:0:0:0:
248,224,38589,2,0,L|228:276,2,55,0|0|8,3:0|3:0|0:0,0:0:0:0:
312,136,39984,2,0,P|396:124|460:168,2,165,2|2|0,0:0|0:0|3:0,0:0:0:0:
212,180,42775,5,6,0:0:0:0:
108,220,43473,1,8,0:0:0:0:
10,169,44170,2,0,P|6:141|14:113,2,55,0|0|8,3:0|3:0|0:0,0:0:0:0:
108,220,45566,6,0,B|144:260|144:260|200:268,1,110,6|10,0:0|0:0,0:0:0:0:
309,267,46961,2,0,B|365:259|365:259|401:219,1,110,2|2,0:0|0:0,0:0:0:0:
366,114,48356,2,0,P|446:118|506:178,2,165,4|4|8,1:0|1:0|0:0,0:0:0:0:
262,152,51147,6,0,P|182:148|122:88,2,165,4|4|8,1:0|1:0|0:0,0:0:0:0:
224,48,53938,2,0,P|306:52|363:113,2,165,4|4|0,1:0|1:0|0:0,0:0:0:0:
125,83,56728,5,2,0:0:0:0:
76,181,57426,1,2,0:0:0:0:
126,278,58124,2,0,B|179:296|179:296|243:277,1,110,2|2,0:0|0:0,0:0:0:0:
343,51,62310,5,4,0:0:0:0:
437,107,63008,1,8,0:0:0:0:
441,216,63705,2,0,L|482:258,2,55,2|0|8,0:0|3:0|0:0,0:0:0:0:
362,139,65101,2,0,B|308:124|308:124|248:139,1,110,0|8,3:0|0:0,0:0:0:0:
320,226,66496,2,0,B|266:241|266:241|206:226,1,110,0|8,3:0|0:0,0:0:0:0:
121,167,67891,6,0,B|101:115|128:115|117:57,1,110,0|8,3:0|0:0,0:0:0:0:
210,118,69287,2,0,B|220:174|193:174|213:226,1,110,2|8,0:0|0:0,0:0:0:0:
280,313,70682,5,4,1:0:0:0:
387,288,71380,2,0,P|435:252|448:202,2,110,8|2|8,0:0|3:0|0:0,0:0:0:0:
280,313,73473,1,2,0:0:0:0:
172,289,74170,2,0,P|124:253|111:203,2,110,8|2|8,0:0|3:0|0:0,0:0:0:0:
280,313,76263,5,6,0:0:0:0:
290,203,76961,2,0,L|305:91,1,110,8|0,0:0|3:0,0:0:0:0:
216,27,78356,2,0,L|201:135,1,110,8|2,0:0|0:0,0:0:0:0:
182,244,79752,2,0,B|239:250|239:250|315:233|315:233|402:231,1,220,8|8,0:0|1:0,0:0:0:0:
479,155,81845,5,2,0:0:0:0:
256,192,84635,12,0,86031,0:0:0:0:
431,46,87426,6,0,B|386:79|386:79|365:128,1,110,6|4,0:0|0:0,0:0:0:0:
417,225,88821,2,0,L|452:272,2,55,0|0|8,3:0|3:0|0:0,0:0:0:0:
327,160,90217,2,0,B|216:137,1,110,2|8,0:0|0:0,0:0:0:0:
169,235,91612,2,0,B|280:262,1,110,0|0,3:0|3:0,0:0:0:0:
358,334,93008,6,0,P|383:283|375:219,1,110,6|12,0:0|0:0,0:0:0:0:
365,115,94403,2,0,L|419:93,2,55,0|0|8,3:0|3:0|0:0,0:0:0:0:
260,79,95798,2,0,B|202:80|202:80|161:124,1,110,2|10,0:0|0:0,0:0:0:0:
259,177,97194,2,0,B|223:215|223:215|165:216,1,110,0|0,3:0|3:0,0:0:0:0:
60,182,98589,6,0,P|69:271|140:322,2,165,4|4|0,1:0|1:0|0:0,0:0:0:0:
165,214,101380,2,0,P|151:116|94:73,2,165,4|4|8,1:0|1:0|0:0,0:0:0:0:
88,292,104170,6,0,P|162:322|243:288,2,165,4|4|8,1:0|1:0|0:0,0:0:0:0:
45,190,106961,1,6,0:0:0:0:
106,97,107659,1,2,0:0:0:0:
207,53,108356,2,0,B|263:35|263:64|323:52,1,110,2|2,0:0|0:0,0:0:0:0:
405,116,109752,5,4,0:0:0:0:
129,82,115333,5,0,0:0:0:0:
91,185,116031,1,0,0:0:0:0:
123,290,116728,2,0,B|167:319|167:319|235:311,1,110,0|0,0:0|0:0,0:0:0:0:
301,233,118124,1,0,0:0:0:0:
246,137,118821,1,0,0:0:0:0:
327,63,119519,2,0,B|383:56|383:56|427:85,1,110,0|0,0:0|0:0,0:0:0:0:
429,195,120914,5,0,1:0:0:0:
368,286,121612,1,8,0:0:0:0:
259,303,122310,2,0,L|225:351,2,55,0|0|8,3:0|3:0|0:0,0:0:0:0:
261,192,123705,1,0,1:0:0:0:
239,84,124403,1,8,0:0:0:0:
138,38,125101,2,0,L|92:6,2,55,0|0|8,3:0|3:0|0:0,0:0:0:0:
160,145,126496,5,6,0:0:0:0:
107,241,127194,1,8,0:0:0:0:
205,290,127891,2,0,B|234:292|256:312|256:312|277:292|311:292,1,110,0|8,3:0|0:0,0:0:0:0:
389,222,129287,1,2,0:0:0:0:
421,114,129984,1,8,0:0:0:0:
309,100,130682,2,0,B|280:98|258:78|258:78|237:98|203:98,1,110,2|0,0:0|1:0,0:0:0:0:
148,189,132077,5,0,3:0:0:0:
73,270,132775,1,0,3:0:0:0:
176,309,133473,2,0,L|219:357,2,55,2|0|8,0:0|3:0|0:0,0:0:0:0:
239,219,134868,1,2,0:0:0:0:
190,120,135566,1,8,0:0:0:0:
292,81,136263,2,0,B|340:111|344:89|413:124,1,110,2|8,0:0|0:0,0:0:0:0:
107,72,140449,6,0,P|88:122|92:183,1,110,6|8,0:0|0:0,0:0:0:0:
114,285,141845,2,0,L|94:345,2,55,0|0|8,3:0|3:0|0:0,0:0:0:0:
195,211,143240,2,0,B|221:162|221:162|288:133,1,110,2|10,0:0|0:0,0:0:0:0:
288,248,144635,2,0,B|338:226|338:226|364:177,1,110,2|2,0:0|0:0,0:0:0:0:
335,70,146031,6,0,P|395:69|452:111,1,110,4|2,0:0|0:0,0:0:0:0:
449,202,147426,2,0,L|503:221,2,55,0|0|8,3:0|3:0|0:0,0:0:0:0:
341,226,148821,2,0,B|311:275|311:275|248:293,1,110,6|10,0:0|0:0,0:0:0:0:
257,179,150217,2,0,B|206:193|206:193|176:242,1,110,2|10,0:0|0:0,0:0:0:0:
153,349,151612,6,0,P|87:305|75:201,2,165,4|4|8,1:0|1:0|0:0,0:0:0:0:
176,240,154403,2,0,P|242:195|260:117,2,165,4|4|0,1:0|1:0|3:0,0:0:0:0:
155,132,157194,6,0,P|177:52|256:11,2,165,4|4|8,1:0|1:0|0:0,0:0:0:0:
205,229,159984,5,2,0:0:0:0:
282,306,160682,1,10,0:0:0:0:
368,238,161380,1,2,0:0:0:0:
311,143,162077,1,2,0:0:0:0:
207,106,162775,6,0,P|245:55|305:31,1,110,6|10,0:0|0:0,0:0:0:0:
391,66,164170,2,0,L|449:37,2,55,0|0|8,3:0|3:0|0:0,0:0:0:0:
346,166,165566,2,0,L|357:276,1,110,2|10,0:0|0:0,0:0:0:0:
250,250,166961,2,0,L|238:140,1,110,2|2,0:0|0:0,0:0:0:0:
328,76,168356,6,0,P|279:38|223:32,1,110,6|10,0:0|0:0,0:0:0:0:
127,62,169752,2,0,L|74:47,2,55,0|0|8,3:0|3:0|0:0,0:0:0:0:
163,165,171147,2,0,P|174:212|206:262,1,110,2|10,0:0|0:0,0:0:0:0:
263,168,172542,2,0,P|293:206|313:262,1,110,2|2,0:0|0:0,0:0:0:0:
266,362,173938,6,0,P|353:364|417:293,2,165,4|4|8,1:0|1:0|0:0,0:0:0:0:
313,263,176728,2,0,P|327:183|392:137,2,165,4|4|8,1:0|1:0|0:0,0:0:0:0:
421,242,179519,6,0,P|486:195|500:116,2,165,4|4|8,1:0|1:0|0:0,0:0:0:0:
391,135,182310,1,2,0:0:0:0:
308,62,183008,1,0,3:0:0:0:
198,49,183705,2,0,P|165:69|139:142,1,110,2|2,0:0|0:0,0:0:0:0:
237,148,185101,5,6,0:0:0:0:
279,249,185798,1,10,0:0:0:0:
189,312,186496,2,0,P|140:306|90:261,1,110,2|2,0:0|0:0,0:0:0:0:
181,201,187891,5,2,0:0:0:0:
227,105,188589,1,10,0:0:0:0:
146,30,189287,1,2,0:0:0:0:
52,86,189984,1,10,0:0:0:0:
