osu file format v14

[General]
AudioFilename: 01_Ice_Cream_Cake.mp3
AudioLeadIn: 0
PreviewTime: 36141
Countdown: 1
SampleSet: Soft
StackLeniency: 0.7
Mode: 0
LetterboxInBreaks: 1
WidescreenStoryboard: 1

[Editor]
DistanceSpacing: 0.3
BeatDivisor: 4
GridSize: 4
TimelineZoom: 1.4

[Metadata]
Title:Ice Cream Cake
TitleUnicode:Ice Cream Cake
Artist:Red Velvet
ArtistUnicode:레드벨벳
Creator:JustinSONE
Version:Insane
Source:
Tags:kpop k pop seulgi joy wendy irene sm
BeatmapID:1053224
BeatmapSetID:344785

[Difficulty]
HPDrainRate:6
CircleSize:4
OverallDifficulty:7
ApproachRate:9
SliderMultiplier:1.8
SliderTickRate:1

[Events]
//Background and Video events
Video,-7183,"icc.flv"
0,0,"rvbg.jpg",0,0
//Break Periods
2,59538,61006
2,109771,114727
//Storyboard Layer 0 (Background)
//Storyboard Layer 1 (Fail)
//Storyboard Layer 2 (Pass)
//Storyboard Layer 3 (Foreground)
//Storyboard Sound Samples

[TimingPoints]
909,348.837209302326,4,2,1,60,1,0
28641,-133.333333333333,4,2,1,60,0,0
29339,-100,4,2,1,60,0,0
37188,-83.3333333333333,4,2,1,60,0,1
48176,-100,4,2,1,60,0,0
87420,-83.3333333333333,4,2,1,60,0,1
98409,-100,4,2,1,60,0,0
140443,-83.3333333333333,4,2,1,60,0,1
151606,-100,4,2,1,60,0,0
159978,-83.3333333333333,4,2,1,60,0,0
162769,-83.3333333333333,4,2,1,60,0,1
173932,-100,4,2,1,60,0,0
185095,-117.647058823529,4,2,1,60,0,0

[Colours]
Combo1 : 255,215,91
Combo2 : 102,255,102
Combo3 : 121,182,255
Combo4 : 245,95,117

[HitObjects]
124,112,6315,5,0,0:0:0:0:
68,216,6490,2,0,B|148:264|172:184|260:224,1,180
197,313,7013,2,0,P|266:321|302:305,1,90
412,251,7362,1,0,0:0:0:0:
389,351,7536,1,2,0:0:0:0:
307,217,7711,1,2,0:0:0:0:
223,139,7885,6,0,P|171:127|127:147,1,90
89,64,8234,1,0,0:0:0:0:
183,214,8409,2,0,L|183:310,1,90
292,274,8757,2,0,L|344:358,1,90
464,357,9106,5,2,0:0:0:0:
464,357,9193,1,0,0:0:0:0:
464,357,9281,1,2,0:0:0:0:
495,236,9455,2,0,L|515:136,1,90
413,59,9804,1,2,0:0:0:0:
263,85,9978,2,0,L|187:84,2,45,8|0|2,0:0|0:0|0:0,0:0:0:0:
368,153,10327,2,0,B|386:193|386:193|368:245,1,90
299,344,10676,5,0,0:0:0:0:
408,329,10850,1,2,0:0:0:0:
275,246,11024,1,2,0:0:0:0:
163,311,11199,1,0,0:0:0:0:
163,311,11286,1,0,0:0:0:0:
163,311,11374,2,0,L|99:243,1,90,8|2,0:0|0:0,0:0:0:0:
100,106,11722,1,0,0:0:0:0:
100,106,11897,2,0,L|164:174,1,90,0|2,0:0|0:0,0:0:0:0:
258,244,12246,5,0,0:0:0:0:
442,246,12420,1,0,0:0:0:0:
264,264,12595,1,2,0:0:0:0:
470,297,12769,2,0,P|483:249|466:197,1,90,8|0,0:0|0:0,0:0:0:0:
512,114,13118,1,2,0:0:0:0:
372,160,13292,2,0,P|359:208|376:260,1,90,8|0,0:0|0:0,0:0:0:0:
403,370,13641,5,2,0:0:0:0:
462,293,13815,1,2,0:0:0:0:
307,330,13990,1,0,0:0:0:0:
307,330,14164,2,0,P|263:338|201:321,1,90,8|2,0:0|0:0,0:0:0:0:
132,254,14513,1,0,0:0:0:0:
260,208,14688,2,0,P|268:156|236:100,2,90
49,209,15385,6,0,P|37:264|65:318,2,90
1,129,15909,1,2,0:0:0:0:
132,254,16083,1,2,0:0:0:0:
132,254,16170,1,0,0:0:0:0:
132,254,16257,2,0,P|176:262|228:250,1,90,0|2,0:0|0:0,0:0:0:0:
274,327,16606,1,2,0:0:0:0:
177,179,16781,5,0,0:0:0:0:
177,179,16868,1,0,0:0:0:0:
177,179,16955,2,0,L|180:71,1,90,8|2,0:0|0:0,0:0:0:0:
278,15,17304,2,0,L|277:127,1,90,8|2,0:0|0:0,0:0:0:0:
274,276,17653,2,0,B|276:337|276:337|302:363,2,90,8|2|0,0:0|0:0|0:0,0:0:0:0:
277,129,18176,5,2,0:0:0:0:
278,15,18350,2,0,P|346:37|392:143,1,180,8|2,0:0|0:0,0:0:0:0:
505,131,18874,1,0,0:0:0:0:
277,129,19048,2,0,P|267:176|287:218,1,90,0|2,0:0|0:0,0:0:0:0:
471,203,19397,1,2,0:0:0:0:
389,306,19571,1,0,0:0:0:0:
282,213,19746,2,0,L|187:226,1,90,8|2,0:0|0:0,0:0:0:0:
149,348,20095,1,0,0:0:0:0:
43,275,20269,6,0,L|34:170,1,90,2|0,0:0|0:0,0:0:0:0:
0,57,20618,2,0,B|59:25|129:62|129:62|211:37,1,180,0|2,0:0|0:0,0:0:0:0:
325,5,21141,1,8,0:0:0:0:
288,135,21315,1,0,0:0:0:0:
251,267,21490,6,0,L|224:361,1,90,2|2,0:0|0:0,0:0:0:0:
386,302,21839,2,0,B|416:334|416:334|471:348,1,90,0|2,0:0|0:0,0:0:0:0:
480,218,22188,1,2,0:0:0:0:
436,104,22362,2,0,B|406:78|406:78|345:76,1,90,0|8,0:0|0:0,0:0:0:0:
224,75,22711,1,2,0:0:0:0:
295,171,22885,5,0,0:0:0:0:
225,250,23060,1,2,0:0:0:0:
225,250,23147,1,0,0:0:0:0:
225,250,23234,1,0,0:0:0:0:
320,316,23409,5,0,0:0:0:0:
213,367,23583,1,0,0:0:0:0:
31,292,23757,1,2,0:0:0:0:
119,334,23932,2,0,P|130:293|112:240,1,90,8|0,0:0|0:0,0:0:0:0:
31,150,24281,1,2,0:0:0:0:
31,150,24455,2,0,P|25:113|42:55,1,90,2|0,0:0|0:0,0:0:0:0:
218,21,24804,5,2,0:0:0:0:
113,106,24978,1,2,0:0:0:0:
252,25,25153,1,0,0:0:0:0:
110,151,25327,2,0,B|89:193|89:193|102:237,1,90
17,276,25676,1,0,0:0:0:0:
196,194,25850,2,0,L|255:195,2,45
324,241,26548,6,0,P|334:185|310:134,1,90,2|8,0:0|0:0,0:0:0:0:
194,109,26897,1,0,0:0:0:0:
194,109,27071,2,0,P|184:165|208:216,1,90,2|8,0:0|0:0,0:0:0:0:
350,277,27420,1,0,0:0:0:0:
350,277,27595,2,0,P|360:221|336:170,2,90,2|8|0,0:0|0:0|0:0,0:0:0:0:
245,343,28118,5,8,0:0:0:0:
225,345,28292,1,2,0:0:0:0:
204,347,28467,1,0,0:0:0:0:
184,349,28641,2,0,B|119:353|119:353|71:283|-12:332,1,202.500007724762,2|0,0:0|0:0,0:0:0:0:
62,211,29339,5,0,0:0:0:0:
223,180,29513,2,0,P|238:107|160:12,1,180
124,121,30036,1,0,0:0:0:0:
223,180,30211,2,0,P|305:198|425:168,1,180
344,284,30734,5,0,0:0:0:0:
266,90,30909,2,0,P|222:82|167:95,1,90
223,265,31257,2,0,P|235:225|218:173,1,90
53,218,31606,2,0,P|121:212|155:231,1,90
338,335,32129,5,0,0:0:0:0:
338,335,32304,2,0,P|430:300|438:194,1,180
336,232,32827,1,0,0:0:0:0:
225,239,33002,2,0,P|252:153|361:122,1,180
457,88,33525,5,0,0:0:0:0:
329,117,33699,2,0,L|230:88,1,90
81,126,34048,2,0,L|180:155,1,90
175,259,34397,2,0,L|274:288,1,90
353,318,34920,5,0,0:0:0:0:
408,217,35095,2,0,B|465:97|465:97|484:157,1,180
497,304,35618,1,0,0:0:0:0:
278,180,35792,2,0,L|184:126,1,90
256,192,36141,12,0,36839,0:0:0:0:
99,119,37188,6,0,P|129:68|181:43,1,107.999996704102,2|0,0:0|0:0,0:0:0:0:
324,56,37536,1,0,0:0:0:0:
232,172,37711,1,2,0:0:0:0:
396,132,37885,2,0,P|408:212|368:279,1,161.999995056153,8|0,0:0|0:0,0:0:0:0:
272,290,38234,2,0,P|284:224|339:187,1,107.999996704102,2|2,0:0|0:0,0:0:0:0:
440,320,38583,5,0,0:0:0:0:
156,236,38757,1,2,0:0:0:0:
264,135,38932,2,0,P|320:75|324:37,1,107.999996704102,2|0,0:0|0:0,0:0:0:0:
104,144,39281,2,0,P|48:204|43:243,1,107.999996704102,8|2,0:0|0:0,0:0:0:0:
253,311,39629,2,0,B|283:345|283:345|345:318|399:343,1,161.999995056153
428,351,39978,5,2,0:0:0:0:
364,152,40153,1,0,0:0:0:0:
156,236,40327,1,0,0:0:0:0:
452,339,40502,1,2,0:0:0:0:
360,132,40676,1,8,0:0:0:0:
156,256,40850,1,0,0:0:0:0:
374,229,41025,2,0,P|428:204|456:153,1,107.999996704102,2|2,0:0|0:0,0:0:0:0:
280,84,41374,6,0,L|181:23,1,107.999996704102,0|2,0:0|0:0,0:0:0:0:
24,88,41722,2,0,L|122:152,1,107.999996704102,2|0,0:0|0:0,0:0:0:0:
245,311,42071,2,0,L|145:249,1,107.999996704102,8|2,0:0|0:0,0:0:0:0:
52,220,42420,1,0,0:0:0:0:
252,220,42595,1,2,0:0:0:0:
298,65,42769,6,0,P|350:53|421:78,1,107.999996704102,2|0,0:0|0:0,0:0:0:0:
360,308,43118,2,0,P|324:244|346:147,1,161.999995056153
423,124,43467,2,0,P|430:186|405:230,1,107.999996704102,8|0,0:0|0:0,0:0:0:0:
271,322,43815,2,0,B|221:336|221:336|153:319,1,107.999996704102,2|2,0:0|0:0,0:0:0:0:
60,120,44164,2,0,P|132:108|180:130,1,107.999996704102,0|2,0:0|0:0,0:0:0:0:
424,236,44513,2,0,P|378:249|299:224,1,107.999996704102,2|0,0:0|0:0,0:0:0:0:
228,79,44862,2,0,B|189:45|189:45|97:47,1,107.999996704102,8|2,0:0|0:0,0:0:0:0:
32,196,45211,2,0,B|67:229|67:229|166:228,1,107.999996704102,8|2,0:0|0:0,0:0:0:0:
275,236,45560,5,2,0:0:0:0:
383,311,45734,1,0,0:0:0:0:
494,239,45909,1,0,0:0:0:0:
382,151,46083,1,2,0:0:0:0:
455,37,46257,1,8,0:0:0:0:
304,35,46432,1,0,0:0:0:0:
190,125,46606,2,0,B|154:159|154:159|77:166,1,107.999996704102,2|2,0:0|0:0,0:0:0:0:
334,128,46955,6,0,P|388:117|455:136,1,107.999996704102,0|2,0:0|0:0,0:0:0:0:
220,328,47304,2,0,L|297:231,1,107.999996704102,2|0,0:0|0:0,0:0:0:0:
280,32,47653,1,8,0:0:0:0:
184,120,47827,1,2,0:0:0:0:
287,243,48002,2,0,P|344:255|408:233,1,107.999996704102,0|2,0:0|0:0,0:0:0:0:
184,120,48350,6,0,B|132:122|132:122|74:53|15:71,1,180,2|0,0:0|0:0,0:0:0:0:
23,198,48874,2,0,B|57:234|57:234|136:253|154:313,1,180,2|0,0:0|0:0,0:0:0:0:
61,339,49397,1,2,0:0:0:0:
249,274,49571,2,0,P|309:267|350:281,1,90,2|0,0:0|0:0,0:0:0:0:
438,333,49920,1,2,0:0:0:0:
501,235,50095,2,0,P|514:190|484:136,1,90,2|0,0:0|0:0,0:0:0:0:
372,113,50443,1,8,0:0:0:0:
372,113,50618,2,0,P|359:158|389:212,1,90,2|0,0:0|0:0,0:0:0:0:
499,150,50967,1,2,0:0:0:0:
273,102,51141,6,0,P|190:70|98:125,1,180,2|0,0:0|0:0,0:0:0:0:
47,42,51664,1,2,0:0:0:0:
196,163,51839,2,0,L|197:285,1,90,8|0,0:0|0:0,0:0:0:0:
87,333,52188,1,2,0:0:0:0:
246,196,52362,2,0,L|247:318,1,90,8|0,0:0|0:0,0:0:0:0:
351,374,52711,2,0,L|350:252,1,90,8|0,0:0|0:0,0:0:0:0:
349,157,53060,5,0,0:0:0:0:
349,157,53147,1,0,0:0:0:0:
349,157,53234,1,8,0:0:0:0:
288,44,53409,1,2,0:0:0:0:
416,43,53583,1,0,0:0:0:0:
425,52,53670,1,2,0:0:0:0:
433,62,53757,1,2,0:0:0:0:
441,72,53845,1,2,0:0:0:0:
449,82,53932,6,0,P|462:110|453:177,1,90,2|0,0:0|0:0,0:0:0:0:
512,250,54281,1,0,0:0:0:0:
357,130,54455,2,0,P|348:166|363:224,1,90,2|8,0:0|0:0,0:0:0:0:
260,201,54804,1,0,0:0:0:0:
478,332,54978,2,0,B|440:361|440:361|381:362,1,90,2|2,0:0|0:0,0:0:0:0:
264,324,55327,1,0,0:0:0:0:
132,348,55502,6,0,L|21:281,1,90,2|2,0:0|0:0,0:0:0:0:
56,166,55850,1,0,0:0:0:0:
56,166,55938,1,0,0:0:0:0:
56,166,56025,1,8,0:0:0:0:
83,39,56199,2,0,P|141:67|171:114,1,90,2|0,0:0|0:0,0:0:0:0:
157,245,56548,1,2,0:0:0:0:
251,151,56722,6,0,L|326:216,1,90,2|0,0:0|0:0,0:0:0:0:
512,180,57071,2,0,L|425:108,1,90,0|2,0:0|0:0,0:0:0:0:
185,169,57420,2,0,L|257:234,1,90,8|0,0:0|0:0,0:0:0:0:
496,123,57769,2,0,L|424:63,1,90,2|2,0:0|0:0,0:0:0:0:
235,52,58118,5,0,0:0:0:0:
235,52,58205,1,0,0:0:0:0:
235,52,58292,1,2,0:0:0:0:
355,195,58467,1,2,0:0:0:0:
355,195,58554,1,0,0:0:0:0:
355,195,58641,1,0,0:0:0:0:
212,314,58815,2,0,P|168:324|116:308,1,90,8|2,0:0|0:0,0:0:0:0:
316,67,59164,2,0,P|360:57|412:73,1,90,0|2,0:0|0:0,0:0:0:0:
368,84,61606,5,0,0:0:0:0:
352,100,61781,1,0,0:0:0:0:
332,120,61955,1,0,0:0:0:0:
312,140,62129,1,0,0:0:0:0:
164,264,62304,6,0,B|120:274|120:274|57:257,1,90,2|0,0:0|0:0,0:0:0:0:
22,156,62653,1,0,0:0:0:0:
22,156,62740,1,0,0:0:0:0:
22,156,62827,1,2,0:0:0:0:
96,64,63002,1,8,0:0:0:0:
120,176,63176,1,0,0:0:0:0:
215,98,63350,2,0,P|259:89|316:104,2,90,2|2|0,0:0|0:0|0:0,0:0:0:0:
256,206,63874,5,2,0:0:0:0:
183,319,64048,1,2,0:0:0:0:
350,327,64222,1,0,0:0:0:0:
350,327,64310,1,0,0:0:0:0:
350,327,64397,2,0,L|445:347,1,90
344,224,64746,2,0,L|249:204,1,90
117,157,65095,6,0,L|66:147,2,45
255,118,65443,2,0,P|265:161|249:217,1,90,0|2,0:0|0:0,0:0:0:0:
224,325,65792,6,0,P|289:329|365:243,1,180,8|2,0:0|0:0,0:0:0:0:
467,217,66315,1,2,0:0:0:0:
387,92,66490,1,0,0:0:0:0:
240,96,66664,2,0,L|140:83,1,90,2|2,0:0|0:0,0:0:0:0:
40,144,67013,1,0,0:0:0:0:
40,144,67188,2,0,P|51:214|40:232,1,90,8|0,0:0|0:0,0:0:0:0:
143,326,67536,2,0,P|133:267|147:238,1,90,8|0,0:0|0:0,0:0:0:0:
277,255,67885,5,2,0:0:0:0:
277,255,67972,1,0,0:0:0:0:
277,255,68060,1,0,0:0:0:0:
387,329,68234,1,0,0:0:0:0:
488,251,68409,1,0,0:0:0:0:
391,167,68583,2,0,B|357:140|357:140|308:139,1,90
141,137,68932,1,2,0:0:0:0:
219,218,69106,1,2,0:0:0:0:
231,60,69281,5,0,0:0:0:0:
231,60,69368,1,0,0:0:0:0:
231,60,69455,1,2,0:0:0:0:
141,137,69629,1,2,0:0:0:0:
46,57,69804,1,0,0:0:0:0:
13,178,69978,2,0,L|-6:280,1,90
63,381,70327,2,0,L|82:279,1,90
177,188,70676,5,0,0:0:0:0:
136,71,70850,2,0,P|185:63|233:77,1,90
334,147,71199,1,2,0:0:0:0:
420,221,71374,5,8,0:0:0:0:
512,147,71548,1,0,0:0:0:0:
420,221,71722,2,0,L|345:297,1,90,2|2,0:0|0:0,0:0:0:0:
219,262,72071,2,0,L|131:335,1,90,0|2,0:0|0:0,0:0:0:0:
32,367,72420,1,2,0:0:0:0:
11,240,72595,2,0,L|-3:138,2,90,0|8|2,0:0|0:0|0:0,0:0:0:0:
109,173,73118,5,0,0:0:0:0:
206,105,73292,2,0,P|269:96|309:113,1,90,2|2,0:0|0:0,0:0:0:0:
361,221,73641,2,0,P|298:230|258:213,1,90
178,173,73990,1,2,0:0:0:0:
98,88,74164,5,8,0:0:0:0:
37,199,74339,1,0,0:0:0:0:
235,58,74513,1,2,0:0:0:0:
436,55,74688,1,2,0:0:0:0:
344,17,74862,6,0,P|329:60|353:113,1,90,0|2,0:0|0:0,0:0:0:0:
441,194,75210,1,2,0:0:0:0:
345,253,75385,2,0,L|311:342,1,90,0|8,0:0|0:0,0:0:0:0:
175,384,75734,2,0,L|209:295,1,90,2|2,0:0|0:0,0:0:0:0:
116,215,76083,2,0,L|155:121,1,90,2|0,0:0|0:0,0:0:0:0:
102,35,76432,1,0,0:0:0:0:
246,41,76606,5,0,0:0:0:0:
94,48,76781,1,2,0:0:0:0:
253,72,76955,2,0,L|367:90,1,90,8|0,0:0|0:0,0:0:0:0:
454,158,77304,1,2,0:0:0:0:
454,158,77478,2,0,B|438:202|438:202|462:251,1,90,2|0,0:0|0:0,0:0:0:0:
423,346,77827,1,2,0:0:0:0:
301,308,78002,5,2,0:0:0:0:
301,308,78089,1,0,0:0:0:0:
301,308,78176,1,0,0:0:0:0:
301,308,78263,1,0,0:0:0:0:
301,308,78350,2,0,L|209:308,1,90,8|2,0:0|0:0,0:0:0:0:
86,193,78699,1,0,0:0:0:0:
86,193,78874,2,0,L|-12:193,2,90,2|2|0,0:0|0:0|0:0,0:0:0:0:
306,193,79571,5,2,0:0:0:0:
413,145,79746,2,0,P|430:201|413:241,1,90
345,353,80095,1,2,0:0:0:0:
451,324,80269,1,0,0:0:0:0:
451,324,80356,1,0,0:0:0:0:
451,324,80443,1,0,0:0:0:0:
319,252,80618,5,2,0:0:0:0:
214,160,80792,1,2,0:0:0:0:
197,302,80967,1,0,0:0:0:0:
118,203,81141,2,0,P|101:155|124:110,1,90,8|2,0:0|0:0,0:0:0:0:
27,76,81490,1,0,0:0:0:0:
214,160,81664,1,2,0:0:0:0:
214,160,81839,2,0,P|232:105|136:17,1,180
299,33,82362,5,0,0:0:0:0:
115,123,82536,2,0,P|104:176|182:270,1,180
337,275,83060,1,0,0:0:0:0:
458,345,83234,2,0,P|484:232|412:167,1,180
342,113,83757,5,0,0:0:0:0:
215,81,83932,2,0,L|115:64,1,90
147,175,84281,2,0,L|67:225,1,90
148,281,84629,2,0,L|150:378,1,90
121,74,85153,5,0,0:0:0:0:
233,169,85327,2,0,B|292:205|341:131|408:175,1,180
268,89,85850,1,0,0:0:0:0:
365,248,86025,2,0,L|367:340,1,90
256,192,86374,12,0,87071,0:0:0:0:
107,71,87420,6,0,L|146:189,1,107.999996704102,2|0,0:0|0:0,0:0:0:0:
312,326,87769,1,0,0:0:0:0:
258,207,87943,1,2,0:0:0:0:
376,132,88118,2,0,P|429:106|451:6,1,161.999995056153,8|0,0:0|0:0,0:0:0:0:
363,39,88467,2,0,P|306:63|287:127,1,107.999996704102,2|2,0:0|0:0,0:0:0:0:
204,240,88815,5,0,0:0:0:0:
396,273,88990,1,2,0:0:0:0:
389,104,89164,2,0,P|335:88|264:120,1,107.999996704102,2|0,0:0|0:0,0:0:0:0:
80,336,89513,2,0,P|134:352|203:323,1,107.999996704102,8|2,0:0|0:0,0:0:0:0:
364,260,89862,2,0,P|292:236|210:267,1,161.999995056153
192,280,90211,5,2,0:0:0:0:
287,137,90385,1,0,0:0:0:0:
392,292,90560,1,0,0:0:0:0:
200,123,90734,1,2,0:0:0:0:
392,292,90909,1,8,0:0:0:0:
236,244,91083,1,0,0:0:0:0:
236,244,91257,2,0,L|150:173,1,107.999996704102,2|2,0:0|0:0,0:0:0:0:
160,32,91606,6,0,L|245:101,1,107.999996704102,0|2,0:0|0:0,0:0:0:0:
376,88,91955,2,0,L|404:196|404:196,1,107.999996704102,2|0,0:0|0:0,0:0:0:0:
340,356,92304,1,8,0:0:0:0:
179,276,92478,1,2,0:0:0:0:
321,178,92653,2,0,P|361:130|378:72,1,107.999996704102,0|2,0:0|0:0,0:0:0:0:
147,100,93002,6,0,P|107:144|121:271,1,161.999995056153
179,276,93350,2,0,P|242:268|287:290,1,107.999996704102,0|2,0:0|0:0,0:0:0:0:
447,239,93699,2,0,P|375:247|434:168,1,215.999993408203,8|2,0:0|0:0,0:0:0:0:
300,328,94222,1,2,0:0:0:0:
216,96,94397,2,0,P|271:85|350:109,1,107.999996704102,0|2,0:0|0:0,0:0:0:0:
236,248,94746,2,0,P|170:258|120:244,1,107.999996704102,2|0,0:0|0:0,0:0:0:0:
32,120,95095,2,0,P|51:70|100:36,1,107.999996704102,8|2,0:0|0:0,0:0:0:0:
286,20,95443,2,0,P|264:64|209:96,1,107.999996704102,0|2,0:0|0:0,0:0:0:0:
130,250,95792,5,2,0:0:0:0:
222,328,95967,1,0,0:0:0:0:
365,173,96141,1,0,0:0:0:0:
245,226,96315,1,2,0:0:0:0:
270,100,96490,1,8,0:0:0:0:
384,40,96664,1,0,0:0:0:0:
179,76,96839,2,0,P|116:69|80:27,1,107.999996704102,2|2,0:0|0:0,0:0:0:0:
270,100,97188,6,0,P|288:161|270:212,1,107.999996704102,0|2,0:0|0:0,0:0:0:0:
89,311,97536,1,2,0:0:0:0:
89,311,97624,1,0,0:0:0:0:
89,311,97711,1,0,0:0:0:0:
180,216,97885,1,8,0:0:0:0:
234,336,98060,1,2,0:0:0:0:
234,336,98234,2,0,P|289:347|357:325,1,107.999996704102,0|2,0:0|0:0,0:0:0:0:
440,183,98583,6,0,B|396:159|396:159|385:76|292:74,1,180,2|0,0:0|0:0,0:0:0:0:
157,60,99106,2,0,B|201:84|201:84|212:167|305:169,1,180,2|0,0:0|0:0,0:0:0:0:
256,268,99629,1,2,0:0:0:0:
311,75,99804,2,0,B|362:57|413:82,1,90,2|0,0:0|0:0,0:0:0:0:
469,169,100153,1,2,0:0:0:0:
406,252,100327,1,2,0:0:0:0:
480,335,100502,1,0,0:0:0:0:
347,343,100676,2,0,B|273:319|259:372|167:340,1,180,8|0,0:0|0:0,0:0:0:0:
62,373,101199,1,2,0:0:0:0:
227,252,101374,6,0,P|248:151|223:73,1,180,2|0,0:0|0:0,0:0:0:0:
112,158,101897,1,2,0:0:0:0:
226,79,102071,2,0,L|323:78,1,90,8|0,0:0|0:0,0:0:0:0:
452,71,102420,1,2,0:0:0:0:
344,163,102595,2,0,P|336:203|354:257,1,90,2|0,0:0|0:0,0:0:0:0:
488,296,102943,2,0,P|496:256|478:202,1,90,2|0,0:0|0:0,0:0:0:0:
344,163,103292,5,2,0:0:0:0:
344,163,103379,1,0,0:0:0:0:
344,163,103467,1,8,0:0:0:0:
240,91,103641,1,0,0:0:0:0:
138,165,103815,1,0,0:0:0:0:
138,165,103903,1,0,0:0:0:0:
138,165,103990,1,0,0:0:0:0:
138,165,104077,1,0,0:0:0:0:
138,165,104164,6,0,P|122:200|135:251,1,90,2|0,0:0|0:0,0:0:0:0:
46,296,104513,1,0,0:0:0:0:
226,201,104688,2,0,P|237:156|219:105,1,90,2|8,0:0|0:0,0:0:0:0:
138,175,105036,1,0,0:0:0:0:
320,130,105211,2,0,P|331:85|313:34,1,90,2|8,0:0|0:0,0:0:0:0:
225,114,105560,1,0,0:0:0:0:
138,175,105734,6,0,L|127:278,1,90,2|2,0:0|0:0,0:0:0:0:
44,336,106082,1,0,0:0:0:0:
44,336,106170,1,0,0:0:0:0:
44,336,106257,1,8,0:0:0:0:
211,332,106432,2,0,P|255:322|306:333,1,90,2|0,0:0|0:0,0:0:0:0:
423,357,106780,1,2,0:0:0:0:
362,225,106955,6,0,P|352:175|367:134,1,90,2|0,0:0|0:0,0:0:0:0:
473,37,107304,2,0,P|483:87|468:128,1,90,2|0,0:0|0:0,0:0:0:0:
309,271,107653,2,0,P|299:221|314:180,1,90,2|0,0:0|0:0,0:0:0:0:
512,5,108002,2,0,P|522:55|507:96,1,90,2|0,0:0|0:0,0:0:0:0:
311,48,108350,5,0,0:0:0:0:
311,48,108438,1,0,0:0:0:0:
311,48,108525,1,2,0:0:0:0:
434,233,108699,1,2,0:0:0:0:
434,233,108786,1,0,0:0:0:0:
434,233,108874,1,0,0:0:0:0:
272,304,109048,2,0,L|184:353,1,90,8|2,0:0|0:0,0:0:0:0:
229,130,109397,2,0,L|317:81,1,90,8|2,0:0|0:0,0:0:0:0:
392,148,115327,6,0,B|353:116|353:116|301:155|206:110,1,180
172,207,115850,1,0,0:0:0:0:
279,37,116025,2,0,P|231:27|175:45,1,90
52,139,116374,1,0,0:0:0:0:
80,28,116548,1,0,0:0:0:0:
162,157,116722,5,0,0:0:0:0:
246,238,116897,1,0,0:0:0:0:
88,248,117071,1,0,0:0:0:0:
136,355,117246,2,0,B|188:324|188:324|253:354|311:323,1,180
480,383,117769,6,0,P|491:339|466:292,1,90
357,212,118118,2,0,P|346:256|371:303,1,90
477,234,118467,2,0,P|488:190|463:143,1,90
368,72,118815,5,0,0:0:0:0:
268,70,118990,1,0,0:0:0:0:
466,68,119164,2,0,B|487:111|487:111|466:160,1,90
343,225,119513,6,0,B|322:268|322:268|343:317,1,90
439,348,119862,1,0,0:0:0:0:
249,312,120036,2,0,B|181:346|150:275|70:318,1,180
211,220,120560,5,0,0:0:0:0:
211,220,120734,1,0,0:0:0:0:
211,220,120909,2,0,B|265:207|265:207|329:255|421:195,1,180,2|0,0:0|0:0,0:0:0:0:
431,309,121432,1,2,0:0:0:0:
391,122,121606,2,0,B|337:135|337:135|273:87|181:147,1,180,2|0,0:0|0:0,0:0:0:0:
66,209,122129,1,2,0:0:0:0:
142,317,122304,6,0,B|186:333|186:333|245:308,1,90,0|2,0:0|0:0,0:0:0:0:
256,196,122653,2,0,B|297:178|297:178|349:201,1,90,0|2,0:0|0:0,0:0:0:0:
448,315,123002,2,0,B|404:331|404:331|345:306,1,90,0|2,0:0|0:0,0:0:0:0:
168,246,123350,5,0,0:0:0:0:
270,281,123525,1,0,0:0:0:0:
124,149,123699,1,0,0:0:0:0:
39,73,123874,1,0,0:0:0:0:
190,40,124048,2,0,L|293:39,1,90
377,121,124397,2,0,L|485:119,2,90,8|0|2,0:0|0:0|0:0,0:0:0:0:
244,153,124920,5,2,0:0:0:0:
78,154,125095,1,0,0:0:0:0:
256,189,125269,1,2,0:0:0:0:
80,123,125443,1,2,0:0:0:0:
248,221,125618,1,0,0:0:0:0:
95,97,125792,2,0,P|126:65|181:58,2,90,8|2|0,0:0|0:0|0:0,0:0:0:0:
48,217,126315,5,2,0:0:0:0:
174,307,126490,2,0,B|220:308|220:308|288:345|371:294,1,180,2|0,0:0|0:0,0:0:0:0:
428,373,127013,1,2,0:0:0:0:
285,228,127188,2,0,L|285:108,1,90,0|2,0:0|0:0,0:0:0:0:
192,25,127536,2,0,L|192:142,1,90,0|2,0:0|0:0,0:0:0:0:
188,278,127885,5,0,0:0:0:0:
118,156,128060,1,2,0:0:0:0:
262,233,128234,1,2,0:0:0:0:
117,233,128409,1,0,0:0:0:0:
264,156,128583,2,0,L|366:157,2,90,8|2|0,0:0|0:0|0:0,0:0:0:0:
131,186,129106,5,2,0:0:0:0:
249,260,129281,2,0,B|326:297|356:216|457:285,1,180,2|0,0:0|0:0,0:0:0:0:
368,355,129804,1,2,0:0:0:0:
288,172,129978,2,0,B|211:135|181:216|80:147,1,180,2|0,0:0|0:0,0:0:0:0:
166,85,130502,5,2,0:0:0:0:
250,247,130676,1,0,0:0:0:0:
343,86,130850,1,2,0:0:0:0:
418,6,131025,1,2,0:0:0:0:
488,85,131199,1,0,0:0:0:0:
452,185,131374,5,8,0:0:0:0:
443,210,131548,1,2,0:0:0:0:
433,235,131722,1,0,0:0:0:0:
425,260,131897,1,0,0:0:0:0:
301,346,132071,6,0,B|259:358|259:358|202:343,1,90
92,255,132420,1,0,0:0:0:0:
99,367,132595,1,2,0:0:0:0:
211,247,132769,2,0,L|211:150,2,90
319,249,133292,1,0,0:0:0:0:
441,247,133467,2,0,P|432:297|467:355,1,90,0|2,0:0|0:0,0:0:0:0:
384,179,133815,2,0,P|393:129|358:71,1,90,0|2,0:0|0:0,0:0:0:0:
184,58,134164,6,0,L|77:45,1,90,8|2,0:0|0:0,0:0:0:0:
163,165,134513,2,0,L|270:178,1,90,8|2,0:0|0:0,0:0:0:0:
260,282,134862,2,0,L|367:295,1,90,8|2,0:0|0:0,0:0:0:0:
460,375,135211,1,0,0:0:0:0:
501,243,135385,1,2,0:0:0:0:
398,137,135560,2,0,B|371:81|407:30,1,90
491,87,135909,5,0,0:0:0:0:
398,137,136083,1,2,0:0:0:0:
303,189,136257,1,0,0:0:0:0:
348,287,136432,1,2,0:0:0:0:
240,289,136606,1,2,0:0:0:0:
158,360,136781,1,0,0:0:0:0:
46,283,136955,2,0,B|33:239|33:239|50:190,1,90,8|2,0:0|0:0,0:0:0:0:
196,84,137304,2,0,B|209:128|209:128|192:177,1,90,8|2,0:0|0:0,0:0:0:0:
120,307,137653,5,0,0:0:0:0:
120,307,137740,1,0,0:0:0:0:
120,307,137827,1,0,0:0:0:0:
300,222,138002,1,0,0:0:0:0:
300,222,138089,1,0,0:0:0:0:
300,222,138176,1,0,0:0:0:0:
167,72,138350,2,0,L|129:37,2,45,8|0|0,0:0|0:0|0:0,0:0:0:0:
387,78,138699,2,0,L|424:51,2,45
226,175,139048,5,0,0:0:0:0:
226,175,139135,1,0,0:0:0:0:
226,175,139222,1,0,0:0:0:0:
433,252,139397,1,0,0:0:0:0:
433,252,139484,1,0,0:0:0:0:
433,252,139571,1,0,0:0:0:0:
265,328,139746,2,0,L|165:373,1,90,8|0,0:0|0:0,0:0:0:0:
71,330,140095,1,0,0:0:0:0:
180,24,140269,1,0,0:0:0:0:
92,120,140443,6,0,L|214:112,1,107.999996704102,2|0,0:0|0:0,0:0:0:0:
436,84,140792,1,0,0:0:0:0:
314,29,140967,1,2,0:0:0:0:
424,264,141141,2,0,B|407:292|407:292|232:309,1,161.999995056153,8|0,0:0|0:0,0:0:0:0:
245,309,141490,1,2,0:0:0:0:
480,355,141664,1,2,0:0:0:0:
254,211,141839,6,0,P|240:160|262:93,1,107.999996704102,0|2,0:0|0:0,0:0:0:0:
423,163,142188,2,0,P|440:217|421:267,1,107.999996704102,2|0,0:0|0:0,0:0:0:0:
240,312,142536,2,0,L|117:294,1,107.999996704102,8|2,0:0|0:0,0:0:0:0:
64,96,142885,2,0,L|182:113,1,107.999996704102,0|2,0:0|0:0,0:0:0:0:
336,88,143234,5,2,0:0:0:0:
304,256,143409,1,0,0:0:0:0:
152,320,143583,1,0,0:0:0:0:
196,220,143757,1,2,0:0:0:0:
418,116,143932,2,0,L|408:224,1,107.999996704102,8|0,0:0|0:0,0:0:0:0:
294,283,144281,2,0,L|280:158,1,107.999996704102,2|2,0:0|0:0,0:0:0:0:
204,48,144629,5,0,0:0:0:0:
196,220,144804,1,2,0:0:0:0:
360,64,144978,1,2,0:0:0:0:
316,164,145152,1,0,0:0:0:0:
94,268,145327,2,0,L|103:157,1,107.999996704102,8|2,0:0|0:0,0:0:0:0:
218,101,145676,2,0,L|231:223,1,107.999996704102,0|2,0:0|0:0,0:0:0:0:
280,328,146025,6,0,P|356:340|436:284,1,161.999995056153
432,216,146374,2,0,P|368:224|334:272,1,107.999996704102,0|2,0:0|0:0,0:0:0:0:
131,216,146722,2,0,P|105:162|176:24,1,215.999993408203,8|2,0:0|0:0,0:0:0:0:
54,300,147246,1,2,0:0:0:0:
232,132,147420,6,0,L|349:108,1,107.999996704102,0|2,0:0|0:0,0:0:0:0:
280,328,147769,2,0,L|219:222,1,107.999996704102,2|0,0:0|0:0,0:0:0:0:
352,36,148118,2,0,L|416:141,1,107.999996704102,8|2,0:0|0:0,0:0:0:0:
424,340,148467,2,0,P|346:273|270:273,1,161.999995056153
264,286,148815,5,2,0:0:0:0:
307,172,148990,1,0,0:0:0:0:
146,201,149164,1,0,0:0:0:0:
290,265,149339,1,2,0:0:0:0:
219,116,149513,1,8,0:0:0:0:
158,315,149688,1,0,0:0:0:0:
387,221,149862,2,0,P|399:168|372:104,1,107.999996704102,2|2,0:0|0:0,0:0:0:0:
219,116,150211,5,0,0:0:0:0:
158,315,150385,1,2,0:0:0:0:
379,300,150560,1,2,0:0:0:0:
146,201,150734,1,0,0:0:0:0:
343,134,150909,1,8,0:0:0:0:
264,342,151083,1,2,0:0:0:0:
167,112,151257,2,0,P|228:102|291:123,1,107.999996704102,0|2,0:0|0:0,0:0:0:0:
468,205,151606,6,0,B|385:179|370:241|272:192,1,180,2|0,0:0|0:0,0:0:0:0:
167,112,152129,2,0,B|250:138|265:76|363:125,1,180,2|0,0:0|0:0,0:0:0:0:
209,26,152653,1,2,0:0:0:0:
89,77,152827,2,0,P|74:131|95:173,1,90,2|0,0:0|0:0,0:0:0:0:
0,191,153176,1,2,0:0:0:0:
167,112,153350,2,0,P|182:166|161:208,1,90,2|0,0:0|0:0,0:0:0:0:
273,149,153699,1,8,0:0:0:0:
85,161,153874,2,0,P|70:215|91:257,1,90,2|0,0:0|0:0,0:0:0:0:
39,328,154222,1,2,0:0:0:0:
187,288,154397,6,0,B|229:266|229:266|293:301|384:263,1,180,2|0,0:0|0:0,0:0:0:0:
412,354,154920,1,2,0:0:0:0:
299,183,155095,2,0,P|289:127|313:89,1,90,8|0,0:0|0:0,0:0:0:0:
221,46,155443,1,2,0:0:0:0:
392,147,155618,2,0,P|402:203|378:241,1,90,8|0,0:0|0:0,0:0:0:0:
209,300,155967,2,0,B|174:319|174:319|100:316,1,90,8|0,0:0|0:0,0:0:0:0:
41,219,156315,5,0,0:0:0:0:
41,219,156403,1,0,0:0:0:0:
41,219,156490,1,8,0:0:0:0:
162,180,156664,1,2,0:0:0:0:
285,215,156839,1,0,0:0:0:0:
303,227,156926,1,2,0:0:0:0:
322,238,157013,1,2,0:0:0:0:
342,245,157100,1,2,0:0:0:0:
363,253,157188,6,0,P|411:264|461:250,1,90,2|0,0:0|0:0,0:0:0:0:
512,333,157536,1,0,0:0:0:0:
401,176,157711,2,0,P|387:139|401:86,1,90,2|8,0:0|0:0,0:0:0:0:
303,46,158060,1,0,0:0:0:0:
487,134,158234,2,0,P|501:171|487:224,1,90,2|8,0:0|0:0,0:0:0:0:
402,289,158583,1,0,0:0:0:0:
293,364,158757,2,0,P|279:327|293:274,1,90,2|8,0:0|0:0,0:0:0:0:
392,197,159106,5,0,0:0:0:0:
392,197,159193,1,0,0:0:0:0:
392,197,159281,1,8,0:0:0:0:
294,115,159455,1,2,0:0:0:0:
172,149,159629,2,0,L|140:262,1,90,0|2,0:0|0:0,0:0:0:0:
368,300,159978,5,2,0:0:0:0:
200,328,160153,1,0,0:0:0:0:
368,260,160327,1,0,0:0:0:0:
176,284,160502,1,2,0:0:0:0:
384,208,160676,1,8,0:0:0:0:
148,236,160850,1,0,0:0:0:0:
216,148,161025,2,0,P|233:98|211:41,1,107.999996704102,2|2,0:0|0:0,0:0:0:0:
51,105,161374,6,0,L|57:216,1,107.999996704102,0|2,0:0|0:0,0:0:0:0:
298,186,161722,2,0,L|303:297,1,107.999996704102,2|0,0:0|0:0,0:0:0:0:
176,284,162071,1,8,0:0:0:0:
74,187,162246,1,2,0:0:0:0:
378,154,162420,1,0,0:0:0:0:
323,296,162595,1,2,0:0:0:0:
465,202,162769,6,0,P|481:140|446:79,1,107.999996704102,2|0,0:0|0:0,0:0:0:0:
220,52,163118,1,0,0:0:0:0:
74,187,163292,1,2,0:0:0:0:
181,287,163467,2,0,P|251:313|342:291,1,161.999995056153,8|0,0:0|0:0,0:0:0:0:
375,228,163815,2,0,P|308:215|257:248,1,107.999996704102,2|2,0:0|0:0,0:0:0:0:
96,340,164164,5,0,0:0:0:0:
192,148,164339,1,2,0:0:0:0:
375,228,164513,2,0,L|487:279,1,107.999996704102,2|0,0:0|0:0,0:0:0:0:
384,84,164862,2,0,L|271:33,1,107.999996704102,8|2,0:0|0:0,0:0:0:0:
53,64,165211,2,0,L|200:152,1,161.999995056153
208,160,165560,5,2,0:0:0:0:
364,272,165734,1,0,0:0:0:0:
384,84,165909,1,0,0:0:0:0:
196,176,166083,1,2,0:0:0:0:
388,280,166257,1,8,0:0:0:0:
400,68,166432,1,0,0:0:0:0:
172,92,166606,2,0,B|116:72|116:72|87:22,1,107.999996704102,2|2,0:0|0:0,0:0:0:0:
75,178,166955,6,0,P|95:226|59:294,1,107.999996704102,0|2,0:0|0:0,0:0:0:0:
212,316,167304,2,0,P|264:328|331:308,1,107.999996704102,2|0,0:0|0:0,0:0:0:0:
416,224,167653,1,8,0:0:0:0:
280,148,167827,1,2,0:0:0:0:
392,92,168002,2,0,P|448:68|476:24,1,107.999996704102,0|2,0:0|0:0,0:0:0:0:
266,23,168350,6,0,P|207:29|134:112,1,161.999995056153
146,198,168699,2,0,P|159:144|127:90,1,107.999996704102,0|2,0:0|0:0,0:0:0:0:
48,257,169048,2,0,P|100:301|241:259,1,215.999993408203,8|2,0:0|0:0,0:0:0:0:
336,144,169571,1,2,0:0:0:0:
240,56,169746,2,0,B|221:35|221:35|177:50|128:32,1,107.999996704102,0|2,0:0|0:0,0:0:0:0:
321,196,170095,2,0,B|340:217|340:217|384:202|433:220,1,107.999996704102,0|2,0:0|0:0,0:0:0:0:
200,280,170443,2,0,L|110:347,1,107.999996704102,8|2,0:0|0:0,0:0:0:0:
312,104,170792,2,0,L|401:37,1,107.999996704102,0|2,0:0|0:0,0:0:0:0:
401,167,171141,5,2,0:0:0:0:
276,285,171315,1,0,0:0:0:0:
414,261,171490,1,0,0:0:0:0:
141,312,171664,1,2,0:0:0:0:
27,234,171839,1,8,0:0:0:0:
231,81,172013,1,0,0:0:0:0:
109,42,172188,2,0,P|93:100|143:176,1,107.999996704102,2|2,0:0|0:0,0:0:0:0:
208,322,172536,6,0,B|257:336|257:336|326:318,1,107.999996704102,0|2,0:0|0:0,0:0:0:0:
444,241,172885,1,2,0:0:0:0:
444,241,172972,1,0,0:0:0:0:
444,241,173060,1,0,0:0:0:0:
286,186,173234,1,8,0:0:0:0:
447,73,173409,1,2,0:0:0:0:
447,73,173583,2,0,L|446:188,1,107.999996704102,0|2,0:0|0:0,0:0:0:0:
315,306,173932,6,0,B|264:307|264:307|202:335|137:304,1,180,2|0,0:0|0:0,0:0:0:0:
19,215,174455,2,0,B|70:214|70:214|132:186|201:215,1,180,2|0,0:0|0:0,0:0:0:0:
250,121,174978,1,2,0:0:0:0:
352,75,175153,2,0,P|363:135|344:172,1,90,2|0,0:0|0:0,0:0:0:0:
295,253,175502,1,2,0:0:0:0:
360,338,175676,1,2,0:0:0:0:
436,251,175850,1,0,0:0:0:0:
360,338,176025,2,0,B|294:313|268:383|182:338,1,180,8|0,0:0|0:0,0:0:0:0:
73,362,176548,1,2,0:0:0:0:
242,222,176722,6,0,B|186:183|107:229|107:229|60:222,1,180,2|0,0:0|0:0,0:0:0:0:
17,115,177245,1,2,0:0:0:0:
17,115,177420,2,0,B|59:117|59:117|105:99,1,90
246,25,177768,1,2,0:0:0:0:
333,99,177943,2,0,B|353:141|353:141|339:185,1,90,2|0,0:0|0:0,0:0:0:0:
207,169,178292,2,0,B|187:209|187:209|201:255,1,90,2|0,0:0|0:0,0:0:0:0:
343,297,178640,5,0,0:0:0:0:
343,297,178727,1,0,0:0:0:0:
343,297,178815,1,8,0:0:0:0:
424,364,178990,1,2,0:0:0:0:
272,362,179163,1,0,0:0:0:0:
249,362,179251,1,2,0:0:0:0:
226,362,179338,1,2,0:0:0:0:
203,359,179425,1,2,0:0:0:0:
180,357,179513,6,0,B|129:354|129:354|91:326,1,90
0,254,179862,1,0,0:0:0:0:
37,87,180036,2,0,L|82:196,1,90,2|8,0:0|0:0,0:0:0:0:
202,239,180385,1,0,0:0:0:0:
202,239,180560,2,0,L|157:130,1,90,2|8,0:0|0:0,0:0:0:0:
200,37,180909,1,0,0:0:0:0:
277,123,181083,6,0,P|325:134|384:114,1,90,2|2,0:0|0:0,0:0:0:0:
452,40,181431,1,0,0:0:0:0:
452,40,181519,1,0,0:0:0:0:
452,40,181606,1,8,0:0:0:0:
505,158,181780,2,0,L|493:260,1,90,2|0,0:0|0:0,0:0:0:0:
377,206,182129,1,2,0:0:0:0:
296,320,182304,5,2,0:0:0:0:
320,136,182478,1,0,0:0:0:0:
328,320,182653,1,2,0:0:0:0:
184,176,182827,1,2,0:0:0:0:
360,304,183002,1,10,0:0:0:0:
160,328,183176,1,2,0:0:0:0:
392,284,183350,1,2,0:0:0:0:
72,216,183525,1,2,0:0:0:0:
104,72,183699,6,0,L|136:32,3,35
218,26,184048,2,0,L|200:56,3,35
192,72,184397,1,0,0:0:0:0:
184,88,184484,1,0,0:0:0:0:
176,104,184571,1,0,0:0:0:0:
168,120,184659,1,0,0:0:0:0:
164,136,184746,1,0,0:0:0:0:
160,152,184833,1,0,0:0:0:0:
156,168,184920,1,0,0:0:0:0:
156,184,185007,1,0,0:0:0:0:
160,200,185095,6,0,L|193:280,1,76.5000014591217
302,318,185443,2,0,L|268:241,1,76.5000014591217
352,176,185792,2,0,L|401:114,1,76.5000014591217,8|0,0:0|0:0,0:0:0:0:
320,20,186141,2,0,L|271:83,1,76.5000014591217
352,176,186490,5,0,0:0:0:0:
372,176,186577,1,0,0:0:0:0:
392,176,186664,1,2,0:0:0:0:
344,64,186839,1,2,0:0:0:0:
356,48,186926,1,0,0:0:0:0:
372,32,187013,1,0,0:0:0:0:
247,176,187188,6,0,P|219:212|209:248,1,76.5000014591217,8|2,0:0|0:0,0:0:0:0:
256,360,187536,2,0,P|292:328|304:290,1,76.5000014591217
268,96,187885,2,0,P|228:64|189:59,1,76.5000014591217,2|0,0:0|0:0,0:0:0:0:
140,224,188234,2,0,P|184:196|192:168,1,76.5000014591217
96,64,188583,2,0,P|100:112|117:137,1,76.5000014591217,8|0,0:0|0:0,0:0:0:0:
312,180,188932,2,0,P|328:220|320:253,1,76.5000014591217
124,312,189281,6,0,L|92:336,2,38.2500007295609,0|0|2,0:0|0:0|0:0,0:0:0:0:
256,72,189629,2,0,L|255:33,2,38.2500007295609,2|0|0,0:0|0:0|0:0,0:0:0:0:
432,272,189978,1,8,0:0:0:0:
344,312,190153,2,0,P|328:284|338:234,1,76.5000014591217,2|0,0:0|0:0,0:0:0:0:
