osu file format v14

[General]
AudioFilename: audio.mp3
AudioLeadIn: 0
PreviewTime: 39963
Countdown: 1
SampleSet: Soft
StackLeniency: 0.7
Mode: 0
LetterboxInBreaks: 0
WidescreenStoryboard: 0

[Editor]
DistanceSpacing: 1
BeatDivisor: 4
GridSize: 4
TimelineZoom: 1.5

[Metadata]
Title:Dumb Dumb
TitleUnicode:Dumb Dumb
Artist:Red Velvet
ArtistUnicode:레드벨벳
Creator:Simuzax
Version:Insane
Source:
Tags:kpop joy seulgi irene yeri wendy
BeatmapID:1390509
BeatmapSetID:656281

[Difficulty]
HPDrainRate:6
CircleSize:4
OverallDifficulty:8
ApproachRate:9
SliderMultiplier:1.5
SliderTickRate:1

[Events]
//Background and Video events
0,0,"aaaa.jpg",0,0
Video,0,"Red Velvet 레드벨벳_Dumb Dumb_Music Video.mp4"
//Break Periods
//Storyboard Layer 0 (Background)
//Storyboard Layer 1 (Fail)
//Storyboard Layer 2 (Pass)
//Storyboard Layer 3 (Foreground)
//Storyboard Sound Samples

[TimingPoints]
1025,410.958904109589,4,2,0,60,1,0
38422,-66.6666666666667,4,2,0,60,0,0
39860,-100,4,2,0,60,0,0
40066,-100,4,2,0,70,0,1
44792,-83.3333333333333,4,2,0,70,0,1
45203,-100,4,2,0,70,0,1
53627,-100,4,2,0,60,0,0
90819,-66.6666666666667,4,2,0,60,0,0
92463,-100,4,2,0,60,0,0
92668,-100,4,2,0,70,0,1
97394,-83.3333333333333,4,2,0,70,0,1
97805,-100,4,2,0,70,0,1
119381,-100,4,2,0,60,0,0
143216,-200,4,2,0,60,0,0
143833,-100,4,2,0,60,0,0
148970,-133.333333333333,4,2,0,60,0,0
149586,-100,4,2,0,60,0,0
152257,-133.333333333333,4,2,0,60,0,0
152668,-100,4,2,0,60,0,0
154723,-133.333333333333,4,2,0,60,0,0
155134,-100,4,2,0,60,0,0
158011,-133.333333333333,4,2,0,60,0,0
158216,-100,4,2,0,60,0,0
158833,-100,4,2,0,70,0,1
171983,-100,4,2,0,60,0,0
185134,-76.9230769230769,4,2,0,70,0,1
198285,-100,4,2,0,60,0,0

[Colours]
Combo1 : 22,228,58
Combo2 : 241,193,1
Combo3 : 250,12,5

[HitObjects]
168,264,614,5,0,0:0:0:0:
144,148,819,1,0,0:0:0:0:
100,320,1025,2,0,P|132:344|176:352,1,75
324,312,1435,1,0,0:0:0:0:
236,192,1641,1,2,0:0:0:0:
416,100,2257,5,0,0:0:0:0:
368,216,2463,1,0,0:0:0:0:
496,64,2668,2,0,P|464:28|424:12,1,75
272,0,3079,1,0,0:0:0:0:
304,144,3285,1,0,0:0:0:0:
96,216,3901,5,0,0:0:0:0:
232,236,4108,1,0,0:0:0:0:
24,264,4312,2,0,P|12:220|28:164,1,75
48,48,4723,1,0,0:0:0:0:
180,120,4929,1,0,0:0:0:0:
304,296,5545,5,0,0:0:0:0:
288,156,5751,1,0,0:0:0:0:
252,364,5956,2,0,P|300:380|352:368,1,75
460,324,6367,1,0,0:0:0:0:
388,208,6572,1,0,0:0:0:0:
208,100,7189,5,0,0:0:0:0:
220,220,7394,1,0,0:0:0:0:
144,44,7600,2,0,P|184:20|220:16,1,75
376,36,8011,1,0,0:0:0:0:
304,148,8216,1,0,0:0:0:0:
384,236,8833,5,0,0:0:0:0:
304,148,9038,1,0,0:0:0:0:
468,248,9244,2,0,P|445:292|416:314,1,75
280,384,9655,1,0,0:0:0:0:
264,248,9860,1,0,0:0:0:0:
97,231,10477,5,0,0:0:0:0:
210,195,10682,1,0,0:0:0:0:
34,293,10888,2,0,P|14:260|9:224,1,75
13,75,11298,1,0,0:0:0:0:
137,123,11504,1,0,0:0:0:0:
286,146,12120,5,0,0:0:0:0:
279,256,12326,1,0,0:0:0:0:
351,92,12531,2,0,P|321:69|285:60,1,75
137,123,12942,1,0,0:0:0:0:
164,242,13148,6,0,P|165:262|181:250,1,37.5
301,255,13353,2,0,P|317:267|317:247,1,37.5
356,132,13559,2,0,P|369:119|351:115,1,37.5
260,64,13764,2,0,P|251:46|237:64,1,37.5
137,123,13970,2,0,P|119:132|137:141,1,37.5
392,296,14175,6,0,P|368:332|320:340,1,75
260,304,14586,2,0,P|287:269|340:260,1,75
400,192,14997,1,0,0:0:0:0:
288,100,15203,1,0,0:0:0:0:
204,236,15408,2,0,L|112:220,1,75
112,76,15819,5,0,0:0:0:0:
288,100,16024,1,0,0:0:0:0:
112,212,16230,1,0,0:0:0:0:
200,88,16435,1,0,0:0:0:0:
288,232,16641,1,0,0:0:0:0:
112,144,16846,1,0,0:0:0:0:
288,164,17052,1,0,0:0:0:0:
460,336,17257,5,0,0:0:0:0:
460,168,17463,1,0,0:0:0:0:
308,280,17668,1,0,0:0:0:0:
486,238,17874,2,0,L|454:154,1,75
308,280,18285,5,0,0:0:0:0:
328,104,18490,1,0,0:0:0:0:
176,168,18696,1,0,0:0:0:0:
352,224,18901,1,0,0:0:0:0:
133,179,19107,5,0,0:0:0:0:
366,179,19312,1,0,0:0:0:0:
191,78,19518,1,0,0:0:0:0:
308,280,19723,1,0,0:0:0:0:
308,78,19929,1,0,0:0:0:0:
191,280,20134,1,0,0:0:0:0:
412,112,20340,6,0,P|372:72|336:64,1,75
208,80,20751,5,0,0:0:0:0:
168,96,20853,1,0,0:0:0:0:
136,128,20956,1,0,0:0:0:0:
120,172,21059,1,0,0:0:0:0:
136,212,21161,1,0,0:0:0:0:
176,232,21264,1,0,0:0:0:0:
216,212,21367,1,0,0:0:0:0:
248,180,21470,1,0,0:0:0:0:
284,156,21572,5,0,0:0:0:0:
328,152,21675,1,0,0:0:0:0:
372,168,21778,1,0,0:0:0:0:
400,204,21881,1,0,0:0:0:0:
404,248,21983,2,0,B|412:272|412:272|392:264|392:264|408:280|408:280|384:280|384:280|400:292|400:292|368:340|320:344|288:312,1,225
204,244,22805,5,0,0:0:0:0:
160,344,23011,1,0,0:0:0:0:
88,172,23216,1,0,0:0:0:0:
204,244,23422,1,0,0:0:0:0:
204,108,23627,1,0,0:0:0:0:
304,172,23833,1,0,0:0:0:0:
416,256,24038,5,0,0:0:0:0:
448,224,24141,1,0,0:0:0:0:
464,180,24244,1,0,0:0:0:0:
444,140,24346,1,0,0:0:0:0:
408,116,24449,1,0,0:0:0:0:
368,132,24552,1,0,0:0:0:0:
328,152,24655,1,0,0:0:0:0:
284,144,24757,1,0,0:0:0:0:
256,108,24860,5,0,0:0:0:0:
220,84,24963,1,0,0:0:0:0:
176,88,25066,1,0,0:0:0:0:
136,108,25168,1,0,0:0:0:0:
112,144,25271,2,0,B|100:164|100:164|132:164|132:164|96:184|96:184|128:184|128:184|112:232|200:260,1,225
196,104,26093,5,0,0:0:0:0:
284,72,26298,1,0,0:0:0:0:
216,204,26504,1,0,0:0:0:0:
244,192,26607,1,0,0:0:0:0:
272,188,26709,1,0,0:0:0:0:
300,196,26812,1,0,0:0:0:0:
324,212,26915,1,0,0:0:0:0:
348,344,27120,1,0,0:0:0:0:
460,208,27326,6,0,P|440:172|396:160,1,75
324,212,27737,2,0,L|244:172,1,75
112,116,28148,1,0,0:0:0:0:
308,124,28353,1,0,0:0:0:0:
120,188,28559,1,0,0:0:0:0:
284,56,28764,1,0,0:0:0:0:
460,156,28970,6,0,P|479:192|480:228,1,75
408,352,29381,2,0,P|372:348|328:312,1,75
212,208,29792,1,0,0:0:0:0:
280,132,29997,1,0,0:0:0:0:
264,328,30203,1,0,0:0:0:0:
36,208,30408,5,0,0:0:0:0:
196,4,30614,2,0,B|176:12|176:12|172:72,1,75
224,232,31025,1,0,0:0:0:0:
320,144,31230,1,0,0:0:0:0:
352,320,31435,1,0,0:0:0:0:
248,224,31641,1,0,0:0:0:0:
456,272,31846,1,0,0:0:0:0:
472,140,32052,1,0,0:0:0:0:
356,292,32257,5,0,0:0:0:0:
336,148,32463,1,0,0:0:0:0:
192,244,32668,1,0,0:0:0:0:
196,112,32874,1,0,0:0:0:0:
216,344,33079,2,0,P|256:324|284:288,1,75
404,132,33490,1,0,0:0:0:0:
404,132,33696,2,0,P|370:100|327:94,1,75
252,128,34004,5,0,0:0:0:0:
212,152,34107,1,0,0:0:0:0:
168,156,34209,1,0,0:0:0:0:
124,140,34312,1,0,0:0:0:0:
80,128,34415,1,0,0:0:0:0:
40,144,34518,1,0,0:0:0:0:
12,180,34620,1,0,0:0:0:0:
8,224,34723,5,0,0:0:0:0:
24,268,34826,1,0,0:0:0:0:
64,292,34929,1,0,0:0:0:0:
108,284,35031,1,0,0:0:0:0:
152,268,35134,2,0,B|168:280|168:280|180:264|180:264|188:284|188:284|200:268|200:268|204:288|204:288|280:304|328:264,1,225
348,160,35956,5,0,0:0:0:0:
412,264,36161,1,0,0:0:0:0:
492,112,36367,1,0,0:0:0:0:
372,176,36572,1,0,0:0:0:0:
356,4,36778,1,0,0:0:0:0:
260,84,36983,1,0,0:0:0:0:
56,56,37189,6,0,P|64:96|44:140,1,75
136,100,37497,2,0,P|128:140|148:184,1,75
72,192,37805,2,0,P|59:231|20:259,1,75
132,240,38114,2,0,P|145:279|184:307,1,75
220,100,38422,6,0,B|200:128|216:160|216:160|244:148|244:148|248:180|248:180|284:184|296:208,1,168.750006437302
364,256,38833,1,0,0:0:0:0:
364,272,38935,1,0,0:0:0:0:
364,288,39038,1,0,0:0:0:0:
444,148,39244,1,0,0:0:0:0:
444,132,39346,1,0,0:0:0:0:
444,116,39449,1,0,0:0:0:0:
288,72,39655,2,0,P|232:76|188:112,1,112.500004291535
176,276,40066,5,0,0:0:0:0:
272,168,40271,1,0,0:0:0:0:
320,308,40477,2,0,P|356:324|396:320,2,75
440,192,41093,1,0,0:0:0:0:
244,224,41298,1,0,0:0:0:0:
336,72,41504,1,0,0:0:0:0:
368,244,41709,1,0,0:0:0:0:
236,136,41915,1,0,0:0:0:0:
68,336,42120,6,0,P|52:304|52:248,1,75
88,96,42531,1,0,0:0:0:0:
128,216,42737,1,0,0:0:0:0:
216,40,42942,2,0,P|256:36|300:52,1,75
424,104,43353,1,0,0:0:0:0:
320,140,43559,1,0,0:0:0:0:
444,232,43764,5,0,0:0:0:0:
344,284,43970,1,0,0:0:0:0:
160,128,44175,2,0,P|164:168|192:204,1,75
320,140,44586,1,0,0:0:0:0:
264,228,44792,2,0,P|232:268|188:284,2,89.9999972534181
344,64,45408,5,0,0:0:0:0:
160,192,45614,1,0,0:0:0:0:
368,244,45819,1,0,0:0:0:0:
415,45,46230,6,0,P|375:49|339:67,1,75
468,216,46641,1,0,0:0:0:0:
399,129,46846,1,0,0:0:0:0:
360,280,47052,2,0,P|320:308|304:348,1,75
176,360,47463,2,0,P|216:332|232:292,1,75
308,160,47874,5,0,0:0:0:0:
124,124,48079,1,0,0:0:0:0:
304,88,48285,1,0,0:0:0:0:
136,196,48490,1,0,0:0:0:0:
152,8,48696,2,0,P|192:8|228:28,1,75
24,240,49107,6,0,P|12:200|20:160,1,75
220,188,49518,1,0,0:0:0:0:
96,196,49723,1,0,0:0:0:0:
300,220,49929,2,0,P|304:180|288:136,1,75
492,56,50340,6,0,L|464:132,1,75
348,272,50751,1,0,0:0:0:0:
480,236,50956,1,0,0:0:0:0:
380,376,51161,2,0,P|340:384|300:372,1,75
168,248,51572,1,0,0:0:0:0:
216,116,51778,1,0,0:0:0:0:
232,320,51983,1,0,0:0:0:0:
36,216,52189,6,0,L|-8:228,2,37.5
84,112,52600,1,0,0:0:0:0:
176,56,52805,1,0,0:0:0:0:
208,44,52908,1,0,0:0:0:0:
236,40,53011,1,0,0:0:0:0:
264,44,53114,1,0,0:0:0:0:
292,56,53216,1,0,0:0:0:0:
316,72,53319,1,0,0:0:0:0:
344,84,53422,1,0,0:0:0:0:
372,88,53524,1,0,0:0:0:0:
400,84,53627,1,0,0:0:0:0:
416,260,53833,5,0,0:0:0:0:
336,296,54038,2,0,P|327:259|336:220,1,75
256,316,54449,1,0,0:0:0:0:
256,208,54655,1,0,0:0:0:0:
176,295,54860,2,0,P|184:258|177:222,1,75
96,260,55270,1,0,0:0:0:0:
32,80,55477,5,0,0:0:0:0:
116,52,55682,2,0,P|152:45|189:53,1,75
276,80,56093,1,0,0:0:0:0:
360,52,56298,1,0,0:0:0:0:
448,80,56504,2,0,P|454:116|446:153,1,75
305,340,56915,5,0,0:0:0:0:
208,340,57120,1,0,0:0:0:0:
208,242,57326,1,0,0:0:0:0:
305,242,57531,1,0,0:0:0:0:
305,144,57737,1,0,0:0:0:0:
208,144,57942,1,0,0:0:0:0:
208,242,58148,1,0,0:0:0:0:
305,242,58353,1,0,0:0:0:0:
8,354,58559,6,0,P|22:334|41:320,1,37.5
104,359,58764,2,0,P|123:344|137:325,1,37.5
84,262,58970,2,0,P|98:242|117:228,1,37.5
180,267,59175,2,0,P|199:252|213:233,1,37.5
160,170,59381,2,0,P|174:150|193:136,1,37.5
256,175,59586,2,0,P|275:160|289:141,1,37.5
232,82,59792,2,0,P|246:62|265:48,1,37.5
328,87,59997,2,0,P|347:72|361:53,1,37.5
512,56,60203,5,0,0:0:0:0:
388,280,60408,5,0,0:0:0:0:
468,320,60613,2,0,P|477:283|468:244,1,75
428,168,61024,1,0,0:0:0:0:
340,180,61230,1,0,0:0:0:0:
284,252,61435,2,0,P|256:280|216:292,1,75
132,284,61845,1,0,0:0:0:0:
32,80,62052,5,0,0:0:0:0:
108,36,62257,2,0,P|146:46|180:72,1,75
176,156,62668,1,0,0:0:0:0:
256,112,62873,1,0,0:0:0:0:
272,196,63079,2,0,P|304:180|332:144,1,75
180,8,63490,5,0,0:0:0:0:
108,64,63695,1,0,0:0:0:0:
36,120,63901,1,0,0:0:0:0:
108,176,64106,1,0,0:0:0:0:
180,120,64312,1,0,0:0:0:0:
252,176,64517,1,0,0:0:0:0:
180,232,64723,1,0,0:0:0:0:
252,284,64928,1,0,0:0:0:0:
24,176,65134,6,0,L|76:176,1,37.5
140,52,65340,2,0,L|140:92,1,37.5
32,184,65545,2,0,L|84:184,1,37.5
148,60,65751,2,0,L|148:100,1,37.5
40,192,65956,2,0,L|92:192,1,37.5
156,68,66162,2,0,L|156:108,1,37.5
48,200,66367,2,0,L|100:200,1,37.5
164,76,66573,2,0,L|164:116,1,37.5
140,368,66778,5,0,0:0:0:0:
404,356,67189,5,0,0:0:0:0:
392,216,67394,1,0,0:0:0:0:
280,304,67600,2,0,P|244:236|168:220,1,150
4,192,68422,5,0,0:0:0:0:
177,218,68627,1,0,0:0:0:0:
92,72,68833,2,0,L|168:64,1,75
340,40,69244,5,0,0:0:0:0:
384,196,69449,1,0,0:0:0:0:
268,152,69655,1,0,0:0:0:0:
456,84,69860,2,0,P|472:120|472:164,1,75
336,336,70271,5,0,0:0:0:0:
240,196,70477,1,0,0:0:0:0:
240,356,70682,1,0,0:0:0:0:
324,208,70888,2,0,P|292:268|208:276,1,150
112,184,71504,5,0,0:0:0:0:
93,22,71709,1,0,0:0:0:0:
18,115,71915,1,0,0:0:0:0:
185,97,72120,1,0,0:0:0:0:
128,256,72326,1,0,0:0:0:0:
264,192,72531,1,0,0:0:0:0:
208,340,72737,1,0,0:0:0:0:
336,264,72942,2,0,B|392:212|420:280|476:240,1,150
208,20,73764,5,0,0:0:0:0:
344,64,73970,1,0,0:0:0:0:
256,168,74175,2,0,P|184:132|112:160,1,150
100,316,74997,5,0,0:0:0:0:
180,228,75203,1,0,0:0:0:0:
224,332,75408,2,0,P|264:344|316:328,1,75
476,252,75819,5,0,0:0:0:0:
340,280,76025,1,0,0:0:0:0:
468,176,76230,1,0,0:0:0:0:
312,208,76435,2,0,P|332:172|324:124,1,75
284,4,76846,5,0,0:0:0:0:
224,140,77052,1,0,0:0:0:0:
160,0,77257,1,0,0:0:0:0:
88,124,77463,2,0,P|56:196|88:260,1,150
216,344,78079,5,0,0:0:0:0:
156,192,78285,1,0,0:0:0:0:
308,220,78490,2,0,L|336:276,2,37.5
272,56,78901,1,0,0:0:0:0:
380,120,79107,5,0,0:0:0:0:
212,160,79312,1,0,0:0:0:0:
192,308,79518,1,0,0:0:0:0:
220,324,79620,1,0,0:0:0:0:
248,332,79723,1,0,0:0:0:0:
276,336,79826,1,0,0:0:0:0:
308,336,79929,6,0,P|352:336|384:304,1,75
484,192,80340,1,0,0:0:0:0:
312,124,80545,1,0,0:0:0:0:
460,64,80751,1,0,0:0:0:0:
292,220,80956,1,0,0:0:0:0:
188,40,81161,1,0,0:0:0:0:
312,124,81367,1,0,0:0:0:0:
49,174,81572,5,0,0:0:0:0:
234,234,81778,1,0,0:0:0:0:
49,294,81983,1,0,0:0:0:0:
164,137,82189,1,0,0:0:0:0:
164,332,82394,2,0,P|240:320|304:360,1,150
456,196,83216,5,0,0:0:0:0:
424,332,83422,1,0,0:0:0:0:
352,108,83627,1,0,0:0:0:0:
380,256,83833,1,0,0:0:0:0:
404,40,84038,1,0,0:0:0:0:
292,160,84244,1,0,0:0:0:0:
208,8,84449,2,0,P|168:12|136:40,1,75
40,256,84860,5,0,0:0:0:0:
228,176,85066,1,0,0:0:0:0:
28,168,85271,1,0,0:0:0:0:
240,264,85477,1,0,0:0:0:0:
128,96,85682,6,0,B|140:188,1,75
180,352,86093,2,0,P|148:364|104:360,1,75
0,240,86504,5,0,0:0:0:0:
36,212,86607,1,0,0:0:0:0:
80,204,86709,1,0,0:0:0:0:
124,208,86812,1,0,0:0:0:0:
164,228,86915,1,0,0:0:0:0:
200,256,87018,1,0,0:0:0:0:
224,292,87120,1,0,0:0:0:0:
264,308,87223,1,0,0:0:0:0:
308,292,87326,5,0,0:0:0:0:
352,276,87429,1,0,0:0:0:0:
396,276,87531,1,0,0:0:0:0:
440,284,87634,1,0,0:0:0:0:
488,272,87737,2,0,B|498:262|498:262|480:260|480:260|504:248|504:248|484:240|484:240|504:236|504:236|520:176|480:120,1,225
276,36,88559,5,0,0:0:0:0:
428,72,88764,1,0,0:0:0:0:
176,144,88970,1,0,0:0:0:0:
344,112,89175,1,0,0:0:0:0:
104,56,89381,1,0,0:0:0:0:
264,128,89586,1,0,0:0:0:0:
36,160,89792,6,0,P|20:196|24:244,1,75
104,212,90100,2,0,P|120:248|116:296,1,75
68,356,90408,2,0,P|124:372|176:352,1,112.5
268,264,90819,6,0,B|308:248|344:272|344:272|356:316|356:316|396:284|396:284|460:316|492:268,1,281.250010728836
436,160,91435,1,0,0:0:0:0:
436,144,91538,1,0,0:0:0:0:
436,128,91641,1,0,0:0:0:0:
328,52,91846,1,0,0:0:0:0:
328,68,91949,1,0,0:0:0:0:
328,84,92052,1,0,0:0:0:0:
252,192,92257,2,0,P|196:208|140:188,1,112.500004291535
24,88,92668,5,0,0:0:0:0:
200,112,92874,1,0,0:0:0:0:
64,224,93079,2,0,P|36:248|-8:252,2,75
112,88,93696,1,0,0:0:0:0:
152,280,93901,1,0,0:0:0:0:
192,128,94107,1,0,0:0:0:0:
352,216,94312,1,0,0:0:0:0:
208,212,94518,1,0,0:0:0:0:
312,364,94723,6,0,P|356:368|400:344,1,75
412,144,95134,1,0,0:0:0:0:
468,280,95340,1,0,0:0:0:0:
284,160,95545,2,0,P|244:147|200:152,1,75
80,320,95956,1,0,0:0:0:0:
228,252,96161,1,0,0:0:0:0:
0,152,96367,5,0,0:0:0:0:
160,124,96572,1,0,0:0:0:0:
24,24,96778,2,0,L|124:32,1,75
252,120,97189,1,0,0:0:0:0:
98,210,97394,2,0,L|8:216,2,89.9999972534181
372,156,98011,5,0,0:0:0:0:
210,312,98216,1,0,0:0:0:0:
156,94,98422,1,0,0:0:0:0:
384,344,98833,6,0,P|396:308|388:260,1,75
352,104,99244,1,0,0:0:0:0:
284,212,99449,1,0,0:0:0:0:
124,104,99655,2,0,P|96:144|92:192,1,75
68,328,100066,2,0,P|104:340|144:328,1,75
312,144,100477,5,0,0:0:0:0:
236,280,100682,1,0,0:0:0:0:
224,100,100888,1,0,0:0:0:0:
344,236,101093,1,0,0:0:0:0:
156,48,101298,2,0,P|188:24|232:16,1,75
468,52,101709,6,0,P|420:68|388:108,1,75
320,264,102121,1,0,0:0:0:0:
452,204,102326,1,0,0:0:0:0:
287,133,102532,2,0,P|253:104|204:101,1,75
20,224,102943,6,0,P|24:268|48:300,1,75
160,216,103354,1,0,0:0:0:0:
152,364,103559,1,0,0:0:0:0:
300,304,103764,2,0,P|341:291|384:296,1,75
360,128,104175,1,0,0:0:0:0:
464,188,104381,1,0,0:0:0:0:
284,224,104586,1,0,0:0:0:0:
224,36,104792,6,0,L|236:-8,2,37.5
168,156,105203,1,0,0:0:0:0:
12,216,105408,1,0,0:0:0:0:
16,236,105511,1,0,0:0:0:0:
28,260,105613,1,0,0:0:0:0:
52,280,105716,1,0,0:0:0:0:
84,276,105819,1,0,0:0:0:0:
120,264,105921,1,0,0:0:0:0:
160,256,106024,1,0,0:0:0:0:
204,264,106127,1,0,0:0:0:0:
252,280,106230,1,0,0:0:0:0:
336,156,106435,5,0,0:0:0:0:
420,276,106641,1,0,0:0:0:0:
492,132,106846,2,0,P|468:64|404:16,1,150
336,156,107463,5,0,0:0:0:0:
272,48,107668,1,0,0:0:0:0:
200,224,107874,1,0,0:0:0:0:
184,64,108079,1,0,0:0:0:0:
288,224,108285,1,0,0:0:0:0:
96,212,108490,2,0,P|112:284|180:328,1,150
336,156,109107,5,0,0:0:0:0:
436,275,109312,1,0,0:0:0:0:
283,303,109518,1,0,0:0:0:0:
420,187,109723,1,0,0:0:0:0:
367,333,109929,1,0,0:0:0:0:
267,214,110134,2,0,P|244:144|284:84,1,150,0|0,0:3|0:3,0:3:0:0:
16,172,110751,5,0,0:0:0:0:
88,52,110956,1,0,0:0:0:0:
100,260,111161,1,0,0:0:0:0:
52,112,111367,1,0,0:0:0:0:
20,312,111572,1,0,0:0:0:0:
176,216,111778,2,0,P|252:220|304:272,1,150
300,384,112394,5,0,0:0:0:0:
408,296,112600,1,0,0:0:0:0:
208,316,112805,1,0,0:0:0:0:
348,204,113011,1,0,0:0:0:0:
176,144,113216,1,0,0:0:0:0:
80,180,113422,2,0,P|84:104|140:48,1,150
284,124,114038,5,0,0:0:0:0:
384,252,114244,1,0,0:0:0:0:
472,96,114449,1,0,0:0:0:0:
332,188,114655,1,0,0:0:0:0:
276,48,114860,1,0,0:0:0:0:
176,144,115066,2,0,P|148:212|72:232,1,150
140,368,115682,5,0,0:0:0:0:
288,264,115888,1,0,0:0:0:0:
108,300,116093,1,0,0:0:0:0:
276,340,116298,1,0,0:0:0:0:
300,188,116504,1,0,0:0:0:0:
184,160,116709,2,0,P|224:96|304:72,1,150
356,228,117326,5,0,0:0:0:0:
404,112,117531,1,0,0:0:0:0:
432,304,117737,1,0,0:0:0:0:
256,224,117942,6,0,L|200:196,2,37.5
304,352,118353,1,0,0:0:0:0:
432,304,118559,1,0,0:0:0:0:
456,289,118661,1,0,0:0:0:0:
464,258,118764,1,0,0:0:0:0:
460,228,118867,1,0,0:0:0:0:
442,203,118970,1,0,0:0:0:0:
428,178,119072,1,0,0:0:0:0:
423,148,119175,1,0,0:0:0:0:
427,120,119278,1,0,0:0:0:0:
446,96,119381,1,0,0:0:0:0:
209,60,119792,5,0,0:0:0:0:
172,198,119997,1,0,0:0:0:0:
310,161,120203,1,0,0:0:0:0:
150,118,120408,1,0,0:0:0:0:
288,81,120614,1,0,0:0:0:0:
252,220,120819,1,0,0:0:0:0:
150,118,121024,6,0,P|122:138|102:178,1,75
112,272,121435,1,0,0:0:0:0:
208,240,121641,2,0,P|248:236|284:256,1,75
352,316,122052,1,0,0:0:0:0:
440,256,122257,1,0,0:0:0:0:
352,192,122463,1,0,0:0:0:0:
192,12,122668,6,0,L|280:20,1,75
400,72,123079,5,0,0:0:0:0:
352,192,123285,1,0,0:0:0:0:
296,100,123490,1,0,0:0:0:0:
248,220,123696,1,0,0:0:0:0:
192,132,123901,1,0,0:0:0:0:
144,252,124107,1,0,0:0:0:0:
88,164,124312,6,0,P|56:192|40:236,1,75
56,332,124723,1,0,0:0:0:0:
144,252,124929,2,0,P|184:244|232:260,1,75
320,264,125340,1,0,0:0:0:0:
280,352,125545,1,0,0:0:0:0:
180,332,125751,1,0,0:0:0:0:
124,148,125956,6,0,L|208:128,1,75
324,96,126367,5,0,0:0:0:0:
483,142,126572,1,0,0:0:0:0:
383,39,126778,1,0,0:0:0:0:
424,200,126983,1,0,0:0:0:0:
463,62,127189,1,0,0:0:0:0:
344,177,127394,1,0,0:0:0:0:
483,142,127600,6,0,P|484:180|471:218,1,75
396,288,128011,1,0,0:0:0:0:
312,224,128216,2,0,P|264:216|224:228,1,75
136,264,128627,1,0,0:0:0:0:
180,148,128833,1,0,0:0:0:0:
64,192,129038,1,0,0:0:0:0:
88,20,129244,6,0,P|128:44|168:44,1,75
280,20,129655,1,0,0:0:0:0:
268,140,129860,1,0,0:0:0:0:
376,76,130066,2,0,P|388:120|368:160,1,75
312,256,130477,1,0,0:0:0:0:
268,140,130682,1,0,0:0:0:0:
96,212,130888,5,0,0:0:0:0:
132,328,131093,1,0,0:0:0:0:
248,304,131298,2,0,L|284:332,2,37.5
372,108,131709,5,0,0:0:0:0:
336,224,131914,1,0,0:0:0:0:
220,200,132120,2,0,L|184:228,2,37.5
328,20,132531,6,0,P|372:20|408:48,1,75
496,120,132942,2,0,P|452:120|416:148,1,75
348,212,133353,2,0,P|308:220|264:200,1,75
172,88,133764,5,0,0:0:0:0:
216,260,133970,1,0,0:0:0:0:
272,92,134175,1,0,0:0:0:0:
160,172,134381,2,0,P|128:204|116:244,1,75
120,344,134792,2,0,P|188:324|272:352,1,150
420,320,135408,5,0,0:0:0:0:
488,212,135614,1,0,0:0:0:0:
268,184,135819,1,0,0:0:0:0:
404,236,136025,1,0,0:0:0:0:
420,48,136230,1,0,0:0:0:0:
340,160,136435,2,0,B|348:224|304:268|304:268|268:248,1,150
64,188,137052,5,0,0:0:0:0:
176,180,137257,1,0,0:0:0:0:
8,252,137463,1,0,0:0:0:0:
12,100,137668,2,0,B|88:64|96:116|164:84,1,150
376,8,138285,5,0,0:0:0:0:
264,64,138490,1,0,0:0:0:0:
368,128,138696,2,0,P|372:168|352:208,1,75
184,348,139107,6,0,P|204:316|240:308,1,75
416,272,139518,5,0,0:0:0:0:
335,104,139723,1,0,0:0:0:0:
335,290,139929,1,0,0:0:0:0:
416,123,140134,1,0,0:0:0:0:
271,238,140340,1,0,0:0:0:0:
451,197,140545,1,0,0:0:0:0:
271,156,140751,2,0,P|228:144|184:152,1,75
0,268,141161,5,0,0:0:0:0:
80,212,141367,1,0,0:0:0:0:
176,224,141572,1,0,0:0:0:0:
244,292,141778,1,0,0:0:0:0:
336,328,141983,1,0,0:0:0:0:
428,296,142189,1,0,0:0:0:0:
508,136,142394,5,0,0:0:0:0:
348,23,142600,1,0,0:0:0:0:
410,207,142805,1,0,0:0:0:0:
467,22,143011,1,0,0:0:0:0:
311,138,143216,2,0,P|255:162|200:152,1,112.5
100,88,144038,5,0,0:0:0:0:
24,148,144243,1,0,0:0:0:0:
100,212,144449,2,0,L|64:240,2,37.5
252,212,144860,5,0,0:0:0:0:
328,272,145066,1,0,0:0:0:0:
252,336,145271,2,0,L|288:364,2,37.5
400,336,145682,6,0,B|456:288|396:240|448:188,1,150
476,112,146298,1,0,0:0:0:0:
380,128,146504,2,0,P|336:128|296:148,1,75
232,188,146915,1,0,0:0:0:0:
188,272,147120,1,0,0:0:0:0:
52,376,147326,6,0,P|28:340|28:304,1,75
48,220,147737,1,0,0:0:0:0:
100,144,147942,1,0,0:0:0:0:
44,64,148148,2,0,P|80:48|120:48,1,75
200,96,148559,2,0,L|276:92,1,75
452,12,148970,6,0,B|488:60|464:112|464:112|424:100|392:136,1,168.750006437302
236,172,149792,5,0,0:0:0:0:
156,220,149997,1,0,0:0:0:0:
156,312,150203,1,0,0:0:0:0:
236,352,150408,1,0,0:0:0:0:
352,266,150614,6,0,P|392:258|428:266,1,75
504,224,151025,1,0,0:0:0:0:
432,160,151230,1,0,0:0:0:0:
500,88,151435,2,0,P|464:64|420:64,1,75
336,88,151846,2,0,L|256:88,1,75
20,100,152257,6,0,P|0:156|28:204,1,112.500004291535
144,316,152874,5,0,0:0:0:0:
220,360,153079,1,0,0:0:0:0:
308,368,153285,1,0,0:0:0:0:
392,332,153490,1,0,0:0:0:0:
452,264,153696,1,0,0:0:0:0:
512,88,153901,5,0,0:0:0:0:
364,194,154107,1,0,0:0:0:0:
420,21,154312,1,0,0:0:0:0:
477,194,154518,1,0,0:0:0:0:
329,88,154723,2,0,P|272:84|232:120,1,112.500004291535
132,248,155340,5,0,0:0:0:0:
6,292,155545,1,0,0:0:0:0:
81,182,155751,1,0,0:0:0:0:
85,316,155956,1,0,0:0:0:0:
3,209,156161,1,0,0:0:0:0:
277,281,156367,5,0,0:0:0:0:
132,248,156572,1,0,0:0:0:0:
220,192,156778,1,0,0:0:0:0:
187,335,156983,1,0,0:0:0:0:
404,212,157189,5,0,0:0:0:0:
204,264,157394,1,0,0:0:0:0:
396,337,157600,1,0,0:0:0:0:
285,164,157805,1,0,0:0:0:0:
273,370,158011,2,0,P|284:336|276:304,1,56.2500021457673
136,196,158422,6,0,L|192:192,1,37.5
376,144,158627,2,0,L|328:140,1,37.5
192,48,158833,5,0,0:0:0:0:
256,168,159038,1,0,0:0:0:0:
316,48,159244,2,0,P|349:31|386:23,2,75
256,168,159860,1,0,0:0:0:0:
80,120,160065,1,0,0:0:0:0:
248,96,160271,1,0,0:0:0:0:
96,212,160476,1,0,0:0:0:0:
268,236,160682,1,0,0:0:0:0:
152,328,160888,6,0,P|184:350|229:354,1,75
400,300,161298,1,0,0:0:0:0:
268,236,161504,1,0,0:0:0:0:
400,96,161709,2,0,P|408:140|396:184,1,75
320,300,162120,5,0,0:0:0:0:
235,162,162326,1,0,0:0:0:0:
161,52,162531,1,0,0:0:0:0:
351,52,162737,1,0,0:0:0:0:
140,211,162942,2,0,P|145:259|179:302,1,75
371,211,163353,2,0,P|366:259|332:302,1,75
192,316,163764,5,0,0:0:0:0:
256,32,163970,1,0,0:0:0:0:
320,316,164175,1,0,0:0:0:0:
371,211,164381,5,0,0:0:0:0:
299,170,164586,1,0,0:0:0:0:
371,129,164792,1,0,0:0:0:0:
299,88,164997,1,0,0:0:0:0:
371,47,165202,1,0,0:0:0:0:
219,19,165408,6,0,P|179:27|131:19,1,75
3,123,165819,2,0,P|39:115|76:118,1,75
204,160,166230,5,0,0:0:0:0:
84,228,166435,1,0,0:0:0:0:
328,272,166641,1,0,0:0:0:0:
160,224,166846,1,0,0:0:0:0:
344,188,167052,1,0,0:0:0:0:
180,304,167257,1,0,0:0:0:0:
320,108,167463,6,0,P|360:92|408:96,1,75
192,108,167874,2,0,P|152:92|104:96,1,75
256,296,168285,1,0,0:0:0:0:
256,160,168490,1,0,0:0:0:0:
404,160,168696,6,0,P|423:191|424:228,1,75
108,160,169107,2,0,P|88:191|87:228,1,75
128,324,169518,1,0,0:0:0:0:
228,292,169723,1,0,0:0:0:0:
320,344,169928,2,0,P|360:352|392:340,1,75
508,240,170340,1,0,0:0:0:0:
356,44,170545,6,0,L|336:4,2,37.5
472,136,170957,1,0,0:0:0:0:
392,240,171162,1,0,0:0:0:0:
364,256,171265,1,0,0:0:0:0:
336,260,171368,1,0,0:0:0:0:
308,256,171471,1,0,0:0:0:0:
280,244,171573,1,0,0:0:0:0:
256,224,171676,1,0,0:0:0:0:
228,212,171779,1,0,0:0:0:0:
200,208,171881,1,0,0:0:0:0:
172,216,171983,1,0,0:0:0:0:
76,368,172189,5,0,0:0:0:0:
20,296,172394,2,0,P|11:259|20:220,1,75
64,144,172805,1,0,0:0:0:0:
44,56,173011,1,0,0:0:0:0:
124,20,173216,2,0,P|164:16|200:28,1,75
152,104,173626,1,0,0:0:0:0:
364,188,173833,5,0,0:0:0:0:
428,128,174038,2,0,P|398:105|361:99,1,75
276,124,174449,1,0,0:0:0:0:
204,176,174654,1,0,0:0:0:0:
172,260,174860,2,0,P|168:304|192:328,1,75
408,368,175271,5,0,0:0:0:0:
496,368,175476,1,0,0:0:0:0:
496,276,175682,1,0,0:0:0:0:
408,276,175887,1,0,0:0:0:0:
408,184,176093,1,0,0:0:0:0:
496,184,176298,1,0,0:0:0:0:
496,276,176504,1,0,0:0:0:0:
408,276,176709,1,0,0:0:0:0:
172,292,176915,6,0,L|190:259,1,37.5
280,104,177120,2,0,L|261:136,1,37.5
129,249,177326,2,0,L|161:230,1,37.5
316,141,177531,2,0,L|283:159,1,37.5
113,191,177737,2,0,L|150:191,1,37.5
329,191,177942,2,0,L|291:190,1,37.5
129,133,178148,2,0,L|161:151,1,37.5
317,240,178353,2,0,L|284:221,1,37.5
120,32,178559,5,0,0:0:0:0:
340,68,178764,5,0,0:0:0:0:
428,88,178970,2,0,P|440:128|432:172,1,75
384,232,179380,1,0,0:0:0:0:
424,312,179586,1,0,0:0:0:0:
348,360,179792,2,0,P|304:348|260:360,1,75
188,368,180203,1,0,0:0:0:0:
0,244,180408,5,0,0:0:0:0:
68,184,180614,2,0,P|112:172|152:184,1,75
212,232,181024,1,0,0:0:0:0:
236,144,181229,1,0,0:0:0:0:
324,136,181435,2,0,P|308:92|272:64,1,75
64,16,181846,5,0,0:0:0:0:
28,100,182051,1,0,0:0:0:0:
68,184,182257,1,0,0:0:0:0:
156,188,182462,1,0,0:0:0:0:
236,148,182668,1,0,0:0:0:0:
320,180,182873,1,0,0:0:0:0:
344,268,183079,1,0,0:0:0:0:
292,344,183284,1,0,0:0:0:0:
8,354,183490,6,0,P|22:334|41:320,1,37.5
104,359,183695,2,0,P|123:344|137:325,1,37.5
84,262,183901,2,0,P|98:242|117:228,1,37.5
180,267,184106,2,0,P|199:252|213:233,1,37.5
160,170,184312,2,0,P|174:150|193:136,1,37.5
256,175,184517,2,0,P|275:160|289:141,1,37.5
232,82,184723,2,0,P|246:62|265:48,1,37.5
328,87,184928,2,0,P|347:72|361:53,1,37.5
512,87,185134,5,0,0:0:0:0:
211,204,185340,5,0,0:0:0:0:
444,204,185545,1,0,0:0:0:0:
328,87,185751,1,0,0:0:0:0:
328,321,185956,2,0,P|284:333|232:321,1,97.4999955368044
4,172,186367,5,0,0:0:0:0:
259,103,186572,1,0,0:0:0:0:
97,265,186778,1,0,0:0:0:0:
166,9,186983,1,0,0:0:0:0:
226,231,187189,1,0,0:0:0:0:
38,43,187394,1,0,0:0:0:0:
259,103,187600,6,0,P|208:100|160:116,1,97.4999955368044
24,208,188011,2,0,P|54:251|110:263,1,97.4999955368044
248,260,188422,5,0,0:0:0:0:
484,232,188627,1,0,0:0:0:0:
256,172,188833,2,0,P|304:192|332:240,1,97.4999955368044
456,316,189244,2,0,P|416:288|396:240,1,97.4999955368044
280,16,189655,5,0,0:0:0:0:
480,72,189860,1,0,0:0:0:0:
176,96,190066,1,0,0:0:0:0:
376,61,190271,1,0,0:0:0:0:
72,32,190477,1,0,0:0:0:0:
272,60,190682,2,0,P|252:160|172:192,1,194.999991073609
4,200,191298,5,0,0:0:0:0:
176,92,191504,1,0,0:0:0:0:
128,332,191709,1,0,0:0:0:0:
92,144,191915,1,0,0:0:0:0:
332,176,192120,1,0,0:0:0:0:
144,236,192326,2,0,B|180:304|244:264|296:228|336:308,1,194.999991073609
484,136,192942,5,0,0:0:0:0:
321,285,193148,1,0,0:0:0:0:
388,75,193353,1,0,0:0:0:0:
321,285,193559,1,0,0:0:0:0:
274,70,193764,1,0,0:0:0:0:
318,281,193970,2,0,B|296:228|244:264|180:304|144:236,1,194.999991073609
20,104,194586,5,0,0:0:0:0:
284,175,194792,1,0,0:0:0:0:
117,8,194997,1,0,0:0:0:0:
188,272,195203,1,0,0:0:0:0:
249,43,195408,1,0,0:0:0:0:
56,236,195614,2,0,P|124:156|208:140,1,194.999991073609
465,164,196230,5,0,0:0:0:0:
212,232,196435,1,0,0:0:0:0:
304,71,196641,1,0,0:0:0:0:
372,324,196846,6,0,P|404:328|424:324,2,48.7499977684022
248,292,197257,1,0,0:0:0:0:
128,328,197463,1,0,0:0:0:0:
92,320,197566,1,0,0:0:0:0:
60,292,197668,1,0,0:0:0:0:
56,252,197771,1,0,0:0:0:0:
72,216,197874,1,0,0:0:0:0:
104,188,197977,1,0,0:0:0:0:
120,152,198079,1,0,0:0:0:0:
108,116,198182,1,0,0:0:0:0:
84,100,198285,1,0,0:0:0:0:
