osu file format v14

[General]
AudioFilename: Red_Velvet_-_Dumb_Dumb.mp3
AudioLeadIn: 0
PreviewTime: 79900
Countdown: 1
SampleSet: Soft
StackLeniency: 0.7
Mode: 0
LetterboxInBreaks: 1
WidescreenStoryboard: 1

[Editor]
DistanceSpacing: 0.8
BeatDivisor: 4
GridSize: 4
TimelineZoom: 1

[Metadata]
Title:Dumb Dumb
TitleUnicode:Dumb Dumb
Artist:Red Velvet
ArtistUnicode:Red Velvet
Creator:CadeiradaFatal
Version:Easy
Source:
Tags:Kpop Joy Yeri Seulgi Irene Wendy
BeatmapID:783330
BeatmapSetID:355146

[Difficulty]
HPDrainRate:1
CircleSize:2
OverallDifficulty:2
ApproachRate:1
SliderMultiplier:0.999999999999999
SliderTickRate:2

[Events]
//Background and Video events
Video,800,"dumb dumb.flv"
0,0,"BG.jpg",0,0
//Break Periods
2,66927,76554
2,106380,117240
2,145832,153815
//Storyboard Layer 0 (Background)
//Storyboard Layer 1 (Fail)
//Storyboard Layer 2 (Pass)
//Storyboard Layer 3 (Foreground)
//Storyboard Sound Samples

[TimingPoints]
974,410.958904109589,4,2,0,100,1,0
40015,-100,4,2,0,100,0,1
53576,-100,4,2,0,100,0,0
92617,-100,4,2,0,100,0,1
106179,-100,4,2,0,100,0,0
158371,-100,4,2,0,100,0,1
171932,-100,4,2,0,100,0,0

[Colours]
Combo1 : 41,3,141
Combo2 : 255,0,0
Combo3 : 6,234,188
Combo4 : 34,145,255
Combo5 : 255,83,83
Combo6 : 255,255,26

[HitObjects]
256,192,13097,12,6,14124,0:0:0:0:
28,68,14536,6,0,P|68:48|128:68,1,99.9999999999999,8|0,0:0|0:0,0:0:0:0:
176,120,15358,2,0,P|216:140|276:120,1,99.9999999999999,8|2,0:0|0:0,0:0:0:0:
332,80,16180,2,0,L|382:80,2,50,8|0|0,0:0|0:0|0:0,0:0:0:0:
308,240,17412,2,0,P|324:296|408:232,2,200,6|0|2,0:0|0:0|0:0,0:0:0:0:
228,232,19468,1,8,0:0:0:0:
148,228,19878,2,8,L|48:228,1,99.9999999999999,0|8,0:0|0:0,0:0:0:0:
256,192,20699,12,0,22754,0:0:0:0:
256,192,23988,12,0,26043,0:0:0:0:
208,216,27275,6,0,P|224:160|308:224,3,200,6|0|2|0,0:0|0:0|0:0|0:0,0:0:0:0:
192,320,30563,2,0,B|211:367|283:323|283:323|339:283|365:323,2,200,6|0|2,0:0|0:0|0:0,0:0:0:0:
196,240,32618,1,8,0:0:0:0:
116,240,33029,1,0,0:0:0:0:
116,160,33440,1,8,0:0:0:0:
256,192,33851,12,0,35906,0:0:0:0:
256,192,37139,12,0,39605,0:0:0:0:
72,88,40015,6,0,P|96:96|172:92,1,99.9999999999999,8|6,0:0|0:0,0:0:0:0:
324,52,41248,2,0,P|348:44|424:48,2,99.9999999999999,0|8|2,0:0|0:0|0:0,0:0:0:0:
456,144,42892,2,0,P|377:247|300:142,1,300,0|8,0:0|0:0,0:0:0:0:
220,140,44536,1,0,0:0:0:0:
160,196,44947,1,8,0:0:0:0:
104,252,45357,2,0,L|54:252,2,50,2|8|8,0:0|0:0|0:0,0:0:0:0:
160,292,46179,6,0,B|188:328|188:328|244:328,2,99.9999999999999,0|8|6,0:0|0:0|0:0,0:0:0:0:
284,188,47823,1,0,0:0:0:0:
324,120,48234,1,8,0:0:0:0:
368,188,48645,1,2,0:0:0:0:
211,188,49468,2,0,P|290:291|367:186,2,300,0|8|6,0:0|0:0|0:0,0:0:0:0:
256,192,52343,12,6,53576,0:0:0:0:
72,112,53988,6,8,P|88:80|144:48,2,99.9999999999999,8|0|8,0:0|0:0|0:0,0:0:0:0:
152,128,55221,2,0,P|188:192|368:132,1,300,2|8,0:0|0:0,0:0:0:0:
484,108,57069,2,0,L|484:52,6,50,0|8|0|0|0|8|0,0:0|0:0|0:0|0:0|0:0|0:0|0:0,0:0:0:0:
256,192,58508,12,6,60152,0:0:0:0:
120,168,60563,6,0,P|66:73|130:41,1,200,8|8,0:0|0:0,0:0:0:0:
220,112,62002,2,0,L|276:112,5,50,0|8|0|0|0|8,0:0|0:0|0:0|0:0|0:0|0:0,0:0:0:0:
364,188,63646,2,0,L|420:188,6,50,0|8|0|0|0|8|0,0:0|0:0|0:0|0:0|0:0|0:0|0:0,0:0:0:0:
256,192,65083,12,6,66727,0:0:0:0:
256,192,78234,12,0,79467,0:0:0:0:
40,76,79878,6,0,P|19:119|44:168,1,99.9999999999999,6|8,0:0|0:0,0:0:0:0:
53,248,80700,1,0,0:0:0:0:
38,163,81111,2,0,P|70:163|34:331,2,300,8|0|8,0:0|0:0|0:0,0:0:0:0:
36,84,83988,2,0,P|122:-14|204:87,1,300,0|8,0:0|0:0,0:0:0:0:
284,96,85632,1,0,0:0:0:0:
364,96,86043,1,8,0:0:0:0:
364,176,86453,6,4,P|284:356|228:172,1,499.999999999999,6|8,0:0|0:0,0:0:0:0:
292,76,89125,2,0,L|292:16,2,50,0|8|0,0:0|0:0|0:0,0:0:0:0:
256,192,89741,12,0,92206,0:0:0:0:
440,88,92617,6,0,P|416:96|340:92,1,99.9999999999999,8|6,0:0|0:0,0:0:0:0:
188,52,93850,2,0,P|164:44|88:48,2,99.9999999999999,0|8|2,0:0|0:0|0:0,0:0:0:0:
56,144,95494,2,0,P|135:247|212:142,1,300,0|8,0:0|0:0,0:0:0:0:
292,140,97138,1,0,0:0:0:0:
352,196,97549,1,8,0:0:0:0:
408,252,97960,2,0,L|458:252,2,50,2|8|8,0:0|0:0|0:0,0:0:0:0:
352,292,98782,6,0,B|324:328|324:328|268:328,2,99.9999999999999,0|8|6,0:0|0:0|0:0,0:0:0:0:
228,188,100425,1,0,0:0:0:0:
188,120,100836,1,8,0:0:0:0:
144,188,101247,1,2,0:0:0:0:
301,188,102070,2,0,P|222:291|145:186,2,300,0|8|6,0:0|0:0|0:0,0:0:0:0:
256,192,104741,12,6,106180,0:0:0:0:
256,192,118920,6,8,P|165:156|75:195,2,200
252,272,120973,2,0,L|176:272,2,74.9999999999999,2|0|0,0:0|0:0|0:0,0:0:0:0:
264,152,122207,2,0,P|372:80|508:156,1,300,8|0,0:0|0:0,0:0:0:0:
504,236,123851,1,8,0:0:0:0:
456,300,124261,2,0,L|381:300,2,74.9999999999999,2|0|0,0:0|0:0|0:0,0:0:0:0:
412,188,125495,5,8,0:0:0:0:
332,188,125905,2,0,P|229:267|332:345,2,300,6|8|0,0:0|0:0|0:0,0:0:0:0:
360,112,128782,2,0,L|464:112,3,99.9999999999999,8|6|8|0,0:0|0:0|0:0|0:0,0:0:0:0:
460,192,130426,1,8,0:0:0:0:
460,272,130837,1,2,0:0:0:0:
256,192,131043,12,0,132070,0:0:0:0:
320,116,132481,6,0,P|356:104|400:112,2,74.9999999999999,6|0|0,0:0|0:0|0:0,0:0:0:0:
256,216,133714,1,8,0:0:0:0:
192,168,134124,2,0,P|156:156|112:164,2,74.9999999999999,2|2|2,0:0|0:0|0:0,0:0:0:0:
312,156,135358,2,0,P|368:188|240:284,1,300,8|0,0:0|0:0,0:0:0:0:
180,204,137002,2,0,L|120:204,3,50,8|0|2|0,0:0|0:0|0:0|0:0,0:0:0:0:
132,124,138029,2,0,L|192:124,3,50,0|0|0|8,0:0|0:0|0:0|0:0,0:0:0:0:
256,192,139057,12,6,145632,0:0:0:0:
256,192,155495,12,0,157961,0:0:0:0:
72,296,158371,6,0,P|96:288|172:292,1,99.9999999999999,8|6,0:0|0:0,0:0:0:0:
324,332,159604,2,0,P|348:340|424:336,2,99.9999999999999,0|8|2,0:0|0:0|0:0,0:0:0:0:
456,240,161248,2,0,P|377:137|300:242,1,300,0|8,0:0|0:0,0:0:0:0:
220,244,162892,1,0,0:0:0:0:
160,188,163303,1,8,0:0:0:0:
104,132,163713,2,0,L|54:132,2,50,2|8|8,0:0|0:0|0:0,0:0:0:0:
160,92,164535,6,0,B|188:56|188:56|244:56,2,99.9999999999999,0|8|6,0:0|0:0|0:0,0:0:0:0:
284,196,166179,1,0,0:0:0:0:
324,264,166590,1,8,0:0:0:0:
368,196,167001,1,2,0:0:0:0:
211,196,167824,2,0,P|290:93|367:198,2,300,0|8|6,0:0|0:0|0:0,0:0:0:0:
256,192,170494,12,6,171932,0:0:0:0:
256,192,172344,5,8,0:0:0:0:
176,192,172755,1,0,0:0:0:0:
96,192,173166,1,8,0:0:0:0:
96,272,173577,2,0,P|116:320|304:272,1,300,2|8,0:0|0:0,0:0:0:0:
464,264,175632,1,8,0:0:0:0:
464,184,176043,6,0,L|464:134,3,50,0|0|8|0,0:0|0:0|0:0|0:0,0:0:0:0:
459,92,176864,2,0,B|384:92|384:92|356:36|280:28|232:56|208:132|248:224|309:206,1,400,2|6,0:0|0:0,0:0:0:0:
392,208,178920,1,8,0:0:0:0:
472,208,179331,2,0,L|472:264,2,50,0|0|8,0:0|0:0|0:0,0:0:0:0:
316,180,180563,5,8,0:0:0:0:
232,180,180974,1,0,0:0:0:0:
152,180,181385,1,8,0:0:0:0:
24,84,182207,2,0,P|56:48|104:36,1,99.9999999999999,8|0,0:0|0:0,0:0:0:0:
160,96,183029,1,8,0:0:0:0:
256,192,183440,12,6,185084,0:0:0:0:
140,144,185495,6,0,B|168:112|264:96|264:96|332:120|384:136|416:128|432:112,1,300,8|2,0:0|0:0,0:0:0:0:
476,176,187138,2,0,P|512:264|512:272,2,99.9999999999999,8|0|8,0:0|0:0|0:0,0:0:0:0:
423,118,188371,1,6,0:0:0:0:
256,192,188782,12,0,190837,0:0:0:0:
284,160,191248,6,0,L|336:160,5,50,8|0|6|0|8|0,0:0|0:0|0:0|0:0|0:0|0:0,0:0:0:0:
236,228,192891,6,0,L|186:228,5,50,8|0|6|0|8|0,0:0|0:0|0:0|0:0|0:0|0:0,0:0:0:0:
284,160,194536,6,0,L|284:104,5,50,8|0|6|0|8|0,0:0|0:0|0:0|0:0|0:0|0:0,0:0:0:0:
340,300,196591,6,0,P|257:348|175:299,2,200,6|0|6,0:0|0:0|0:0,0:0:0:0:
