osu file format v14

[General]
AudioFilename: audio.mp3
AudioLeadIn: 0
PreviewTime: 67605
Countdown: 0
SampleSet: Soft
StackLeniency: 0.7
Mode: 3
LetterboxInBreaks: 0
SpecialStyle: 0
WidescreenStoryboard: 0

[Editor]
DistanceSpacing: 0.8
BeatDivisor: 16
GridSize: 32
TimelineZoom: 3.5

[Metadata]
Title:Birthday
TitleUnicode:Birthday
Artist:Red Velvet
ArtistUnicode:레드벨벳
Creator:fvrex
Version:Flashback
Source:
Tags:xtrippin ucitysm indoroid tigerinity hytex the reve festival 2022 Rhapsody in Blue George Jacob Gershwin kpop k-pop k pop korean dance 아이린 irene 슬기 seulgi 웬디 wendy 조이 joy 예리 yeri sm entertainment ent SM엔터테인먼트 smtown reveluv cb comeback Kim Min-ji minji Jam Factory 잼 팩토리 김민지 Ejae Kole Issac Han Aaron Kim Ghostchild Ltd limited Loosen Door
BeatmapID:3909904
BeatmapSetID:1897084

[Difficulty]
HPDrainRate:8.5
CircleSize:4
OverallDifficulty:7.7
ApproachRate:5
SliderMultiplier:1.4
SliderTickRate:1

[Events]
//Background and Video events
0,0,"bg.jpg",0,0
//Break Periods
//Storyboard Layer 0 (Background)
//Storyboard Layer 1 (Fail)
//Storyboard Layer 2 (Pass)
//Storyboard Layer 3 (Foreground)
//Storyboard Layer 4 (Overlay)
//Storyboard Sound Samples

[TimingPoints]
5230,400,4,2,1,75,1,0
69230,-100,4,2,1,75,0,1
94830,-100,4,2,1,75,0,0
146030,-100,4,2,1,75,0,1
171630,-100,4,2,1,75,0,0
187630,-100,4,2,1,75,0,1
213230,-100,4,2,1,75,0,0

[HitObjects]
448,192,5230,128,0,5630:0:0:0:0:
192,192,5230,128,0,5430:0:0:0:0:
64,192,5230,128,0,5330:0:0:0:0:
192,192,5630,1,0,0:0:0:0:
192,192,5830,1,0,0:0:0:0:
448,192,6030,128,0,6430:0:0:0:0:
64,192,6030,128,0,6330:0:0:0:0:
320,192,6230,128,0,6330:0:0:0:0:
64,192,6430,128,0,6630:0:0:0:0:
192,192,6430,128,0,6730:0:0:0:0:
320,192,6530,1,0,0:0:0:0:
448,192,6630,1,0,0:0:0:0:
320,192,6830,128,0,7230:0:0:0:0:
64,192,6830,128,0,6930:0:0:0:0:
64,192,7030,1,0,0:0:0:0:
192,192,7030,1,0,0:0:0:0:
192,192,7230,128,0,7330:0:0:0:0:
448,192,7230,1,0,0:0:0:0:
192,192,7430,128,0,7630:0:0:0:0:
64,192,7530,1,0,0:0:0:0:
320,192,7630,128,0,7730:0:0:0:0:
448,192,7630,1,0,0:0:0:0:
192,192,7830,128,0,7930:0:0:0:0:
320,192,7830,128,0,8030:0:0:0:0:
64,192,8030,128,0,8130:0:0:0:0:
448,192,8030,128,0,8230:0:0:0:0:
64,192,8230,128,0,8430:0:0:0:0:
192,192,8230,128,0,8330:0:0:0:0:
448,192,8430,128,0,8730:0:0:0:0:
192,192,8430,128,0,8630:0:0:0:0:
192,192,8830,128,0,8930:0:0:0:0:
320,192,8930,1,0,0:0:0:0:
192,192,9030,1,0,0:0:0:0:
64,192,9230,128,0,9430:0:0:0:0:
448,192,9230,128,0,9530:0:0:0:0:
320,192,9430,128,0,9530:0:0:0:0:
448,192,9630,128,0,9830:0:0:0:0:
192,192,9630,128,0,9930:0:0:0:0:
64,192,9830,128,0,9930:0:0:0:0:
448,192,10030,128,0,10130:0:0:0:0:
64,192,10030,128,0,10430:0:0:0:0:
192,192,10230,1,0,0:0:0:0:
448,192,10430,128,0,10730:0:0:0:0:
320,192,10430,128,0,10530:0:0:0:0:
320,192,10630,128,0,10730:0:0:0:0:
192,192,10830,128,0,11130:0:0:0:0:
64,192,10830,128,0,10930:0:0:0:0:
448,192,11030,128,0,11130:0:0:0:0:
64,192,11130,1,0,0:0:0:0:
320,192,11230,128,0,11530:0:0:0:0:
192,192,11430,128,0,11730:0:0:0:0:
448,192,11430,1,0,0:0:0:0:
64,192,11530,1,0,0:0:0:0:
448,192,11630,128,0,11930:0:0:0:0:
320,192,11630,128,0,11830:0:0:0:0:
64,192,12030,128,0,12130:0:0:0:0:
64,192,12230,1,0,0:0:0:0:
320,192,12430,128,0,12730:0:0:0:0:
192,192,12430,128,0,12630:0:0:0:0:
64,192,12630,128,0,12730:0:0:0:0:
320,192,12830,128,0,13030:0:0:0:0:
448,192,12830,128,0,13130:0:0:0:0:
192,192,12930,1,0,0:0:0:0:
64,192,13030,1,0,0:0:0:0:
320,192,13230,128,0,13330:0:0:0:0:
192,192,13230,128,0,13630:0:0:0:0:
64,192,13430,1,0,0:0:0:0:
448,192,13430,128,0,13630:0:0:0:0:
320,192,13630,128,0,13730:0:0:0:0:
320,192,13830,128,0,14030:0:0:0:0:
448,192,13930,1,0,0:0:0:0:
192,192,14030,128,0,14130:0:0:0:0:
64,192,14030,1,0,0:0:0:0:
192,192,14230,128,0,14430:0:0:0:0:
320,192,14230,128,0,14330:0:0:0:0:
448,192,14430,128,0,14730:0:0:0:0:
64,192,14630,128,0,14830:0:0:0:0:
320,192,14630,128,0,14730:0:0:0:0:
448,192,14830,128,0,15130:0:0:0:0:
320,192,14830,128,0,15030:0:0:0:0:
320,192,15230,128,0,15330:0:0:0:0:
448,192,15330,128,0,15430:0:0:0:0:
320,192,15430,1,0,0:0:0:0:
192,192,15630,128,0,15930:0:0:0:0:
64,192,15630,1,0,0:0:0:0:
448,192,15730,128,0,15830:0:0:0:0:
320,192,15830,128,0,15930:0:0:0:0:
192,192,16030,128,0,16230:0:0:0:0:
64,192,16030,128,0,16330:0:0:0:0:
448,192,16230,128,0,16330:0:0:0:0:
192,192,16430,128,0,16530:0:0:0:0:
320,192,16430,128,0,16830:0:0:0:0:
64,192,16530,128,0,16730:0:0:0:0:
448,192,16630,1,0,0:0:0:0:
64,192,16830,128,0,17130:0:0:0:0:
192,192,16830,128,0,16930:0:0:0:0:
192,192,17030,128,0,17230:0:0:0:0:
448,192,17230,128,0,17530:0:0:0:0:
320,192,17230,128,0,17330:0:0:0:0:
64,192,17430,128,0,17530:0:0:0:0:
320,192,17430,128,0,17630:0:0:0:0:
192,192,17530,1,0,0:0:0:0:
448,192,17630,128,0,17830:0:0:0:0:
192,192,17830,128,0,18130:0:0:0:0:
320,192,17830,128,0,17930:0:0:0:0:
64,192,18030,128,0,18330:0:0:0:0:
448,192,18030,1,0,0:0:0:0:
320,192,18030,128,0,18230:0:0:0:0:
320,192,18430,128,0,18730:0:0:0:0:
192,192,18630,128,0,18730:0:0:0:0:
448,192,18830,128,0,19030:0:0:0:0:
320,192,19230,128,0,19430:0:0:0:0:
192,192,19230,128,0,19330:0:0:0:0:
192,192,19430,128,0,19530:0:0:0:0:
448,192,19630,128,0,19830:0:0:0:0:
64,192,19630,128,0,19930:0:0:0:0:
320,192,20030,128,0,20230:0:0:0:0:
64,192,20030,128,0,20330:0:0:0:0:
192,192,20230,128,0,20330:0:0:0:0:
64,192,20430,128,0,20730:0:0:0:0:
448,192,20430,128,0,20530:0:0:0:0:
448,192,20630,128,0,20830:0:0:0:0:
192,192,20830,128,0,20930:0:0:0:0:
192,192,21030,128,0,21330:0:0:0:0:
448,192,21230,128,0,21430:0:0:0:0:
64,192,21230,128,0,21330:0:0:0:0:
64,192,21430,1,0,0:0:0:0:
192,192,21630,128,0,21730:0:0:0:0:
320,192,21730,1,0,0:0:0:0:
64,192,21830,128,0,22030:0:0:0:0:
448,192,22030,128,0,22130:0:0:0:0:
192,192,22030,128,0,22330:0:0:0:0:
320,192,22230,128,0,22330:0:0:0:0:
64,192,22430,128,0,22730:0:0:0:0:
192,192,22430,128,0,22530:0:0:0:0:
320,192,22630,128,0,22730:0:0:0:0:
448,192,22730,1,0,0:0:0:0:
320,192,22830,128,0,23030:0:0:0:0:
192,192,22830,128,0,23130:0:0:0:0:
448,192,22930,128,0,23030:0:0:0:0:
64,192,23030,128,0,23130:0:0:0:0:
448,192,23230,128,0,23630:0:0:0:0:
320,192,23230,128,0,23430:0:0:0:0:
192,192,23430,128,0,23530:0:0:0:0:
64,192,23630,128,0,23730:0:0:0:0:
320,192,23630,1,0,0:0:0:0:
64,192,23830,128,0,24030:0:0:0:0:
448,192,23830,128,0,23930:0:0:0:0:
192,192,23930,1,0,0:0:0:0:
448,192,24030,128,0,24230:0:0:0:0:
320,192,24030,128,0,24130:0:0:0:0:
320,192,24230,128,0,24430:0:0:0:0:
64,192,24330,1,0,0:0:0:0:
192,192,24430,128,0,24730:0:0:0:0:
448,192,24430,128,0,24630:0:0:0:0:
64,192,24630,128,0,24730:0:0:0:0:
320,192,24830,128,0,25130:0:0:0:0:
448,192,24930,128,0,25130:0:0:0:0:
192,192,25030,128,0,25130:0:0:0:0:
448,192,25230,128,0,25330:0:0:0:0:
64,192,25230,128,0,25430:0:0:0:0:
192,192,25430,128,0,25530:0:0:0:0:
320,192,25630,128,0,25930:0:0:0:0:
448,192,25630,128,0,25730:0:0:0:0:
64,192,25730,1,0,0:0:0:0:
192,192,25830,128,0,26030:0:0:0:0:
64,192,26030,128,0,26830:0:0:0:0:
448,192,26230,128,0,26330:0:0:0:0:
192,192,26230,1,0,0:0:0:0:
192,192,26430,128,0,26630:0:0:0:0:
320,192,26430,128,0,26530:0:0:0:0:
320,192,26630,128,0,26730:0:0:0:0:
192,192,26830,128,0,27130:0:0:0:0:
448,192,26830,128,0,27430:0:0:0:0:
320,192,27030,128,0,27130:0:0:0:0:
64,192,27230,128,0,27330:0:0:0:0:
320,192,27330,128,0,27430:0:0:0:0:
64,192,27430,128,0,27630:0:0:0:0:
192,192,27430,1,0,0:0:0:0:
320,192,27630,128,0,27930:0:0:0:0:
192,192,27630,128,0,27830:0:0:0:0:
320,192,28030,128,0,28130:0:0:0:0:
448,192,28130,128,0,28230:0:0:0:0:
320,192,28230,1,0,0:0:0:0:
64,192,28430,128,0,28530:0:0:0:0:
320,192,28430,128,0,28630:0:0:0:0:
448,192,28630,128,0,28730:0:0:0:0:
64,192,28630,128,0,28830:0:0:0:0:
192,192,28830,128,0,29130:0:0:0:0:
320,192,28830,128,0,29030:0:0:0:0:
448,192,29030,128,0,29130:0:0:0:0:
64,192,29130,1,0,0:0:0:0:
320,192,29230,128,0,30030:0:0:0:0:
192,192,29230,128,0,29430:0:0:0:0:
64,192,29430,128,0,29630:0:0:0:0:
448,192,29630,128,0,30030:0:0:0:0:
192,192,29830,128,0,30030:0:0:0:0:
64,192,30030,128,0,30130:0:0:0:0:
192,192,30230,128,0,30330:0:0:0:0:
64,192,30230,128,0,30430:0:0:0:0:
320,192,30330,1,0,0:0:0:0:
448,192,30430,128,0,30530:0:0:0:0:
448,192,30630,128,0,30830:0:0:0:0:
64,192,30730,1,0,0:0:0:0:
192,192,30830,128,0,30963:0:0:0:0:
320,192,30830,128,0,31096:0:0:0:0:
64,192,30963,128,0,31096:0:0:0:0:
448,192,31096,128,0,31230:0:0:0:0:
192,192,31230,1,0,0:0:0:0:
448,192,31363,128,0,31496:0:0:0:0:
64,192,31496,128,0,31630:0:0:0:0:
192,192,31630,128,0,31730:0:0:0:0:
320,192,31630,128,0,31930:0:0:0:0:
448,192,31830,128,0,31930:0:0:0:0:
320,192,32030,128,0,32296:0:0:0:0:
192,192,32030,128,0,32163:0:0:0:0:
64,192,32163,128,0,32296:0:0:0:0:
448,192,32296,1,0,0:0:0:0:
64,192,32430,128,0,33230:0:0:0:0:
192,192,32430,128,0,32696:0:0:0:0:
320,192,32563,128,0,32696:0:0:0:0:
448,192,32696,128,0,32830:0:0:0:0:
192,192,32830,128,0,33096:0:0:0:0:
320,192,32830,128,0,32930:0:0:0:0:
320,192,33096,1,0,0:0:0:0:
192,192,33230,128,0,33430:0:0:0:0:
448,192,33230,128,0,33330:0:0:0:0:
448,192,33430,128,0,33530:0:0:0:0:
64,192,33630,128,0,33830:0:0:0:0:
320,192,33630,128,0,33930:0:0:0:0:
192,192,33830,128,0,33930:0:0:0:0:
320,192,34030,128,0,34296:0:0:0:0:
64,192,34030,128,0,34163:0:0:0:0:
448,192,34163,128,0,34296:0:0:0:0:
192,192,34296,128,0,34430:0:0:0:0:
64,192,34430,128,0,34563:0:0:0:0:
448,192,34430,128,0,34563:0:0:0:0:
320,192,34630,128,0,34830:0:0:0:0:
448,192,34830,128,0,35130:0:0:0:0:
64,192,34830,128,0,34963:0:0:0:0:
320,192,35030,128,0,35130:0:0:0:0:
192,192,35230,128,0,35496:0:0:0:0:
64,192,35230,128,0,35363:0:0:0:0:
448,192,35363,128,0,35496:0:0:0:0:
320,192,35496,128,0,35630:0:0:0:0:
448,192,35630,128,0,35830:0:0:0:0:
64,192,35630,128,0,35896:0:0:0:0:
192,192,35763,128,0,35896:0:0:0:0:
320,192,35896,128,0,36030:0:0:0:0:
448,192,36030,128,0,36230:0:0:0:0:
192,192,36030,128,0,36296:0:0:0:0:
64,192,36430,128,0,36630:0:0:0:0:
448,192,36430,128,0,36530:0:0:0:0:
320,192,36630,128,0,36730:0:0:0:0:
192,192,36630,1,0,0:0:0:0:
64,192,36830,128,0,37030:0:0:0:0:
192,192,36930,128,0,37030:0:0:0:0:
320,192,37030,128,0,37130:0:0:0:0:
448,192,37230,128,0,37530:0:0:0:0:
64,192,37230,128,0,37430:0:0:0:0:
192,192,37530,128,0,37730:0:0:0:0:
448,192,37630,128,0,37730:0:0:0:0:
192,192,37830,1,0,0:0:0:0:
448,192,37930,1,0,0:0:0:0:
320,192,38030,128,0,38130:0:0:0:0:
64,192,38030,128,0,38230:0:0:0:0:
192,192,38230,128,0,38330:0:0:0:0:
448,192,38430,128,0,38730:0:0:0:0:
64,192,38430,128,0,38630:0:0:0:0:
320,192,38530,1,0,0:0:0:0:
192,192,38630,1,0,0:0:0:0:
320,192,38830,128,0,38930:0:0:0:0:
192,192,38830,128,0,39130:0:0:0:0:
64,192,38930,128,0,39030:0:0:0:0:
320,192,39030,128,0,39230:0:0:0:0:
448,192,39030,1,0,0:0:0:0:
64,192,39230,128,0,39330:0:0:0:0:
64,192,39430,128,0,39530:0:0:0:0:
320,192,39530,1,0,0:0:0:0:
448,192,39630,128,0,39730:0:0:0:0:
192,192,39630,128,0,39830:0:0:0:0:
448,192,39830,128,0,39930:0:0:0:0:
64,192,39830,1,0,0:0:0:0:
192,192,40030,128,0,40130:0:0:0:0:
192,192,40230,128,0,40330:0:0:0:0:
320,192,40230,128,0,40530:0:0:0:0:
448,192,40430,128,0,40530:0:0:0:0:
64,192,40430,128,0,40830:0:0:0:0:
192,192,40630,128,0,40830:0:0:0:0:
320,192,40830,128,0,40930:0:0:0:0:
192,192,40930,1,0,0:0:0:0:
320,192,41030,128,0,41230:0:0:0:0:
448,192,41230,128,0,41330:0:0:0:0:
192,192,41230,128,0,41430:0:0:0:0:
64,192,41430,128,0,41530:0:0:0:0:
448,192,41430,128,0,41630:0:0:0:0:
320,192,41630,128,0,41930:0:0:0:0:
192,192,41630,128,0,41730:0:0:0:0:
192,192,41830,128,0,41930:0:0:0:0:
448,192,41930,1,0,0:0:0:0:
192,192,42030,128,0,42230:0:0:0:0:
448,192,42230,1,0,0:0:0:0:
64,192,42230,1,0,0:0:0:0:
320,192,42330,1,0,0:0:0:0:
192,192,42430,128,0,42630:0:0:0:0:
448,192,42530,5,0,0:0:0:0:
320,192,42530,1,0,0:0:0:0:
64,192,42630,1,0,0:0:0:0:
448,192,42830,128,0,43030:0:0:0:0:
320,192,42830,128,0,42930:0:0:0:0:
192,192,43230,128,0,43430:0:0:0:0:
448,192,43230,128,0,43330:0:0:0:0:
64,192,43430,128,0,43530:0:0:0:0:
448,192,43630,128,0,45030:0:0:0:0:
320,192,43630,128,0,44830:0:0:0:0:
64,192,44630,128,0,44830:0:0:0:0:
192,192,44830,128,0,45030:0:0:0:0:
64,192,45030,128,0,46630:0:0:0:0:
320,192,45030,128,0,45230:0:0:0:0:
448,192,45230,128,0,46430:0:0:0:0:
192,192,46230,128,0,46430:0:0:0:0:
192,192,46830,128,0,48230:0:0:0:0:
64,192,46830,128,0,47030:0:0:0:0:
448,192,47030,128,0,47230:0:0:0:0:
320,192,47230,128,0,47330:0:0:0:0:
64,192,47430,128,0,47630:0:0:0:0:
448,192,47630,128,0,47830:0:0:0:0:
448,192,48030,128,0,48130:0:0:0:0:
320,192,48230,128,0,49830:0:0:0:0:
448,192,48230,128,0,48330:0:0:0:0:
192,192,48430,128,0,48630:0:0:0:0:
64,192,48630,128,0,48730:0:0:0:0:
448,192,48830,128,0,48930:0:0:0:0:
192,192,49030,128,0,49230:0:0:0:0:
64,192,49230,128,0,49330:0:0:0:0:
64,192,49430,128,0,49530:0:0:0:0:
64,192,49630,128,0,50030:0:0:0:0:
448,192,49630,128,0,49830:0:0:0:0:
192,192,49830,128,0,50030:0:0:0:0:
448,192,50030,128,0,51430:0:0:0:0:
320,192,50030,128,0,51230:0:0:0:0:
64,192,51030,128,0,51230:0:0:0:0:
192,192,51230,128,0,51430:0:0:0:0:
64,192,51430,128,0,53030:0:0:0:0:
320,192,51430,128,0,51630:0:0:0:0:
448,192,51630,128,0,52630:0:0:0:0:
192,192,52130,128,0,52830:0:0:0:0:
192,192,53230,128,0,54630:0:0:0:0:
64,192,53230,128,0,53430:0:0:0:0:
448,192,53430,128,0,53630:0:0:0:0:
320,192,53630,128,0,53730:0:0:0:0:
320,192,53830,128,0,54030:0:0:0:0:
64,192,54030,128,0,54130:0:0:0:0:
64,192,54230,128,0,54430:0:0:0:0:
448,192,54430,128,0,54530:0:0:0:0:
320,192,54630,128,0,56430:0:0:0:0:
448,192,54630,128,0,54830:0:0:0:0:
192,192,54830,128,0,55030:0:0:0:0:
64,192,55030,128,0,55130:0:0:0:0:
448,192,55230,128,0,55430:0:0:0:0:
192,192,55430,128,0,55530:0:0:0:0:
64,192,55630,128,0,55830:0:0:0:0:
64,192,55930,128,0,56130:0:0:0:0:
448,192,56030,128,0,56230:0:0:0:0:
192,192,56030,128,0,56230:0:0:0:0:
448,192,56430,1,0,0:0:0:0:
64,192,56430,1,0,0:0:0:0:
320,192,56830,128,0,56930:0:0:0:0:
320,192,57030,128,0,57330:0:0:0:0:
64,192,57030,1,0,0:0:0:0:
192,192,57230,128,0,57430:0:0:0:0:
448,192,57230,128,0,57430:0:0:0:0:
192,192,57630,128,0,57730:0:0:0:0:
320,192,57630,1,0,0:0:0:0:
192,192,57830,128,0,58130:0:0:0:0:
320,192,58030,128,0,58230:0:0:0:0:
64,192,58030,128,0,58230:0:0:0:0:
448,192,58230,1,0,0:0:0:0:
192,192,58230,1,0,0:0:0:0:
320,192,58430,128,0,58630:0:0:0:0:
64,192,58630,128,0,58730:0:0:0:0:
320,192,58830,128,0,59130:0:0:0:0:
448,192,58830,128,0,58930:0:0:0:0:
448,192,59030,128,0,59130:0:0:0:0:
192,192,59230,128,0,59530:0:0:0:0:
64,192,59230,128,0,59330:0:0:0:0:
320,192,59330,1,0,0:0:0:0:
64,192,59430,128,0,59630:0:0:0:0:
320,192,59530,128,0,59630:0:0:0:0:
448,192,59630,1,0,0:0:0:0:
192,192,59630,1,0,0:0:0:0:
448,192,60030,128,0,60130:0:0:0:0:
448,192,60230,128,0,60530:0:0:0:0:
64,192,60230,1,0,0:0:0:0:
192,192,60430,128,0,60630:0:0:0:0:
64,192,60430,128,0,60630:0:0:0:0:
64,192,60830,128,0,60930:0:0:0:0:
448,192,60830,1,0,0:0:0:0:
64,192,61030,128,0,61330:0:0:0:0:
192,192,61130,128,0,61230:0:0:0:0:
320,192,61230,128,0,61430:0:0:0:0:
448,192,61230,128,0,61430:0:0:0:0:
192,192,61430,1,0,0:0:0:0:
64,192,61430,1,0,0:0:0:0:
448,192,61530,1,0,0:0:0:0:
192,192,61630,128,0,61930:0:0:0:0:
320,192,61630,128,0,61730:0:0:0:0:
64,192,61730,1,0,0:0:0:0:
320,192,61830,128,0,62030:0:0:0:0:
448,192,61830,1,0,0:0:0:0:
64,192,62030,128,0,62330:0:0:0:0:
192,192,62030,128,0,62130:0:0:0:0:
320,192,62230,128,0,62330:0:0:0:0:
192,192,62330,1,0,0:0:0:0:
448,192,62430,128,0,62730:0:0:0:0:
64,192,62430,128,0,62530:0:0:0:0:
320,192,62530,1,0,0:0:0:0:
64,192,62630,128,0,62730:0:0:0:0:
192,192,62630,128,0,62830:0:0:0:0:
320,192,62730,128,0,62830:0:0:0:0:
448,192,62830,1,0,0:0:0:0:
64,192,62830,128,0,63230:0:0:0:0:
192,192,63030,128,0,63230:0:0:0:0:
448,192,63230,1,0,0:0:0:0:
320,192,63230,1,0,0:0:0:0:
320,192,63430,128,0,63830:0:0:0:0:
64,192,63430,1,0,0:0:0:0:
192,192,63630,1,0,0:0:0:0:
448,192,63630,128,0,64030:0:0:0:0:
64,192,63830,1,0,0:0:0:0:
192,192,64030,128,0,64430:0:0:0:0:
320,192,64030,128,0,64230:0:0:0:0:
64,192,64230,1,0,0:0:0:0:
320,192,64330,1,0,0:0:0:0:
448,192,64430,128,0,64830:0:0:0:0:
64,192,64430,128,0,64630:0:0:0:0:
320,192,64630,128,0,65030:0:0:0:0:
192,192,64830,128,0,64930:0:0:0:0:
64,192,64830,1,0,0:0:0:0:
192,192,65030,128,0,65430:0:0:0:0:
448,192,65030,128,0,65230:0:0:0:0:
64,192,65230,128,0,65630:0:0:0:0:
320,192,65230,1,0,0:0:0:0:
448,192,65430,128,0,65630:0:0:0:0:
320,192,65630,128,0,66030:0:0:0:0:
192,192,65630,1,0,0:0:0:0:
448,192,65830,1,0,0:0:0:0:
192,192,65930,1,0,0:0:0:0:
64,192,66030,128,0,67430:0:0:0:0:
448,192,66030,128,0,66430:0:0:0:0:
320,192,66230,1,0,0:0:0:0:
192,192,66430,1,0,0:0:0:0:
320,192,66430,1,0,0:0:0:0:
192,192,66630,1,0,0:0:0:0:
448,192,66630,1,0,0:0:0:0:
320,192,66830,128,0,67230:0:0:0:0:
448,192,67030,128,0,67630:0:0:0:0:
192,192,67230,1,0,0:0:0:0:
192,192,67430,128,0,67630:0:0:0:0:
64,192,67630,128,0,68430:0:0:0:0:
320,192,67630,128,0,67730:0:0:0:0:
448,192,67830,128,0,68030:0:0:0:0:
192,192,68030,128,0,68130:0:0:0:0:
448,192,68230,128,0,68330:0:0:0:0:
320,192,68430,128,0,68630:0:0:0:0:
192,192,68530,128,0,68630:0:0:0:0:
320,192,68830,128,0,69130:0:0:0:0:
192,192,69030,128,0,69230:0:0:0:0:
320,192,69230,128,0,69330:0:0:0:0:
64,192,69230,128,0,69530:0:0:0:0:
448,192,69230,128,0,69430:0:0:0:0:
320,192,69430,1,0,0:0:0:0:
448,192,69630,128,0,69930:0:0:0:0:
64,192,69630,128,0,69830:0:0:0:0:
320,192,69830,128,0,70130:0:0:0:0:
448,192,70030,128,0,70230:0:0:0:0:
64,192,70030,128,0,70130:0:0:0:0:
192,192,70230,128,0,70430:0:0:0:0:
320,192,70330,128,0,70530:0:0:0:0:
448,192,70430,128,0,70630:0:0:0:0:
192,192,70530,128,0,70630:0:0:0:0:
320,192,70630,128,0,70730:0:0:0:0:
64,192,70630,128,0,70830:0:0:0:0:
448,192,70730,128,0,70830:0:0:0:0:
192,192,70830,1,0,0:0:0:0:
64,192,71030,128,0,71230:0:0:0:0:
320,192,71030,128,0,71130:0:0:0:0:
192,192,71130,128,0,71330:0:0:0:0:
448,192,71230,128,0,71530:0:0:0:0:
320,192,71230,128,0,71430:0:0:0:0:
64,192,71430,1,0,0:0:0:0:
448,192,71630,128,0,71830:0:0:0:0:
64,192,71630,128,0,71730:0:0:0:0:
192,192,71830,128,0,72030:0:0:0:0:
320,192,71830,128,0,72130:0:0:0:0:
448,192,72030,128,0,72430:0:0:0:0:
64,192,72030,128,0,72230:0:0:0:0:
192,192,72130,128,0,72230:0:0:0:0:
320,192,72230,128,0,72330:0:0:0:0:
192,192,72330,128,0,72430:0:0:0:0:
320,192,72430,128,0,72730:0:0:0:0:
64,192,72430,128,0,72530:0:0:0:0:
448,192,72630,128,0,72730:0:0:0:0:
192,192,72630,128,0,72830:0:0:0:0:
64,192,72730,128,0,72830:0:0:0:0:
320,192,72830,128,0,72930:0:0:0:0:
448,192,72830,128,0,73230:0:0:0:0:
320,192,73030,128,0,73130:0:0:0:0:
64,192,73230,128,0,73530:0:0:0:0:
192,192,73230,128,0,73430:0:0:0:0:
320,192,73330,128,0,73430:0:0:0:0:
448,192,73430,128,0,73830:0:0:0:0:
192,192,73630,128,0,73730:0:0:0:0:
64,192,73630,128,0,73830:0:0:0:0:
192,192,73830,128,0,74030:0:0:0:0:
320,192,73830,1,0,0:0:0:0:
64,192,73930,128,0,74030:0:0:0:0:
448,192,74030,128,0,74330:0:0:0:0:
320,192,74030,128,0,74130:0:0:0:0:
64,192,74130,128,0,74230:0:0:0:0:
320,192,74230,128,0,74330:0:0:0:0:
192,192,74230,1,0,0:0:0:0:
320,192,74430,128,0,74730:0:0:0:0:
448,192,74430,128,0,74630:0:0:0:0:
192,192,74530,128,0,74630:0:0:0:0:
64,192,74630,128,0,74830:0:0:0:0:
320,192,74830,128,0,75130:0:0:0:0:
192,192,74830,128,0,74930:0:0:0:0:
448,192,74930,128,0,75030:0:0:0:0:
192,192,75030,128,0,75130:0:0:0:0:
64,192,75030,1,0,0:0:0:0:
320,192,75230,128,0,75530:0:0:0:0:
64,192,75230,128,0,75430:0:0:0:0:
448,192,75330,128,0,75530:0:0:0:0:
192,192,75430,128,0,75530:0:0:0:0:
448,192,75630,128,0,75930:0:0:0:0:
64,192,75630,128,0,75830:0:0:0:0:
192,192,75630,128,0,75730:0:0:0:0:
192,192,75830,1,0,0:0:0:0:
64,192,76030,128,0,76330:0:0:0:0:
448,192,76030,128,0,76230:0:0:0:0:
192,192,76230,128,0,76530:0:0:0:0:
64,192,76430,128,0,76630:0:0:0:0:
448,192,76430,128,0,76530:0:0:0:0:
320,192,76630,128,0,76830:0:0:0:0:
192,192,76730,128,0,76830:0:0:0:0:
64,192,76830,1,0,0:0:0:0:
448,192,77030,128,0,77230:0:0:0:0:
192,192,77030,128,0,77130:0:0:0:0:
320,192,77230,1,0,0:0:0:0:
448,192,77430,128,0,77630:0:0:0:0:
192,192,77430,128,0,77530:0:0:0:0:
320,192,77530,128,0,77730:0:0:0:0:
64,192,77630,128,0,77930:0:0:0:0:
192,192,77630,128,0,77830:0:0:0:0:
448,192,77830,1,0,0:0:0:0:
64,192,78030,128,0,78230:0:0:0:0:
448,192,78030,128,0,78130:0:0:0:0:
320,192,78230,128,0,78430:0:0:0:0:
192,192,78230,128,0,78530:0:0:0:0:
64,192,78430,128,0,78830:0:0:0:0:
448,192,78430,128,0,78530:0:0:0:0:
320,192,78530,128,0,78630:0:0:0:0:
192,192,78630,128,0,78730:0:0:0:0:
320,192,78730,128,0,78830:0:0:0:0:
192,192,78830,128,0,79130:0:0:0:0:
448,192,78830,128,0,78930:0:0:0:0:
448,192,79030,128,0,79330:0:0:0:0:
64,192,79030,128,0,79130:0:0:0:0:
320,192,79230,128,0,79330:0:0:0:0:
64,192,79230,128,0,79530:0:0:0:0:
192,192,79330,128,0,79530:0:0:0:0:
448,192,79430,128,0,79730:0:0:0:0:
320,192,79630,128,0,79830:0:0:0:0:
64,192,79630,128,0,79930:0:0:0:0:
192,192,79730,128,0,79830:0:0:0:0:
448,192,79830,128,0,79930:0:0:0:0:
448,192,80030,128,0,80330:0:0:0:0:
64,192,80030,128,0,80130:0:0:0:0:
64,192,80230,128,0,80330:0:0:0:0:
192,192,80230,1,0,0:0:0:0:
448,192,80430,128,0,80730:0:0:0:0:
320,192,80430,128,0,80530:0:0:0:0:
192,192,80530,128,0,80630:0:0:0:0:
320,192,80630,128,0,80730:0:0:0:0:
64,192,80630,1,0,0:0:0:0:
192,192,80830,128,0,81130:0:0:0:0:
64,192,80830,128,0,81030:0:0:0:0:
320,192,80930,128,0,81030:0:0:0:0:
448,192,81030,128,0,81230:0:0:0:0:
64,192,81230,128,0,81530:0:0:0:0:
192,192,81230,128,0,81330:0:0:0:0:
448,192,81330,128,0,81430:0:0:0:0:
192,192,81430,128,0,81730:0:0:0:0:
320,192,81430,1,0,0:0:0:0:
64,192,81630,128,0,81830:0:0:0:0:
448,192,81630,128,0,81730:0:0:0:0:
320,192,82030,1,0,0:0:0:0:
448,192,82030,1,0,0:0:0:0:
320,192,82230,1,0,0:0:0:0:
192,192,82430,128,0,82830:0:0:0:0:
448,192,82430,128,0,82730:0:0:0:0:
64,192,82530,128,0,82630:0:0:0:0:
320,192,82630,128,0,82830:0:0:0:0:
64,192,82830,128,0,83130:0:0:0:0:
448,192,82830,128,0,83030:0:0:0:0:
320,192,82930,128,0,83130:0:0:0:0:
192,192,83030,128,0,83130:0:0:0:0:
192,192,83230,1,0,0:0:0:0:
448,192,83230,128,0,83430:0:0:0:0:
320,192,83430,128,0,83830:0:0:0:0:
64,192,83430,128,0,83730:0:0:0:0:
448,192,83530,128,0,83630:0:0:0:0:
192,192,83630,128,0,83730:0:0:0:0:
448,192,83830,128,0,84130:0:0:0:0:
64,192,83830,128,0,83930:0:0:0:0:
192,192,83930,128,0,84130:0:0:0:0:
320,192,84030,128,0,84130:0:0:0:0:
448,192,84230,128,0,84530:0:0:0:0:
64,192,84230,128,0,84330:0:0:0:0:
64,192,84430,128,0,84730:0:0:0:0:
320,192,84430,128,0,84530:0:0:0:0:
448,192,84630,128,0,84930:0:0:0:0:
320,192,84630,128,0,84730:0:0:0:0:
64,192,84830,128,0,85130:0:0:0:0:
192,192,84830,128,0,85030:0:0:0:0:
320,192,84930,128,0,85030:0:0:0:0:
448,192,85030,128,0,85230:0:0:0:0:
192,192,85130,128,0,85230:0:0:0:0:
64,192,85230,1,0,0:0:0:0:
320,192,85230,1,0,0:0:0:0:
64,192,85430,1,0,0:0:0:0:
192,192,85630,128,0,86030:0:0:0:0:
320,192,85630,128,0,85930:0:0:0:0:
448,192,85730,128,0,85830:0:0:0:0:
64,192,85830,128,0,85930:0:0:0:0:
448,192,86030,128,0,86330:0:0:0:0:
320,192,86030,128,0,86230:0:0:0:0:
64,192,86130,128,0,86330:0:0:0:0:
192,192,86230,128,0,86330:0:0:0:0:
64,192,86430,128,0,86530:0:0:0:0:
448,192,86430,1,0,0:0:0:0:
64,192,86630,128,0,86830:0:0:0:0:
320,192,86630,128,0,86930:0:0:0:0:
448,192,86730,128,0,86830:0:0:0:0:
192,192,86830,1,0,0:0:0:0:
192,192,87030,128,0,87330:0:0:0:0:
320,192,87030,128,0,87130:0:0:0:0:
64,192,87130,128,0,87230:0:0:0:0:
320,192,87230,128,0,87330:0:0:0:0:
448,192,87230,1,0,0:0:0:0:
448,192,87430,128,0,87530:0:0:0:0:
192,192,87430,128,0,87630:0:0:0:0:
64,192,87530,128,0,87630:0:0:0:0:
448,192,87630,128,0,87930:0:0:0:0:
320,192,87630,128,0,87830:0:0:0:0:
192,192,87730,128,0,87830:0:0:0:0:
64,192,87830,128,0,88030:0:0:0:0:
192,192,88030,128,0,88130:0:0:0:0:
448,192,88030,128,0,88230:0:0:0:0:
64,192,88130,128,0,88430:0:0:0:0:
320,192,88230,128,0,88330:0:0:0:0:
192,192,88230,1,0,0:0:0:0:
320,192,88430,1,0,0:0:0:0:
192,192,88430,1,0,0:0:0:0:
320,192,88630,1,0,0:0:0:0:
64,192,88830,128,0,89130:0:0:0:0:
448,192,88830,128,0,88930:0:0:0:0:
192,192,88930,128,0,89030:0:0:0:0:
448,192,89030,128,0,89330:0:0:0:0:
64,192,89230,128,0,89330:0:0:0:0:
320,192,89230,128,0,89530:0:0:0:0:
64,192,89430,128,0,89730:0:0:0:0:
320,192,89630,1,0,0:0:0:0:
448,192,89630,128,0,89830:0:0:0:0:
192,192,89730,128,0,89930:0:0:0:0:
64,192,89830,128,0,89930:0:0:0:0:
320,192,89830,1,0,0:0:0:0:
448,192,89930,128,0,90030:0:0:0:0:
64,192,90030,128,0,90330:0:0:0:0:
192,192,90030,128,0,90130:0:0:0:0:
320,192,90230,128,0,90330:0:0:0:0:
192,192,90430,128,0,90530:0:0:0:0:
448,192,90430,128,0,90630:0:0:0:0:
64,192,90530,128,0,90730:0:0:0:0:
320,192,90630,128,0,90730:0:0:0:0:
192,192,90730,128,0,90930:0:0:0:0:
448,192,90830,128,0,90930:0:0:0:0:
64,192,90830,128,0,90930:0:0:0:0:
448,192,91030,1,0,0:0:0:0:
64,192,91030,1,0,0:0:0:0:
448,192,91230,128,0,91530:0:0:0:0:
192,192,91230,128,0,91330:0:0:0:0:
320,192,91330,128,0,91430:0:0:0:0:
64,192,91430,1,0,0:0:0:0:
192,192,91530,1,0,0:0:0:0:
320,192,91630,128,0,91830:0:0:0:0:
448,192,91630,128,0,91830:0:0:0:0:
64,192,91830,1,0,0:0:0:0:
192,192,91930,128,0,92330:0:0:0:0:
320,192,91930,128,0,92030:0:0:0:0:
448,192,92030,128,0,92230:0:0:0:0:
320,192,92230,128,0,92330:0:0:0:0:
64,192,92230,128,0,92630:0:0:0:0:
448,192,92430,128,0,92630:0:0:0:0:
192,192,92430,1,0,0:0:0:0:
320,192,92530,128,0,92630:0:0:0:0:
192,192,92630,128,0,92730:0:0:0:0:
448,192,92730,128,0,92930:0:0:0:0:
320,192,92830,128,0,92930:0:0:0:0:
64,192,92830,128,0,93130:0:0:0:0:
192,192,93030,128,0,93130:0:0:0:0:
192,192,93230,128,0,93530:0:0:0:0:
64,192,93230,128,0,93330:0:0:0:0:
64,192,93430,128,0,93630:0:0:0:0:
320,192,93430,128,0,93730:0:0:0:0:
192,192,93630,128,0,93730:0:0:0:0:
448,192,93630,128,0,93930:0:0:0:0:
320,192,93830,128,0,93930:0:0:0:0:
448,192,94030,128,0,94330:0:0:0:0:
320,192,94030,128,0,94230:0:0:0:0:
192,192,94130,128,0,94330:0:0:0:0:
64,192,94230,128,0,94430:0:0:0:0:
320,192,94330,128,0,94430:0:0:0:0:
192,192,94430,128,0,94530:0:0:0:0:
448,192,94530,128,0,94630:0:0:0:0:
64,192,94630,128,0,94930:0:0:0:0:
192,192,94730,128,0,94830:0:0:0:0:
448,192,94830,128,0,95130:0:0:0:0:
320,192,94830,128,0,94930:0:0:0:0:
64,192,95430,128,0,95630:0:0:0:0:
448,192,95530,128,0,95630:0:0:0:0:
320,192,95630,128,0,95730:0:0:0:0:
320,192,95830,128,0,96030:0:0:0:0:
64,192,95830,128,0,95930:0:0:0:0:
64,192,96030,128,0,96330:0:0:0:0:
192,192,96230,128,0,96330:0:0:0:0:
448,192,96330,128,0,96430:0:0:0:0:
192,192,96430,128,0,96630:0:0:0:0:
320,192,96430,128,0,96530:0:0:0:0:
64,192,96630,128,0,96730:0:0:0:0:
192,192,96830,128,0,97030:0:0:0:0:
320,192,96830,128,0,96930:0:0:0:0:
320,192,97030,128,0,97130:0:0:0:0:
192,192,97230,128,0,97330:0:0:0:0:
64,192,97230,128,0,97430:0:0:0:0:
192,192,97630,128,0,97830:0:0:0:0:
320,192,97730,128,0,97930:0:0:0:0:
64,192,98030,128,0,98330:0:0:0:0:
192,192,98030,128,0,98230:0:0:0:0:
448,192,98030,128,0,98130:0:0:0:0:
192,192,98430,128,0,98530:0:0:0:0:
448,192,98530,1,0,0:0:0:0:
64,192,98630,128,0,98730:0:0:0:0:
320,192,98730,128,0,98830:0:0:0:0:
448,192,98830,128,0,99030:0:0:0:0:
192,192,98830,128,0,98930:0:0:0:0:
192,192,99030,128,0,99230:0:0:0:0:
320,192,99030,128,0,99130:0:0:0:0:
320,192,99230,128,0,99530:0:0:0:0:
192,192,99430,128,0,99530:0:0:0:0:
64,192,99530,128,0,99630:0:0:0:0:
448,192,99630,128,0,99830:0:0:0:0:
320,192,99630,128,0,100430:0:0:0:0:
64,192,99830,128,0,99930:0:0:0:0:
192,192,100030,128,0,100130:0:0:0:0:
64,192,100030,1,0,0:0:0:0:
192,192,100230,128,0,100430:0:0:0:0:
64,192,100430,128,0,100630:0:0:0:0:
448,192,100430,128,0,100530:0:0:0:0:
192,192,100630,128,0,100730:0:0:0:0:
320,192,100630,1,0,0:0:0:0:
448,192,100730,1,0,0:0:0:0:
320,192,100830,128,0,101030:0:0:0:0:
64,192,100930,128,0,101030:0:0:0:0:
192,192,101030,128,0,101130:0:0:0:0:
448,192,101030,1,0,0:0:0:0:
448,192,101230,128,0,101530:0:0:0:0:
320,192,101230,128,0,101430:0:0:0:0:
64,192,101330,128,0,101530:0:0:0:0:
192,192,101430,128,0,101530:0:0:0:0:
64,192,101630,128,0,101730:0:0:0:0:
64,192,101830,128,0,101930:0:0:0:0:
448,192,101930,128,0,102030:0:0:0:0:
192,192,102030,128,0,102130:0:0:0:0:
320,192,102030,1,0,0:0:0:0:
192,192,102230,128,0,102430:0:0:0:0:
448,192,102230,128,0,102330:0:0:0:0:
64,192,102430,128,0,102630:0:0:0:0:
448,192,102430,128,0,102730:0:0:0:0:
192,192,102530,1,0,0:0:0:0:
320,192,102630,128,0,102830:0:0:0:0:
448,192,102830,128,0,103230:0:0:0:0:
64,192,102830,128,0,102930:0:0:0:0:
64,192,103030,128,0,103330:0:0:0:0:
192,192,103030,1,0,0:0:0:0:
192,192,103230,128,0,103630:0:0:0:0:
320,192,103230,128,0,103530:0:0:0:0:
448,192,103430,128,0,103530:0:0:0:0:
320,192,103630,128,0,103930:0:0:0:0:
64,192,103630,128,0,103730:0:0:0:0:
192,192,103730,128,0,103830:0:0:0:0:
448,192,103830,128,0,104030:0:0:0:0:
192,192,103930,128,0,104130:0:0:0:0:
64,192,104030,128,0,104430:0:0:0:0:
320,192,104030,128,0,104230:0:0:0:0:
448,192,104130,128,0,104330:0:0:0:0:
192,192,104230,1,0,0:0:0:0:
320,192,104430,1,0,0:0:0:0:
448,192,104430,128,0,104730:0:0:0:0:
64,192,104630,1,0,0:0:0:0:
320,192,104730,128,0,104930:0:0:0:0:
192,192,104830,128,0,104930:0:0:0:0:
448,192,104930,1,0,0:0:0:0:
320,192,105030,1,0,0:0:0:0:
192,192,105130,128,0,105330:0:0:0:0:
64,192,105230,1,0,0:0:0:0:
448,192,105230,128,0,105330:0:0:0:0:
320,192,105430,128,0,105530:0:0:0:0:
64,192,105530,128,0,105730:0:0:0:0:
448,192,105630,128,0,105930:0:0:0:0:
192,192,105830,128,0,105930:0:0:0:0:
320,192,105930,128,0,106130:0:0:0:0:
64,192,106030,128,0,106130:0:0:0:0:
64,192,106230,128,0,106330:0:0:0:0:
192,192,106230,128,0,106530:0:0:0:0:
320,192,106430,128,0,106530:0:0:0:0:
448,192,106530,128,0,106730:0:0:0:0:
320,192,106630,128,0,106730:0:0:0:0:
192,192,106830,128,0,107030:0:0:0:0:
448,192,106830,128,0,107130:0:0:0:0:
320,192,107030,128,0,107130:0:0:0:0:
192,192,107130,1,0,0:0:0:0:
320,192,107230,128,0,107330:0:0:0:0:
64,192,107330,128,0,107530:0:0:0:0:
320,192,107430,128,0,107530:0:0:0:0:
192,192,107430,1,0,0:0:0:0:
448,192,107530,1,0,0:0:0:0:
320,192,107630,128,0,107830:0:0:0:0:
192,192,107630,128,0,107930:0:0:0:0:
448,192,107830,1,0,0:0:0:0:
64,192,107930,128,0,108030:0:0:0:0:
320,192,108030,128,0,108230:0:0:0:0:
448,192,108230,128,0,108430:0:0:0:0:
320,192,108330,128,0,108430:0:0:0:0:
64,192,108430,128,0,108530:0:0:0:0:
192,192,108430,1,0,0:0:0:0:
192,192,108630,128,0,108730:0:0:0:0:
448,192,108630,128,0,108830:0:0:0:0:
64,192,108830,128,0,109130:0:0:0:0:
320,192,108830,128,0,108930:0:0:0:0:
192,192,108930,1,0,0:0:0:0:
320,192,109030,128,0,109130:0:0:0:0:
448,192,109230,128,0,110230:0:0:0:0:
192,192,109230,128,0,109330:0:0:0:0:
192,192,109430,128,0,109630:0:0:0:0:
320,192,109430,1,0,0:0:0:0:
320,192,109630,128,0,109830:0:0:0:0:
64,192,109630,128,0,109730:0:0:0:0:
64,192,109830,128,0,109930:0:0:0:0:
192,192,110030,128,0,110230:0:0:0:0:
320,192,110030,1,0,0:0:0:0:
64,192,110230,1,0,0:0:0:0:
320,192,110230,128,0,110330:0:0:0:0:
448,192,110430,128,0,110630:0:0:0:0:
320,192,110430,128,0,110730:0:0:0:0:
64,192,110630,128,0,110730:0:0:0:0:
192,192,110630,1,0,0:0:0:0:
448,192,110830,1,0,0:0:0:0:
192,192,110830,128,0,111130:0:0:0:0:
320,192,111030,128,0,111130:0:0:0:0:
320,192,111230,128,0,111330:0:0:0:0:
64,192,111230,1,0,0:0:0:0:
192,192,111330,1,0,0:0:0:0:
448,192,111430,128,0,111630:0:0:0:0:
192,192,111630,128,0,111730:0:0:0:0:
64,192,111630,1,0,0:0:0:0:
320,192,111830,128,0,111930:0:0:0:0:
448,192,111830,128,0,112030:0:0:0:0:
64,192,112030,128,0,112330:0:0:0:0:
192,192,112030,128,0,112130:0:0:0:0:
448,192,112230,128,0,112430:0:0:0:0:
320,192,112330,1,0,0:0:0:0:
192,192,112430,128,0,113230:0:0:0:0:
448,192,112530,128,0,112630:0:0:0:0:
64,192,112630,128,0,113030:0:0:0:0:
320,192,112630,128,0,112730:0:0:0:0:
320,192,112830,128,0,113030:0:0:0:0:
448,192,113030,128,0,113130:0:0:0:0:
64,192,113230,128,0,113530:0:0:0:0:
320,192,113230,128,0,113330:0:0:0:0:
448,192,113330,128,0,113530:0:0:0:0:
320,192,113430,128,0,113530:0:0:0:0:
192,192,113630,128,0,113830:0:0:0:0:
448,192,113630,128,0,114030:0:0:0:0:
64,192,113830,128,0,113930:0:0:0:0:
192,192,114030,128,0,114330:0:0:0:0:
320,192,114030,128,0,114230:0:0:0:0:
448,192,114230,128,0,114330:0:0:0:0:
192,192,114430,128,0,114530:0:0:0:0:
320,192,114430,1,0,0:0:0:0:
64,192,114630,128,0,114730:0:0:0:0:
320,192,114830,128,0,114930:0:0:0:0:
448,192,114830,128,0,115130:0:0:0:0:
64,192,114930,128,0,115030:0:0:0:0:
192,192,115030,128,0,115130:0:0:0:0:
448,192,115230,128,0,115430:0:0:0:0:
64,192,115230,128,0,115530:0:0:0:0:
320,192,115330,128,0,115430:0:0:0:0:
192,192,115430,128,0,115530:0:0:0:0:
320,192,115630,128,0,115730:0:0:0:0:
448,192,115630,128,0,115830:0:0:0:0:
320,192,115830,128,0,115930:0:0:0:0:
64,192,115830,128,0,116030:0:0:0:0:
192,192,116030,128,0,116130:0:0:0:0:
192,192,116230,128,0,116330:0:0:0:0:
320,192,116230,128,0,116430:0:0:0:0:
448,192,116430,128,0,116630:0:0:0:0:
64,192,116430,128,0,116730:0:0:0:0:
320,192,116630,128,0,116730:0:0:0:0:
192,192,116630,1,0,0:0:0:0:
192,192,116830,128,0,116930:0:0:0:0:
448,192,116830,128,0,117030:0:0:0:0:
64,192,116930,128,0,117030:0:0:0:0:
192,192,117030,128,0,117130:0:0:0:0:
320,192,117030,1,0,0:0:0:0:
64,192,117130,128,0,117230:0:0:0:0:
192,192,117230,128,0,117530:0:0:0:0:
320,192,117230,128,0,117430:0:0:0:0:
64,192,117430,128,0,117530:0:0:0:0:
320,192,117630,128,0,117730:0:0:0:0:
192,192,117730,1,0,0:0:0:0:
448,192,117830,128,0,118030:0:0:0:0:
64,192,118030,128,0,118330:0:0:0:0:
192,192,118030,128,0,118130:0:0:0:0:
448,192,118230,128,0,118330:0:0:0:0:
64,192,118430,128,0,118630:0:0:0:0:
192,192,118430,128,0,118730:0:0:0:0:
320,192,118630,128,0,118730:0:0:0:0:
320,192,118830,128,0,119030:0:0:0:0:
192,192,118830,128,0,118930:0:0:0:0:
64,192,119030,1,0,0:0:0:0:
192,192,119030,1,0,0:0:0:0:
448,192,119130,1,0,0:0:0:0:
320,192,119230,128,0,119430:0:0:0:0:
64,192,119330,1,0,0:0:0:0:
448,192,119330,1,0,0:0:0:0:
192,192,119430,1,0,0:0:0:0:
192,192,119630,128,0,119830:0:0:0:0:
320,192,119630,128,0,119730:0:0:0:0:
448,192,119830,1,0,0:0:0:0:
64,192,119830,1,0,0:0:0:0:
320,192,119930,1,0,0:0:0:0:
192,192,120030,128,0,120230:0:0:0:0:
64,192,120030,128,0,120130:0:0:0:0:
320,192,120130,1,0,0:0:0:0:
448,192,120230,1,0,0:0:0:0:
64,192,120230,128,0,120330:0:0:0:0:
192,192,120330,1,0,0:0:0:0:
448,192,120430,128,0,121830:0:0:0:0:
320,192,120430,128,0,121630:0:0:0:0:
64,192,121430,128,0,121630:0:0:0:0:
192,192,121630,128,0,121830:0:0:0:0:
64,192,121830,128,0,123430:0:0:0:0:
320,192,121830,128,0,122030:0:0:0:0:
448,192,122030,128,0,123230:0:0:0:0:
320,192,122430,128,0,122630:0:0:0:0:
320,192,122830,128,0,123030:0:0:0:0:
192,192,123230,128,0,123430:0:0:0:0:
320,192,123430,128,0,123830:0:0:0:0:
192,192,123630,128,0,125030:0:0:0:0:
64,192,123630,128,0,123830:0:0:0:0:
448,192,123830,128,0,124030:0:0:0:0:
64,192,123930,128,0,124030:0:0:0:0:
320,192,124030,128,0,124130:0:0:0:0:
64,192,124230,128,0,124430:0:0:0:0:
448,192,124430,128,0,124630:0:0:0:0:
448,192,124830,128,0,124930:0:0:0:0:
320,192,125030,128,0,126630:0:0:0:0:
448,192,125030,128,0,125130:0:0:0:0:
192,192,125230,128,0,125430:0:0:0:0:
64,192,125430,128,0,125530:0:0:0:0:
448,192,125630,128,0,125730:0:0:0:0:
192,192,125830,128,0,126030:0:0:0:0:
64,192,126030,128,0,126130:0:0:0:0:
64,192,126230,128,0,126330:0:0:0:0:
64,192,126430,128,0,126830:0:0:0:0:
448,192,126430,128,0,126630:0:0:0:0:
192,192,126630,128,0,126830:0:0:0:0:
448,192,126830,128,0,128230:0:0:0:0:
320,192,126830,128,0,128030:0:0:0:0:
64,192,127830,128,0,128030:0:0:0:0:
192,192,128030,128,0,128230:0:0:0:0:
64,192,128230,128,0,129830:0:0:0:0:
320,192,128230,128,0,128430:0:0:0:0:
448,192,128430,128,0,129030:0:0:0:0:
320,192,128830,128,0,129430:0:0:0:0:
192,192,129030,128,0,129230:0:0:0:0:
448,192,129230,128,0,129630:0:0:0:0:
192,192,129630,128,0,129830:0:0:0:0:
320,192,129830,128,0,130230:0:0:0:0:
192,192,130030,128,0,131430:0:0:0:0:
64,192,130030,128,0,130230:0:0:0:0:
448,192,130230,128,0,130430:0:0:0:0:
64,192,130330,128,0,130430:0:0:0:0:
320,192,130430,128,0,130530:0:0:0:0:
320,192,130630,128,0,130830:0:0:0:0:
64,192,130830,128,0,130930:0:0:0:0:
64,192,131030,128,0,131230:0:0:0:0:
448,192,131230,128,0,131330:0:0:0:0:
320,192,131430,128,0,133030:0:0:0:0:
448,192,131430,128,0,131630:0:0:0:0:
192,192,131630,128,0,131830:0:0:0:0:
64,192,131830,128,0,131930:0:0:0:0:
448,192,132030,128,0,132230:0:0:0:0:
192,192,132230,128,0,132330:0:0:0:0:
64,192,132430,128,0,132630:0:0:0:0:
448,192,132630,128,0,132730:0:0:0:0:
64,192,132730,128,0,132930:0:0:0:0:
448,192,132830,128,0,133030:0:0:0:0:
192,192,133030,128,0,133230:0:0:0:0:
64,192,133230,128,0,133430:0:0:0:0:
448,192,133230,1,0,0:0:0:0:
64,192,133630,128,0,133830:0:0:0:0:
320,192,133630,128,0,133730:0:0:0:0:
320,192,133830,128,0,134130:0:0:0:0:
192,192,133830,1,0,0:0:0:0:
64,192,133930,1,0,0:0:0:0:
192,192,134030,128,0,134230:0:0:0:0:
448,192,134030,128,0,134230:0:0:0:0:
192,192,134430,128,0,134530:0:0:0:0:
320,192,134430,1,0,0:0:0:0:
192,192,134630,128,0,134930:0:0:0:0:
320,192,134830,128,0,135030:0:0:0:0:
64,192,134830,128,0,135030:0:0:0:0:
448,192,135030,1,0,0:0:0:0:
192,192,135030,1,0,0:0:0:0:
320,192,135230,128,0,135430:0:0:0:0:
64,192,135430,128,0,135530:0:0:0:0:
320,192,135630,128,0,135930:0:0:0:0:
448,192,135630,128,0,135730:0:0:0:0:
448,192,135830,128,0,135930:0:0:0:0:
192,192,136030,128,0,136330:0:0:0:0:
64,192,136030,128,0,136130:0:0:0:0:
320,192,136130,1,0,0:0:0:0:
64,192,136230,128,0,136430:0:0:0:0:
448,192,136230,128,0,136330:0:0:0:0:
320,192,136330,128,0,136430:0:0:0:0:
448,192,136430,1,0,0:0:0:0:
192,192,136430,1,0,0:0:0:0:
448,192,136830,128,0,136930:0:0:0:0:
448,192,137030,128,0,137330:0:0:0:0:
64,192,137030,1,0,0:0:0:0:
192,192,137230,128,0,137430:0:0:0:0:
64,192,137230,128,0,137430:0:0:0:0:
64,192,137630,128,0,137730:0:0:0:0:
448,192,137630,1,0,0:0:0:0:
64,192,137830,128,0,138130:0:0:0:0:
192,192,137930,128,0,138030:0:0:0:0:
320,192,138030,128,0,138230:0:0:0:0:
448,192,138030,128,0,138230:0:0:0:0:
192,192,138230,1,0,0:0:0:0:
64,192,138230,1,0,0:0:0:0:
448,192,138330,1,0,0:0:0:0:
192,192,138430,128,0,138730:0:0:0:0:
320,192,138430,128,0,138530:0:0:0:0:
64,192,138530,128,0,138630:0:0:0:0:
320,192,138630,128,0,138830:0:0:0:0:
448,192,138630,1,0,0:0:0:0:
64,192,138830,128,0,139130:0:0:0:0:
192,192,138830,128,0,138930:0:0:0:0:
320,192,139030,128,0,139130:0:0:0:0:
192,192,139130,1,0,0:0:0:0:
448,192,139230,128,0,139530:0:0:0:0:
64,192,139230,128,0,139330:0:0:0:0:
320,192,139330,1,0,0:0:0:0:
64,192,139430,128,0,139530:0:0:0:0:
192,192,139430,128,0,139630:0:0:0:0:
320,192,139530,128,0,139630:0:0:0:0:
448,192,139630,1,0,0:0:0:0:
64,192,139630,128,0,140030:0:0:0:0:
320,192,139830,128,0,139930:0:0:0:0:
192,192,139930,128,0,140030:0:0:0:0:
448,192,140030,1,0,0:0:0:0:
320,192,140030,1,0,0:0:0:0:
320,192,140230,128,0,140630:0:0:0:0:
64,192,140230,1,0,0:0:0:0:
192,192,140430,1,0,0:0:0:0:
448,192,140430,128,0,140830:0:0:0:0:
64,192,140630,1,0,0:0:0:0:
192,192,140830,128,0,141230:0:0:0:0:
320,192,140830,1,0,0:0:0:0:
64,192,141030,1,0,0:0:0:0:
320,192,141130,1,0,0:0:0:0:
448,192,141230,128,0,141630:0:0:0:0:
64,192,141230,128,0,141430:0:0:0:0:
320,192,141430,128,0,141830:0:0:0:0:
192,192,141630,128,0,141730:0:0:0:0:
64,192,141630,1,0,0:0:0:0:
192,192,141830,128,0,142230:0:0:0:0:
448,192,141830,128,0,142030:0:0:0:0:
64,192,142030,128,0,142430:0:0:0:0:
320,192,142030,1,0,0:0:0:0:
448,192,142230,128,0,142430:0:0:0:0:
320,192,142430,128,0,142830:0:0:0:0:
192,192,142430,1,0,0:0:0:0:
448,192,142630,1,0,0:0:0:0:
192,192,142730,1,0,0:0:0:0:
64,192,142830,128,0,144230:0:0:0:0:
448,192,142830,128,0,143230:0:0:0:0:
320,192,143030,1,0,0:0:0:0:
192,192,143230,1,0,0:0:0:0:
320,192,143230,1,0,0:0:0:0:
192,192,143430,1,0,0:0:0:0:
448,192,143430,1,0,0:0:0:0:
320,192,143630,128,0,144030:0:0:0:0:
448,192,143830,128,0,144430:0:0:0:0:
192,192,144030,1,0,0:0:0:0:
192,192,144230,128,0,144430:0:0:0:0:
64,192,144430,128,0,145230:0:0:0:0:
320,192,144430,128,0,144530:0:0:0:0:
448,192,144630,128,0,144830:0:0:0:0:
192,192,144830,128,0,144930:0:0:0:0:
448,192,145030,128,0,145130:0:0:0:0:
320,192,145230,128,0,145430:0:0:0:0:
192,192,145330,128,0,145430:0:0:0:0:
320,192,145630,128,0,145930:0:0:0:0:
192,192,145830,128,0,146030:0:0:0:0:
320,192,146030,128,0,146130:0:0:0:0:
64,192,146030,128,0,146330:0:0:0:0:
448,192,146030,128,0,146230:0:0:0:0:
320,192,146230,1,0,0:0:0:0:
448,192,146430,128,0,146730:0:0:0:0:
64,192,146430,128,0,146630:0:0:0:0:
192,192,146430,128,0,146530:0:0:0:0:
320,192,146630,128,0,146930:0:0:0:0:
448,192,146830,128,0,147030:0:0:0:0:
64,192,146830,128,0,146930:0:0:0:0:
192,192,147030,128,0,147230:0:0:0:0:
320,192,147130,128,0,147330:0:0:0:0:
448,192,147230,128,0,147430:0:0:0:0:
192,192,147330,128,0,147430:0:0:0:0:
320,192,147430,128,0,147530:0:0:0:0:
64,192,147430,128,0,147630:0:0:0:0:
448,192,147530,128,0,147630:0:0:0:0:
192,192,147630,1,0,0:0:0:0:
64,192,147830,128,0,148030:0:0:0:0:
320,192,147830,128,0,147930:0:0:0:0:
192,192,147930,128,0,148130:0:0:0:0:
448,192,148030,128,0,148330:0:0:0:0:
320,192,148030,128,0,148330:0:0:0:0:
64,192,148230,128,0,148330:0:0:0:0:
448,192,148430,128,0,148630:0:0:0:0:
64,192,148430,128,0,148730:0:0:0:0:
192,192,148630,128,0,148830:0:0:0:0:
320,192,148630,128,0,148930:0:0:0:0:
448,192,148830,128,0,149230:0:0:0:0:
64,192,148830,128,0,149030:0:0:0:0:
192,192,148930,128,0,149030:0:0:0:0:
320,192,149030,128,0,149130:0:0:0:0:
192,192,149130,128,0,149230:0:0:0:0:
320,192,149230,128,0,149530:0:0:0:0:
64,192,149230,128,0,149330:0:0:0:0:
448,192,149430,128,0,149530:0:0:0:0:
192,192,149430,128,0,149630:0:0:0:0:
64,192,149530,128,0,149630:0:0:0:0:
320,192,149630,128,0,149730:0:0:0:0:
448,192,149630,128,0,150030:0:0:0:0:
320,192,149830,128,0,149930:0:0:0:0:
64,192,150030,128,0,150330:0:0:0:0:
192,192,150030,128,0,150230:0:0:0:0:
320,192,150130,128,0,150230:0:0:0:0:
448,192,150230,128,0,150630:0:0:0:0:
192,192,150430,128,0,150530:0:0:0:0:
64,192,150430,128,0,150630:0:0:0:0:
320,192,150430,128,0,150630:0:0:0:0:
192,192,150630,128,0,150830:0:0:0:0:
64,192,150730,128,0,150830:0:0:0:0:
448,192,150830,128,0,151130:0:0:0:0:
320,192,150830,128,0,150930:0:0:0:0:
64,192,150930,128,0,151030:0:0:0:0:
320,192,151030,128,0,151130:0:0:0:0:
192,192,151030,1,0,0:0:0:0:
320,192,151230,128,0,151530:0:0:0:0:
448,192,151230,128,0,151430:0:0:0:0:
192,192,151330,128,0,151430:0:0:0:0:
64,192,151430,128,0,151630:0:0:0:0:
320,192,151630,128,0,151930:0:0:0:0:
192,192,151630,128,0,151730:0:0:0:0:
448,192,151730,128,0,151830:0:0:0:0:
192,192,151830,128,0,151930:0:0:0:0:
64,192,151830,1,0,0:0:0:0:
320,192,152030,128,0,152130:0:0:0:0:
64,192,152030,128,0,152230:0:0:0:0:
448,192,152130,128,0,152330:0:0:0:0:
192,192,152230,128,0,152330:0:0:0:0:
320,192,152230,1,0,0:0:0:0:
448,192,152430,128,0,152730:0:0:0:0:
64,192,152430,128,0,152630:0:0:0:0:
192,192,152430,128,0,152530:0:0:0:0:
192,192,152630,128,0,152830:0:0:0:0:
64,192,152830,128,0,153130:0:0:0:0:
448,192,152830,128,0,153030:0:0:0:0:
192,192,153030,128,0,153330:0:0:0:0:
64,192,153230,128,0,153430:0:0:0:0:
448,192,153230,128,0,153330:0:0:0:0:
320,192,153430,128,0,153630:0:0:0:0:
192,192,153530,128,0,153630:0:0:0:0:
64,192,153630,1,0,0:0:0:0:
448,192,153830,128,0,154030:0:0:0:0:
192,192,153830,128,0,153930:0:0:0:0:
320,192,154030,1,0,0:0:0:0:
448,192,154230,128,0,154430:0:0:0:0:
192,192,154230,128,0,154330:0:0:0:0:
320,192,154330,128,0,154530:0:0:0:0:
64,192,154430,128,0,154730:0:0:0:0:
192,192,154430,128,0,154630:0:0:0:0:
448,192,154630,1,0,0:0:0:0:
64,192,154830,128,0,155030:0:0:0:0:
448,192,154830,128,0,154930:0:0:0:0:
320,192,155030,128,0,155230:0:0:0:0:
192,192,155030,128,0,155330:0:0:0:0:
64,192,155230,128,0,155630:0:0:0:0:
448,192,155230,128,0,155330:0:0:0:0:
320,192,155330,128,0,155430:0:0:0:0:
192,192,155430,128,0,155530:0:0:0:0:
320,192,155530,128,0,155630:0:0:0:0:
192,192,155630,128,0,155930:0:0:0:0:
448,192,155630,128,0,155730:0:0:0:0:
448,192,155830,128,0,156130:0:0:0:0:
64,192,155830,128,0,155930:0:0:0:0:
320,192,156030,128,0,156130:0:0:0:0:
64,192,156030,128,0,156330:0:0:0:0:
192,192,156130,128,0,156330:0:0:0:0:
448,192,156230,128,0,156530:0:0:0:0:
320,192,156430,128,0,156630:0:0:0:0:
64,192,156430,128,0,156730:0:0:0:0:
192,192,156530,128,0,156630:0:0:0:0:
448,192,156630,128,0,156730:0:0:0:0:
448,192,156830,128,0,157130:0:0:0:0:
64,192,156830,128,0,156930:0:0:0:0:
64,192,157030,128,0,157130:0:0:0:0:
192,192,157030,1,0,0:0:0:0:
448,192,157230,128,0,157530:0:0:0:0:
320,192,157230,128,0,157330:0:0:0:0:
192,192,157330,128,0,157430:0:0:0:0:
320,192,157430,128,0,157530:0:0:0:0:
64,192,157430,1,0,0:0:0:0:
192,192,157630,128,0,157930:0:0:0:0:
64,192,157630,128,0,157830:0:0:0:0:
320,192,157730,128,0,157830:0:0:0:0:
448,192,157830,128,0,158030:0:0:0:0:
64,192,158030,128,0,158330:0:0:0:0:
192,192,158030,128,0,158130:0:0:0:0:
448,192,158130,128,0,158230:0:0:0:0:
192,192,158230,128,0,158430:0:0:0:0:
320,192,158230,128,0,158530:0:0:0:0:
64,192,158430,128,0,158630:0:0:0:0:
320,192,158830,1,0,0:0:0:0:
448,192,158830,1,0,0:0:0:0:
320,192,159030,1,0,0:0:0:0:
192,192,159230,128,0,159630:0:0:0:0:
448,192,159230,128,0,159530:0:0:0:0:
64,192,159330,128,0,159430:0:0:0:0:
320,192,159430,128,0,159630:0:0:0:0:
64,192,159630,128,0,159930:0:0:0:0:
448,192,159630,128,0,159830:0:0:0:0:
320,192,159730,128,0,159930:0:0:0:0:
192,192,159830,128,0,159930:0:0:0:0:
192,192,160030,1,0,0:0:0:0:
448,192,160030,128,0,160230:0:0:0:0:
320,192,160230,128,0,160630:0:0:0:0:
64,192,160230,128,0,160530:0:0:0:0:
448,192,160330,128,0,160430:0:0:0:0:
192,192,160430,128,0,160530:0:0:0:0:
448,192,160630,128,0,160930:0:0:0:0:
64,192,160630,128,0,160730:0:0:0:0:
192,192,160730,128,0,160930:0:0:0:0:
320,192,160830,128,0,160930:0:0:0:0:
448,192,161030,128,0,161330:0:0:0:0:
64,192,161030,128,0,161130:0:0:0:0:
64,192,161230,128,0,161530:0:0:0:0:
320,192,161230,128,0,161330:0:0:0:0:
448,192,161430,128,0,161730:0:0:0:0:
320,192,161430,128,0,161530:0:0:0:0:
64,192,161630,128,0,161930:0:0:0:0:
192,192,161630,128,0,161830:0:0:0:0:
320,192,161730,128,0,161830:0:0:0:0:
448,192,161830,128,0,162030:0:0:0:0:
192,192,161930,128,0,162030:0:0:0:0:
64,192,162030,1,0,0:0:0:0:
320,192,162030,1,0,0:0:0:0:
64,192,162230,1,0,0:0:0:0:
192,192,162430,128,0,162830:0:0:0:0:
320,192,162430,128,0,162730:0:0:0:0:
448,192,162530,128,0,162630:0:0:0:0:
64,192,162630,128,0,162730:0:0:0:0:
448,192,162830,128,0,163130:0:0:0:0:
320,192,162830,128,0,163030:0:0:0:0:
64,192,162930,128,0,163130:0:0:0:0:
192,192,163030,128,0,163130:0:0:0:0:
64,192,163230,128,0,163330:0:0:0:0:
448,192,163230,1,0,0:0:0:0:
64,192,163430,128,0,163630:0:0:0:0:
320,192,163430,128,0,163730:0:0:0:0:
448,192,163530,128,0,163630:0:0:0:0:
192,192,163630,1,0,0:0:0:0:
192,192,163830,128,0,164130:0:0:0:0:
320,192,163830,128,0,163930:0:0:0:0:
64,192,163930,128,0,164030:0:0:0:0:
320,192,164030,128,0,164130:0:0:0:0:
448,192,164030,1,0,0:0:0:0:
448,192,164230,128,0,164330:0:0:0:0:
192,192,164230,128,0,164430:0:0:0:0:
64,192,164330,128,0,164430:0:0:0:0:
448,192,164430,128,0,164730:0:0:0:0:
320,192,164430,128,0,164630:0:0:0:0:
192,192,164530,128,0,164630:0:0:0:0:
64,192,164630,128,0,164830:0:0:0:0:
192,192,164830,128,0,164930:0:0:0:0:
448,192,164830,128,0,165030:0:0:0:0:
64,192,164930,128,0,165230:0:0:0:0:
320,192,165030,128,0,165130:0:0:0:0:
192,192,165030,1,0,0:0:0:0:
448,192,165130,128,0,165230:0:0:0:0:
320,192,165230,1,0,0:0:0:0:
192,192,165230,1,0,0:0:0:0:
320,192,165430,1,0,0:0:0:0:
64,192,165630,128,0,165930:0:0:0:0:
448,192,165630,128,0,165730:0:0:0:0:
192,192,165730,128,0,165830:0:0:0:0:
448,192,165830,128,0,166130:0:0:0:0:
64,192,166030,128,0,166130:0:0:0:0:
320,192,166030,128,0,166330:0:0:0:0:
64,192,166230,128,0,166530:0:0:0:0:
320,192,166430,1,0,0:0:0:0:
448,192,166430,128,0,166630:0:0:0:0:
192,192,166530,128,0,166730:0:0:0:0:
64,192,166630,128,0,166730:0:0:0:0:
320,192,166630,1,0,0:0:0:0:
448,192,166730,128,0,166830:0:0:0:0:
64,192,166830,128,0,167130:0:0:0:0:
192,192,166830,128,0,166930:0:0:0:0:
320,192,167030,128,0,167130:0:0:0:0:
192,192,167230,128,0,167330:0:0:0:0:
448,192,167230,128,0,167430:0:0:0:0:
64,192,167330,128,0,167530:0:0:0:0:
320,192,167430,128,0,167530:0:0:0:0:
192,192,167530,128,0,167730:0:0:0:0:
448,192,167630,128,0,167730:0:0:0:0:
64,192,167630,128,0,167730:0:0:0:0:
448,192,167830,1,0,0:0:0:0:
64,192,167830,1,0,0:0:0:0:
448,192,168030,128,0,168330:0:0:0:0:
192,192,168030,128,0,168130:0:0:0:0:
320,192,168130,128,0,168230:0:0:0:0:
64,192,168230,1,0,0:0:0:0:
192,192,168330,1,0,0:0:0:0:
320,192,168430,128,0,168630:0:0:0:0:
448,192,168430,128,0,168630:0:0:0:0:
64,192,168630,1,0,0:0:0:0:
192,192,168730,128,0,169130:0:0:0:0:
320,192,168730,128,0,168830:0:0:0:0:
448,192,168830,128,0,169030:0:0:0:0:
320,192,169030,128,0,169130:0:0:0:0:
64,192,169030,128,0,169430:0:0:0:0:
448,192,169230,128,0,169430:0:0:0:0:
192,192,169230,1,0,0:0:0:0:
320,192,169330,128,0,169430:0:0:0:0:
192,192,169430,128,0,169530:0:0:0:0:
448,192,169530,128,0,169730:0:0:0:0:
320,192,169630,128,0,169730:0:0:0:0:
64,192,169630,128,0,169930:0:0:0:0:
192,192,169830,128,0,169930:0:0:0:0:
448,192,170030,128,0,170430:0:0:0:0:
320,192,170030,128,0,170330:0:0:0:0:
64,192,170230,128,0,170530:0:0:0:0:
320,192,170430,128,0,170730:0:0:0:0:
192,192,170430,128,0,170630:0:0:0:0:
448,192,170630,1,0,0:0:0:0:
192,192,170730,1,0,0:0:0:0:
320,192,170830,128,0,171130:0:0:0:0:
64,192,170830,128,0,171030:0:0:0:0:
448,192,171030,128,0,171430:0:0:0:0:
192,192,171130,128,0,171230:0:0:0:0:
64,192,171230,128,0,171430:0:0:0:0:
320,192,171330,128,0,171530:0:0:0:0:
192,192,171430,128,0,171530:0:0:0:0:
64,192,171630,128,0,171830:0:0:0:0:
448,192,171630,1,0,0:0:0:0:
192,192,171730,128,0,171930:0:0:0:0:
320,192,171830,128,0,172030:0:0:0:0:
448,192,171930,128,0,173630:0:0:0:0:
64,192,172030,128,0,172130:0:0:0:0:
192,192,172830,128,0,173030:0:0:0:0:
320,192,173030,1,0,0:0:0:0:
64,192,173030,1,0,0:0:0:0:
192,192,173230,128,0,173430:0:0:0:0:
320,192,173530,128,0,173730:0:0:0:0:
192,192,173630,128,0,173830:0:0:0:0:
64,192,173730,128,0,174330:0:0:0:0:
64,192,174430,128,0,174630:0:0:0:0:
320,192,174630,1,0,0:0:0:0:
448,192,174630,1,0,0:0:0:0:
64,192,174830,128,0,175230:0:0:0:0:
320,192,174830,128,0,174930:0:0:0:0:
448,192,175030,128,0,175230:0:0:0:0:
192,192,175230,128,0,175330:0:0:0:0:
448,192,175430,128,0,175530:0:0:0:0:
320,192,175630,128,0,175830:0:0:0:0:
192,192,175730,128,0,175930:0:0:0:0:
320,192,176030,128,0,176330:0:0:0:0:
192,192,176230,128,0,176330:0:0:0:0:
64,192,176230,1,0,0:0:0:0:
320,192,176430,128,0,176630:0:0:0:0:
192,192,176530,128,0,176730:0:0:0:0:
448,192,176630,1,0,0:0:0:0:
64,192,176630,1,0,0:0:0:0:
320,192,176830,128,0,177130:0:0:0:0:
192,192,176830,1,0,0:0:0:0:
192,192,177030,128,0,177130:0:0:0:0:
448,192,177630,128,0,177930:0:0:0:0:
64,192,177630,128,0,177730:0:0:0:0:
320,192,177630,128,0,177830:0:0:0:0:
192,192,177830,128,0,178030:0:0:0:0:
448,192,178030,1,0,0:0:0:0:
320,192,178030,1,0,0:0:0:0:
64,192,178230,1,0,0:0:0:0:
192,192,178330,1,0,0:0:0:0:
320,192,178430,128,0,178530:0:0:0:0:
448,192,178430,128,0,178530:0:0:0:0:
320,192,178630,1,0,0:0:0:0:
192,192,178730,1,0,0:0:0:0:
64,192,178830,128,0,179130:0:0:0:0:
448,192,178830,128,0,178930:0:0:0:0:
192,192,178930,128,0,179030:0:0:0:0:
320,192,179030,128,0,179130:0:0:0:0:
192,192,179130,1,0,0:0:0:0:
448,192,179230,128,0,179330:0:0:0:0:
320,192,179230,128,0,179330:0:0:0:0:
192,192,179330,128,0,179530:0:0:0:0:
320,192,179430,128,0,179530:0:0:0:0:
448,192,179530,1,0,0:0:0:0:
64,192,179630,128,0,181830:0:0:0:0:
192,192,179630,128,0,179830:0:0:0:0:
320,192,179830,1,0,0:0:0:0:
192,192,179930,1,0,0:0:0:0:
320,192,180030,128,0,180130:0:0:0:0:
448,192,180030,128,0,180130:0:0:0:0:
448,192,180230,1,0,0:0:0:0:
320,192,180330,1,0,0:0:0:0:
192,192,180430,128,0,180530:0:0:0:0:
448,192,180430,128,0,180630:0:0:0:0:
320,192,180530,128,0,180630:0:0:0:0:
192,192,180630,128,0,180730:0:0:0:0:
320,192,180830,128,0,180930:0:0:0:0:
448,192,180830,128,0,180930:0:0:0:0:
192,192,180930,128,0,181130:0:0:0:0:
320,192,181030,128,0,181130:0:0:0:0:
448,192,181130,1,0,0:0:0:0:
192,192,181230,1,0,0:0:0:0:
320,192,181230,1,0,0:0:0:0:
448,192,181430,128,0,181530:0:0:0:0:
320,192,181530,1,0,0:0:0:0:
192,192,181630,128,0,181730:0:0:0:0:
448,192,181630,1,0,0:0:0:0:
320,192,181730,1,0,0:0:0:0:
192,192,181830,128,0,181930:0:0:0:0:
64,192,181930,1,0,0:0:0:0:
448,192,182030,128,0,182130:0:0:0:0:
320,192,182030,128,0,182330:0:0:0:0:
64,192,182130,128,0,182230:0:0:0:0:
192,192,182230,128,0,182330:0:0:0:0:
448,192,182330,1,0,0:0:0:0:
64,192,182430,128,0,182730:0:0:0:0:
320,192,182430,128,0,182530:0:0:0:0:
192,192,182530,128,0,182730:0:0:0:0:
448,192,182630,128,0,182730:0:0:0:0:
320,192,182730,1,0,0:0:0:0:
192,192,182830,1,0,0:0:0:0:
64,192,182830,128,0,182930:0:0:0:0:
448,192,182930,1,0,0:0:0:0:
320,192,183030,1,0,0:0:0:0:
192,192,183030,128,0,183130:0:0:0:0:
64,192,183130,1,0,0:0:0:0:
448,192,183230,1,0,0:0:0:0:
320,192,183230,128,0,183330:0:0:0:0:
192,192,183330,1,0,0:0:0:0:
64,192,183430,1,0,0:0:0:0:
320,192,183430,128,0,183530:0:0:0:0:
448,192,183530,1,0,0:0:0:0:
64,192,183630,1,0,0:0:0:0:
192,192,183630,128,0,183730:0:0:0:0:
320,192,183730,1,0,0:0:0:0:
448,192,183830,1,0,0:0:0:0:
192,192,183830,128,0,183930:0:0:0:0:
64,192,183930,1,0,0:0:0:0:
320,192,184030,1,0,0:0:0:0:
448,192,184030,128,0,184130:0:0:0:0:
192,192,184130,1,0,0:0:0:0:
448,192,184230,1,0,0:0:0:0:
64,192,184230,128,0,184330:0:0:0:0:
320,192,184330,1,0,0:0:0:0:
64,192,184430,1,0,0:0:0:0:
192,192,184430,1,0,0:0:0:0:
320,192,184530,1,0,0:0:0:0:
448,192,184530,1,0,0:0:0:0:
64,192,184630,1,0,0:0:0:0:
192,192,184730,1,0,0:0:0:0:
320,192,184730,1,0,0:0:0:0:
448,192,184830,1,0,0:0:0:0:
64,192,184830,1,0,0:0:0:0:
192,192,185030,1,0,0:0:0:0:
448,192,185130,1,0,0:0:0:0:
320,192,185130,1,0,0:0:0:0:
64,192,185230,1,0,0:0:0:0:
192,192,185230,1,0,0:0:0:0:
320,192,185330,1,0,0:0:0:0:
448,192,185430,1,0,0:0:0:0:
64,192,185430,1,0,0:0:0:0:
192,192,185530,1,0,0:0:0:0:
320,192,185630,1,0,0:0:0:0:
448,192,185630,1,0,0:0:0:0:
64,192,185730,1,0,0:0:0:0:
192,192,185830,1,0,0:0:0:0:
320,192,185830,1,0,0:0:0:0:
448,192,185930,1,0,0:0:0:0:
64,192,186030,128,0,187430:0:0:0:0:
192,192,186030,128,0,186430:0:0:0:0:
320,192,187230,128,0,187530:0:0:0:0:
192,192,187430,128,0,187530:0:0:0:0:
192,192,187630,128,0,187730:0:0:0:0:
448,192,187630,128,0,187930:0:0:0:0:
64,192,187630,128,0,187830:0:0:0:0:
192,192,187830,1,0,0:0:0:0:
64,192,188030,128,0,188330:0:0:0:0:
448,192,188030,128,0,188230:0:0:0:0:
320,192,188130,128,0,188230:0:0:0:0:
192,192,188230,128,0,188530:0:0:0:0:
320,192,188330,128,0,188430:0:0:0:0:
64,192,188430,128,0,188630:0:0:0:0:
448,192,188430,128,0,188730:0:0:0:0:
320,192,188630,128,0,188830:0:0:0:0:
192,192,188730,128,0,188930:0:0:0:0:
64,192,188830,128,0,189030:0:0:0:0:
448,192,188830,1,0,0:0:0:0:
320,192,188930,128,0,189030:0:0:0:0:
192,192,189030,128,0,189130:0:0:0:0:
448,192,189030,128,0,189230:0:0:0:0:
64,192,189130,128,0,189230:0:0:0:0:
320,192,189230,128,0,189430:0:0:0:0:
64,192,189330,128,0,189530:0:0:0:0:
448,192,189430,128,0,189630:0:0:0:0:
192,192,189430,128,0,189530:0:0:0:0:
320,192,189530,128,0,189730:0:0:0:0:
64,192,189630,128,0,189930:0:0:0:0:
192,192,189630,128,0,189830:0:0:0:0:
320,192,189830,128,0,189930:0:0:0:0:
64,192,190030,128,0,190230:0:0:0:0:
448,192,190030,128,0,190130:0:0:0:0:
320,192,190230,128,0,190430:0:0:0:0:
192,192,190230,128,0,190530:0:0:0:0:
64,192,190430,128,0,190830:0:0:0:0:
448,192,190430,128,0,190630:0:0:0:0:
320,192,190530,128,0,190630:0:0:0:0:
192,192,190630,128,0,190730:0:0:0:0:
320,192,190730,128,0,190830:0:0:0:0:
192,192,190830,128,0,191130:0:0:0:0:
448,192,190830,128,0,190930:0:0:0:0:
64,192,191030,128,0,191130:0:0:0:0:
320,192,191030,128,0,191230:0:0:0:0:
448,192,191130,128,0,191330:0:0:0:0:
192,192,191230,128,0,191330:0:0:0:0:
64,192,191230,128,0,191630:0:0:0:0:
320,192,191330,128,0,191530:0:0:0:0:
192,192,191430,128,0,191630:0:0:0:0:
448,192,191430,128,0,191530:0:0:0:0:
448,192,191630,128,0,191930:0:0:0:0:
320,192,191630,128,0,191830:0:0:0:0:
192,192,191730,128,0,191930:0:0:0:0:
64,192,191830,128,0,192230:0:0:0:0:
320,192,192030,128,0,192130:0:0:0:0:
448,192,192030,128,0,192230:0:0:0:0:
320,192,192230,128,0,192430:0:0:0:0:
192,192,192230,128,0,192330:0:0:0:0:
448,192,192330,128,0,192430:0:0:0:0:
64,192,192430,128,0,192730:0:0:0:0:
192,192,192430,128,0,192530:0:0:0:0:
448,192,192530,128,0,192730:0:0:0:0:
192,192,192630,128,0,192730:0:0:0:0:
320,192,192630,128,0,192830:0:0:0:0:
192,192,192830,128,0,193130:0:0:0:0:
64,192,192830,128,0,193030:0:0:0:0:
448,192,192830,128,0,192930:0:0:0:0:
320,192,192930,128,0,193030:0:0:0:0:
448,192,193030,128,0,193230:0:0:0:0:
192,192,193230,128,0,193530:0:0:0:0:
320,192,193230,128,0,193330:0:0:0:0:
64,192,193330,128,0,193430:0:0:0:0:
320,192,193430,128,0,193530:0:0:0:0:
448,192,193430,1,0,0:0:0:0:
192,192,193630,128,0,193930:0:0:0:0:
448,192,193630,128,0,193830:0:0:0:0:
64,192,193730,128,0,193930:0:0:0:0:
320,192,193830,128,0,193930:0:0:0:0:
64,192,194030,128,0,194330:0:0:0:0:
448,192,194030,128,0,194330:0:0:0:0:
320,192,194030,128,0,194230:0:0:0:0:
192,192,194230,1,0,0:0:0:0:
448,192,194430,128,0,194730:0:0:0:0:
64,192,194430,128,0,194630:0:0:0:0:
192,192,194530,128,0,194630:0:0:0:0:
320,192,194630,128,0,194930:0:0:0:0:
448,192,194830,128,0,195030:0:0:0:0:
64,192,194830,128,0,194930:0:0:0:0:
192,192,195030,128,0,195230:0:0:0:0:
320,192,195130,128,0,195230:0:0:0:0:
448,192,195230,1,0,0:0:0:0:
64,192,195430,128,0,195630:0:0:0:0:
320,192,195430,128,0,195530:0:0:0:0:
192,192,195630,1,0,0:0:0:0:
64,192,195830,128,0,196030:0:0:0:0:
320,192,195830,128,0,195930:0:0:0:0:
192,192,195930,128,0,196130:0:0:0:0:
448,192,196030,128,0,196330:0:0:0:0:
320,192,196030,128,0,196230:0:0:0:0:
64,192,196230,1,0,0:0:0:0:
448,192,196430,128,0,196630:0:0:0:0:
64,192,196430,128,0,196530:0:0:0:0:
192,192,196630,128,0,196830:0:0:0:0:
320,192,196630,128,0,196930:0:0:0:0:
448,192,196830,128,0,197230:0:0:0:0:
64,192,196830,128,0,197030:0:0:0:0:
192,192,196930,128,0,197130:0:0:0:0:
320,192,197030,128,0,197130:0:0:0:0:
64,192,197130,128,0,197230:0:0:0:0:
192,192,197230,128,0,197530:0:0:0:0:
320,192,197230,128,0,197330:0:0:0:0:
64,192,197430,128,0,197730:0:0:0:0:
448,192,197430,128,0,197530:0:0:0:0:
320,192,197530,128,0,197630:0:0:0:0:
192,192,197630,128,0,197730:0:0:0:0:
448,192,197630,128,0,197930:0:0:0:0:
320,192,197730,128,0,197930:0:0:0:0:
64,192,197830,128,0,198130:0:0:0:0:
192,192,198030,128,0,198230:0:0:0:0:
448,192,198030,128,0,198330:0:0:0:0:
320,192,198130,128,0,198330:0:0:0:0:
64,192,198230,128,0,198330:0:0:0:0:
64,192,198430,128,0,198730:0:0:0:0:
448,192,198430,128,0,198530:0:0:0:0:
448,192,198630,128,0,198730:0:0:0:0:
320,192,198630,1,0,0:0:0:0:
64,192,198830,128,0,199130:0:0:0:0:
192,192,198830,128,0,198930:0:0:0:0:
320,192,198930,128,0,199130:0:0:0:0:
448,192,199030,128,0,199130:0:0:0:0:
192,192,199030,128,0,199230:0:0:0:0:
320,192,199230,128,0,199530:0:0:0:0:
448,192,199230,128,0,199430:0:0:0:0:
192,192,199330,128,0,199530:0:0:0:0:
64,192,199430,128,0,199630:0:0:0:0:
448,192,199630,128,0,199930:0:0:0:0:
320,192,199630,128,0,199730:0:0:0:0:
64,192,199730,128,0,199930:0:0:0:0:
320,192,199830,128,0,199930:0:0:0:0:
192,192,199830,128,0,200130:0:0:0:0:
448,192,200030,128,0,200230:0:0:0:0:
64,192,200030,128,0,200330:0:0:0:0:
192,192,200230,128,0,200330:0:0:0:0:
320,192,200230,128,0,200330:0:0:0:0:
64,192,200430,1,0,0:0:0:0:
448,192,200430,1,0,0:0:0:0:
192,192,200630,1,0,0:0:0:0:
320,192,200830,128,0,201230:0:0:0:0:
64,192,200830,128,0,201130:0:0:0:0:
448,192,200930,128,0,201130:0:0:0:0:
192,192,201030,128,0,201230:0:0:0:0:
448,192,201230,128,0,201530:0:0:0:0:
64,192,201230,128,0,201430:0:0:0:0:
192,192,201330,128,0,201530:0:0:0:0:
320,192,201430,128,0,201530:0:0:0:0:
64,192,201630,128,0,201830:0:0:0:0:
320,192,201630,128,0,201730:0:0:0:0:
192,192,201830,128,0,202230:0:0:0:0:
448,192,201930,128,0,202130:0:0:0:0:
320,192,202030,128,0,202230:0:0:0:0:
64,192,202030,128,0,202130:0:0:0:0:
64,192,202230,128,0,202530:0:0:0:0:
448,192,202230,128,0,202330:0:0:0:0:
320,192,202330,128,0,202530:0:0:0:0:
192,192,202430,128,0,202530:0:0:0:0:
448,192,202430,1,0,0:0:0:0:
64,192,202630,128,0,202930:0:0:0:0:
448,192,202630,128,0,202730:0:0:0:0:
448,192,202830,128,0,203130:0:0:0:0:
192,192,202830,128,0,202930:0:0:0:0:
320,192,202930,128,0,203130:0:0:0:0:
64,192,203030,128,0,203330:0:0:0:0:
192,192,203030,128,0,203130:0:0:0:0:
448,192,203230,128,0,203530:0:0:0:0:
320,192,203230,128,0,203430:0:0:0:0:
192,192,203330,128,0,203530:0:0:0:0:
64,192,203430,128,0,203630:0:0:0:0:
320,192,203530,128,0,203630:0:0:0:0:
448,192,203630,1,0,0:0:0:0:
192,192,203630,1,0,0:0:0:0:
448,192,203830,1,0,0:0:0:0:
320,192,204030,128,0,204430:0:0:0:0:
192,192,204030,128,0,204330:0:0:0:0:
64,192,204130,128,0,204230:0:0:0:0:
448,192,204230,128,0,204330:0:0:0:0:
64,192,204430,128,0,204730:0:0:0:0:
192,192,204430,128,0,204630:0:0:0:0:
448,192,204530,128,0,204730:0:0:0:0:
320,192,204630,128,0,204730:0:0:0:0:
448,192,204830,128,0,204930:0:0:0:0:
64,192,204830,128,0,205030:0:0:0:0:
448,192,205030,128,0,205230:0:0:0:0:
192,192,205030,128,0,205330:0:0:0:0:
64,192,205130,128,0,205230:0:0:0:0:
320,192,205230,128,0,205330:0:0:0:0:
320,192,205430,128,0,205730:0:0:0:0:
192,192,205430,128,0,205530:0:0:0:0:
64,192,205530,128,0,205630:0:0:0:0:
192,192,205630,128,0,205930:0:0:0:0:
448,192,205630,128,0,205730:0:0:0:0:
64,192,205830,128,0,205930:0:0:0:0:
448,192,205830,128,0,206030:0:0:0:0:
320,192,205930,128,0,206030:0:0:0:0:
64,192,206030,128,0,206330:0:0:0:0:
192,192,206030,128,0,206230:0:0:0:0:
320,192,206130,128,0,206330:0:0:0:0:
448,192,206230,128,0,206430:0:0:0:0:
320,192,206430,128,0,206630:0:0:0:0:
64,192,206430,128,0,206630:0:0:0:0:
448,192,206530,128,0,206830:0:0:0:0:
192,192,206630,128,0,206730:0:0:0:0:
64,192,206730,128,0,206830:0:0:0:0:
192,192,206830,1,0,0:0:0:0:
320,192,206830,1,0,0:0:0:0:
192,192,207030,1,0,0:0:0:0:
448,192,207230,128,0,207530:0:0:0:0:
64,192,207230,128,0,207330:0:0:0:0:
320,192,207330,128,0,207530:0:0:0:0:
64,192,207430,128,0,207730:0:0:0:0:
448,192,207630,128,0,207730:0:0:0:0:
192,192,207630,128,0,207930:0:0:0:0:
448,192,207830,128,0,208130:0:0:0:0:
320,192,207930,128,0,208030:0:0:0:0:
64,192,208030,128,0,208230:0:0:0:0:
192,192,208030,128,0,208130:0:0:0:0:
320,192,208130,128,0,208330:0:0:0:0:
448,192,208230,128,0,208330:0:0:0:0:
192,192,208230,1,0,0:0:0:0:
64,192,208330,128,0,208530:0:0:0:0:
448,192,208430,128,0,208730:0:0:0:0:
320,192,208430,128,0,208530:0:0:0:0:
192,192,208630,128,0,208730:0:0:0:0:
64,192,208830,128,0,209030:0:0:0:0:
320,192,208830,128,0,209030:0:0:0:0:
448,192,208930,128,0,209030:0:0:0:0:
192,192,209030,128,0,209230:0:0:0:0:
320,192,209130,128,0,209330:0:0:0:0:
64,192,209230,128,0,209330:0:0:0:0:
448,192,209230,128,0,209330:0:0:0:0:
64,192,209430,1,0,0:0:0:0:
448,192,209430,1,0,0:0:0:0:
64,192,209630,128,0,209930:0:0:0:0:
320,192,209630,128,0,209830:0:0:0:0:
192,192,209730,128,0,209830:0:0:0:0:
448,192,209830,128,0,209930:0:0:0:0:
320,192,209930,1,0,0:0:0:0:
192,192,210030,128,0,210230:0:0:0:0:
64,192,210030,128,0,210230:0:0:0:0:
448,192,210230,1,0,0:0:0:0:
320,192,210330,128,0,210730:0:0:0:0:
192,192,210330,128,0,210430:0:0:0:0:
64,192,210430,128,0,210630:0:0:0:0:
448,192,210430,128,0,210530:0:0:0:0:
448,192,210630,128,0,211030:0:0:0:0:
192,192,210630,128,0,210830:0:0:0:0:
64,192,210830,128,0,211030:0:0:0:0:
320,192,210830,1,0,0:0:0:0:
192,192,210930,128,0,211030:0:0:0:0:
320,192,211030,128,0,211230:0:0:0:0:
64,192,211130,128,0,211230:0:0:0:0:
448,192,211230,128,0,211530:0:0:0:0:
192,192,211230,128,0,211330:0:0:0:0:
64,192,211330,128,0,211530:0:0:0:0:
320,192,211430,128,0,211530:0:0:0:0:
64,192,211630,128,0,212030:0:0:0:0:
192,192,211630,128,0,211930:0:0:0:0:
320,192,211730,128,0,211830:0:0:0:0:
448,192,211830,128,0,212130:0:0:0:0:
192,192,212030,128,0,212330:0:0:0:0:
320,192,212030,128,0,212230:0:0:0:0:
64,192,212230,1,0,0:0:0:0:
448,192,212230,1,0,0:0:0:0:
320,192,212330,1,0,0:0:0:0:
192,192,212430,128,0,212730:0:0:0:0:
448,192,212430,128,0,212630:0:0:0:0:
320,192,212530,128,0,212630:0:0:0:0:
64,192,212630,128,0,213030:0:0:0:0:
320,192,212730,128,0,212930:0:0:0:0:
448,192,212830,128,0,213030:0:0:0:0:
192,192,212930,128,0,213130:0:0:0:0:
320,192,213030,128,0,213230:0:0:0:0:
64,192,213130,1,0,0:0:0:0:
