osu file format v14

[General]
AudioFilename: audio.mp3
AudioLeadIn: 0
PreviewTime: -1
Countdown: 0
SampleSet: Soft
StackLeniency: 0.7
Mode: 2
LetterboxInBreaks: 0
WidescreenStoryboard: 0

[Editor]
DistanceSpacing: 2.5
BeatDivisor: 4
GridSize: 4
TimelineZoom: 2

[Metadata]
Title:Bad Boy
TitleUnicode:Bad Boy
Artist:Red Velvet
ArtistUnicode:레드벨벳
Creator:-Ken
Version:Rain
Source:
Tags:
BeatmapID:1573122
BeatmapSetID:746385

[Difficulty]
HPDrainRate:5
CircleSize:3.8
OverallDifficulty:8.5
ApproachRate:8.5
SliderMultiplier:1.4
SliderTickRate:2

[Events]
//Background and Video events
0,0,"2c334bbd6f947b32a24445d32e5fff90.jpg",0,0
//Break Periods
//Storyboard Layer 0 (Background)
//Storyboard Layer 1 (Fail)
//Storyboard Layer 2 (Pass)
//Storyboard Layer 3 (Foreground)
//Storyboard Sound Samples

[TimingPoints]
268,400,4,2,0,6,1,0
13068,-100,4,2,0,40,0,0
14568,-100,4,2,0,5,0,0
14668,-100,4,2,0,40,0,0
17768,-100,4,2,0,5,0,0
17868,-100,4,2,0,40,0,0
24168,-100,4,2,0,5,0,0
24268,-100,4,2,0,40,0,0
25868,-83.3333333333333,4,2,0,40,0,0
27368,-100,4,2,0,5,0,0
27468,-100,4,2,0,40,0,0
35468,-100,4,2,0,15,0,0
36068,-100,4,2,0,40,0,0
38668,-76.9230769230769,4,2,0,40,0,0
49868,-100,4,2,0,40,0,0
51468,-83.3333333333333,4,2,0,61,0,1
52468,-83.3333333333333,4,2,0,5,0,1
52668,-83.3333333333333,4,2,0,61,0,1
55768,-83.3333333333333,4,2,0,5,0,1
55868,-83.3333333333333,4,2,0,61,0,1
58268,-83.3333333333333,4,2,0,61,0,1
58668,-83.3333333333333,4,2,0,61,0,1
61468,-83.3333333333333,4,2,0,61,0,1
64268,-83.3333333333333,4,2,0,15,0,1
64868,-83.3333333333333,4,2,0,61,0,1
66668,-62.5,4,2,0,40,0,1
67468,-83.3333333333333,4,2,0,61,0,1
68268,-250,4,2,0,61,0,1
68289,-250,4,2,0,5,0,1
68668,-250,4,2,0,61,0,1
68689,-250,4,2,0,5,0,1
69068,-83.3333333333333,4,2,0,40,0,1
70668,-83.3333333333333,4,2,0,61,0,1
71068,-83.3333333333333,4,2,0,61,0,1
73868,-83.3333333333334,4,2,0,61,0,1
74268,-83.3333333333333,4,2,0,61,0,1
76268,-62.5,4,2,0,61,0,1
76568,-62.5,4,2,0,5,0,1
76668,-62.5,4,2,0,61,0,1
76968,-62.5,4,2,0,5,0,1
77068,-50,4,2,0,61,0,1
77468,-66.6666666666667,4,2,0,25,0,1
77868,-83.3333333333333,4,2,0,40,0,0
79068,-83.3333333333333,4,2,0,40,0,0
80168,-83.3333333333334,4,2,0,5,0,0
80268,-83.3333333333334,4,2,0,40,0,0
84968,-83.3333333333333,4,2,0,5,0,0
85068,-83.3333333333333,4,2,0,40,0,0
86568,-83.3333333333333,4,2,0,5,0,0
86668,-83.3333333333334,4,2,0,40,0,0
89868,-166.666666666667,4,2,0,15,0,0
96268,-166.666666666667,4,2,0,5,0,0
96868,-166.666666666667,4,2,0,25,0,0
99468,-166.666666666667,4,2,0,35,0,0
101868,-100,4,2,0,40,0,0
104168,-100,4,2,0,5,0,0
104268,-100,4,2,0,40,0,0
107368,-100,4,2,0,5,0,0
107468,-100,4,2,0,40,0,0
115468,-76.9230769230769,4,2,0,40,0,0
126668,-100,4,2,0,40,0,0
128268,-83.3333333333333,4,2,0,61,0,1
129268,-83.3333333333333,4,2,0,5,0,1
129468,-83.3333333333333,4,2,0,61,0,1
132568,-83.3333333333333,4,2,0,5,0,1
132668,-83.3333333333333,4,2,0,61,0,1
135068,-83.3333333333333,4,2,0,61,0,1
138268,-83.3333333333334,4,2,0,61,0,1
141068,-83.3333333333333,4,2,0,15,0,1
141868,-83.3333333333333,4,2,0,61,0,1
153868,-100,4,2,0,40,0,0
166694,-166.666666666667,4,2,0,5,0,0
167068,-166.666666666667,4,2,0,40,0,0
167099,-166.666666666667,4,2,0,5,0,0
167468,-166.666666666667,4,2,0,40,0,0
167500,-166.666666666667,4,2,0,5,0,0
167868,-166.666666666667,4,2,0,40,0,0
167902,-166.666666666667,4,2,0,5,0,0
168068,-83.3333333333333,4,2,0,40,0,0
173068,-55.5555555555556,4,2,0,40,0,0
174668,-83.3333333333333,4,2,0,40,0,0
176268,-100,4,2,0,40,0,0
178668,-50,4,2,0,40,0,0
179468,-83.3333333333333,4,2,0,61,0,1
180468,-83.3333333333333,4,2,0,5,0,1
180668,-83.3333333333333,4,2,0,61,0,1
186268,-83.3333333333333,4,2,0,61,0,1
192268,-83.3333333333333,4,2,0,15,0,1
192668,-83.3333333333333,4,2,0,15,0,1
192868,-83.3333333333333,4,2,0,40,0,1
193068,-83.3333333333334,4,2,0,61,0,1
194668,-83.3333333333333,4,2,0,40,0,1
196268,-250,4,2,0,61,0,1
196303,-250,4,2,0,5,0,1
196668,-250,4,2,0,61,0,1
196704,-250,4,2,0,5,0,1
197068,-83.3333333333333,4,2,0,40,0,1
198668,-83.3333333333334,4,2,0,61,0,1
201868,-83.3333333333334,4,2,0,61,0,1
204268,-62.5,4,2,0,61,0,1
204568,-62.5,4,2,0,5,0,1
204668,-62.5,4,2,0,61,0,1
204968,-62.5,4,2,0,5,0,1
205068,-66.6666666666667,4,2,0,40,0,0
205468,-66.6666666666667,4,2,0,5,0,0

[Colours]
Combo1 : 255,196,0
Combo2 : 170,0,255

[HitObjects]
57,140,268,5,0,0:0:0:0:
128,134,468,1,0,0:0:0:0:
199,147,668,1,0,0:0:0:0:
43,142,1068,1,0,0:0:0:0:
436,156,1868,5,0,0:0:0:0:
365,150,2068,1,0,0:0:0:0:
294,163,2268,1,0,0:0:0:0:
450,158,2668,1,0,0:0:0:0:
98,264,3468,5,0,0:0:0:0:
79,200,3668,1,0,0:0:0:0:
98,264,3868,1,0,0:0:0:0:
253,198,4268,1,0,0:0:0:0:
414,264,5068,5,0,0:0:0:0:
433,200,5268,1,0,0:0:0:0:
414,264,5468,1,0,0:0:0:0:
259,198,5868,1,0,0:0:0:0:
87,326,6668,5,0,0:0:0:0:
30,291,6868,1,0,0:0:0:0:
41,226,7068,1,0,0:0:0:0:
105,210,7268,1,0,0:0:0:0:
233,211,7468,1,0,0:0:0:0:
422,343,8268,5,0,0:0:0:0:
478,308,8468,1,0,0:0:0:0:
467,243,8668,1,0,0:0:0:0:
403,227,8868,1,0,0:0:0:0:
276,228,9068,1,0,0:0:0:0:
103,278,9868,5,0,0:0:0:0:
194,277,10068,1,0,0:0:0:0:
103,278,10268,1,0,0:0:0:0:
12,277,10468,1,0,0:0:0:0:
147,276,10668,1,0,0:0:0:0:
409,278,11468,5,0,0:0:0:0:
318,279,11668,1,0,0:0:0:0:
409,278,11868,1,0,0:0:0:0:
500,275,12068,1,0,0:0:0:0:
365,276,12268,1,0,0:0:0:0:
208,272,12468,1,0,0:0:0:0:
365,276,12668,1,0,0:0:0:0:
207,220,12868,1,0,0:0:0:0:
416,192,13068,6,0,P|464:172|480:144,1,70
196,168,13468,2,0,P|148:148|132:120,1,70
416,192,13868,2,0,P|464:172|480:144,1,70
175,207,14268,6,0,P|127:203|175:155,1,140
296,140,14868,1,0,0:0:0:0:
163,149,15068,2,0,L|155:125,1,17.5
296,140,15268,1,0,0:0:0:0:
36,100,15468,6,0,L|36:176,1,70
212,108,15868,2,0,L|212:188,1,70
80,136,16268,2,0,L|80:208,1,70
232,136,16668,1,0,0:0:0:0:
384,132,16868,1,0,0:0:0:0:
112,216,17068,2,0,P|56:212|36:200,1,70
332,208,17468,6,0,P|352:168|284:104,1,140
80,180,18068,1,0,0:0:0:0:
4,148,18268,1,0,0:0:0:0:
80,116,18468,1,0,0:0:0:0:
380,96,18668,5,0,0:0:0:0:
508,64,18868,1,0,0:0:0:0:
380,96,19068,1,0,0:0:0:0:
508,64,19268,1,0,0:0:0:0:
220,208,19468,5,0,0:0:0:0:
160,178,19668,1,0,0:0:0:0:
158,111,19868,1,0,0:0:0:0:
216,78,20068,1,0,0:0:0:0:
488,72,20268,2,0,L|488:224,1,140
92,312,21068,5,0,0:0:0:0:
32,282,21268,1,0,0:0:0:0:
30,215,21468,1,0,0:0:0:0:
88,182,21668,1,0,0:0:0:0:
360,180,21868,1,0,0:0:0:0:
284,180,22468,5,0,0:0:0:0:
160,180,22668,2,0,L|256:180,1,70
360,176,23068,1,0,0:0:0:0:
160,180,23268,2,0,L|256:180,1,70
360,176,23668,1,0,0:0:0:0:
184,128,23868,6,0,P|132:156|180:216,1,140
424,228,24468,5,0,0:0:0:0:
487,212,24668,1,0,0:0:0:0:
481,148,24868,1,0,0:0:0:0:
160,164,25068,2,0,L|104:112,1,70
384,228,25468,1,0,0:0:0:0:
440,228,25601,1,0,0:0:0:0:
460,192,25734,1,0,0:0:0:0:
348,156,25868,5,0,0:0:0:0:
208,156,26068,1,0,0:0:0:0:
384,104,26268,5,0,0:0:0:0:
244,104,26468,1,0,0:0:0:0:
504,48,26668,5,0,0:0:0:0:
364,48,26868,1,0,0:0:0:0:
48,280,27068,6,0,B|136:280|136:280|20:280,1,167.999994873047
180,276,27668,1,0,0:0:0:0:
244,256,27868,1,0,0:0:0:0:
272,194,28068,1,0,0:0:0:0:
12,188,28268,5,0,0:0:0:0:
152,164,28468,1,0,0:0:0:0:
292,148,28668,1,0,0:0:0:0:
432,128,28868,1,0,0:0:0:0:
248,132,29068,2,0,L|168:136,1,70
464,252,29468,2,0,L|500:324,1,70
216,248,29868,1,0,0:0:0:0:
360,244,30068,1,0,0:0:0:0:
100,312,30268,6,0,P|44:296|92:244,1,140
220,216,30868,1,0,0:0:0:0:
76,208,31068,2,0,P|32:168|44:152,1,70
368,176,31468,6,0,P|408:148|420:104,1,70
240,128,31868,2,0,P|204:88|200:48,1,70
368,196,32268,5,0,0:0:0:0:
435,184,32468,1,0,0:0:0:0:
465,124,32668,1,0,0:0:0:0:
435,64,32868,1,0,0:0:0:0:
167,56,33068,1,0,0:0:0:0:
435,64,33468,1,0,0:0:0:0:
88,316,33868,5,0,0:0:0:0:
31,278,34068,1,0,0:0:0:0:
26,211,34268,1,0,0:0:0:0:
77,168,34468,1,0,0:0:0:0:
345,172,34668,1,0,0:0:0:0:
132,256,35468,6,0,L|264:256,2,105
352,256,36268,2,0,P|412:212|372:184,1,140
140,168,37068,5,0,0:0:0:0:
276,164,37268,2,0,L|276:264,1,70
140,168,37668,5,0,0:0:0:0:
284,164,37868,2,0,L|384:164,1,70
60,172,38268,2,0,L|44:100,1,70
368,288,38668,2,0,P|416:256|284:72,1,363.999983337403
328,208,40268,5,0,0:0:0:0:
192,208,40468,1,0,0:0:0:0:
368,204,40668,5,0,0:0:0:0:
232,205,40868,1,0,0:0:0:0:
384,204,41068,5,0,0:0:0:0:
72,204,41268,1,0,0:0:0:0:
192,208,41468,1,0,0:0:0:0:
72,204,41668,1,0,0:0:0:0:
416,232,41868,2,0,P|476:184|316:4,1,363.999983337403
204,204,43468,6,0,L|104:204,1,90.9999958343508
304,204,43868,2,0,P|356:184|288:104,1,181.999991668702
164,100,44468,1,0,0:0:0:0:
320,84,44668,2,0,L|320:200,1,90.9999958343508
104,268,45068,6,0,L|296:268,2,181.999991668702
392,216,46868,5,0,0:0:0:0:
220,208,47068,2,0,P|176:200|152:136,1,90.9999958343508
344,144,47468,2,0,P|388:136|412:72,1,90.9999958343508
232,132,47868,2,0,P|188:124|164:60,1,90.9999958343508
380,76,48268,1,0,0:0:0:0:
104,80,48668,1,0,0:0:0:0:
444,116,49068,6,0,P|464:180|352:344,1,272.999987503052
164,232,49868,6,0,P|116:213|90:217,2,46.6666666666667
272,216,50268,2,0,P|320:197|346:201,2,46.6666666666667
72,212,50668,6,0,L|61:184,6,17.5
206,171,51068,2,0,L|217:143,6,17.5
43,184,51468,5,0,0:0:0:0:
38,143,51568,1,0,0:0:0:0:
60,108,51668,1,0,0:0:0:0:
99,94,51768,1,0,0:0:0:0:
164,96,51868,1,0,0:0:0:0:
332,128,52068,1,0,0:0:0:0:
64,120,52268,6,0,P|29:150|93:242,1,167.999994873047
173,238,52868,1,0,0:0:0:0:
448,232,53068,2,0,P|492:208|456:108,1,167.999994873047
344,108,53668,1,0,0:0:0:0:
16,112,53868,1,0,0:0:0:0:
28,113,54668,6,0,L|213:113,1,167.999994873047
70,112,55268,1,0,0:0:0:0:
340,212,55468,6,0,L|132:212,2,167.999994873047
408,212,56401,1,0,0:0:0:0:
340,212,56534,1,0,0:0:0:0:
228,212,56668,5,0,0:0:0:0:
164,212,56801,1,0,0:0:0:0:
228,212,56934,1,0,0:0:0:0:
348,212,57068,5,0,0:0:0:0:
480,172,57268,1,0,0:0:0:0:
344,172,57468,1,0,0:0:0:0:
476,124,57668,1,0,0:0:0:0:
56,116,57868,6,0,P|16:180|56:212,1,125.999996154785
176,228,58268,2,0,P|236:172|144:68,1,251.999992309571
32,68,59068,1,0,0:0:0:0:
336,76,59268,1,0,0:0:0:0:
448,76,59468,5,0,0:0:0:0:
144,144,59668,1,0,0:0:0:0:
40,172,59868,1,0,0:0:0:0:
171,206,60068,1,0,0:0:0:0:
302,224,60268,2,0,P|364:208|380:100,1,167.999994873047
136,308,61068,6,0,P|200:284|192:216,1,125.999996154785
76,228,61468,2,0,P|24:200|128:100,1,251.999992309571
222,101,62268,1,0,0:0:0:0:
496,96,62468,1,0,0:0:0:0:
384,96,62668,5,0,0:0:0:0:
124,164,62868,1,0,0:0:0:0:
264,132,63068,1,0,0:0:0:0:
124,104,63268,1,0,0:0:0:0:
384,128,63468,6,0,P|424:112|436:56,1,83.9999974365235
244,136,63868,1,0,0:0:0:0:
192,129,64001,1,0,0:0:0:0:
187,78,64134,1,0,0:0:0:0:
432,236,64268,5,0,0:0:0:0:
457,224,64334,1,0,0:0:0:0:
475,203,64401,1,0,0:0:0:0:
484,177,64467,1,0,0:0:0:0:
482,149,64534,1,0,0:0:0:0:
469,125,64601,1,0,0:0:0:0:
447,108,64667,1,0,0:0:0:0:
324,104,64868,1,0,0:0:0:0:
64,116,65068,6,0,P|12:172|80:228,1,167.999994873047
203,219,65668,1,0,0:0:0:0:
463,112,65868,6,0,L|287:112,1,167.999994873047
434,70,66468,1,0,0:0:0:0:
125,131,66668,6,0,B|40:132|40:132|300:132,1,336
160,128,67468,1,0,0:0:0:0:
27,128,67668,1,0,0:0:0:0:
166,126,67868,2,0,L|282:127,1,83.9999974365235
112,224,68268,6,0,L|108:208,1,9.33333333333333
368,228,68668,6,0,L|372:212,1,9.33333333333333
80,280,69068,1,0,0:0:0:0:
79,224,69201,1,0,0:0:0:0:
156,224,69334,1,0,0:0:0:0:
80,280,69468,1,0,0:0:0:0:
81,224,69601,1,0,0:0:0:0:
156,224,69734,1,0,0:0:0:0:
412,208,69868,6,0,P|456:188|480:132,1,83.9999974365235
300,148,70268,2,0,P|252:124|240:88,1,83.9999974365235
433,219,70668,6,0,P|459:272|390:320,1,125.999996154785
292,284,71068,2,0,P|236:264|296:116,1,251.999992309571
392,108,71868,1,0,0:0:0:0:
132,124,72068,1,0,0:0:0:0:
20,120,72268,5,0,0:0:0:0:
352,136,72468,1,0,0:0:0:0:
484,140,72668,2,0,L|484:40,1,83.9999974365235
276,76,73068,2,0,P|208:132|260:192,1,167.999994873047
389,331,73868,6,0,L|270:263,1,125.999996154785
408,268,74268,2,0,P|468:184|408:200,1,251.999992309571
299,204,75068,1,0,0:0:0:0:
39,204,75268,1,0,0:0:0:0:
155,208,75468,1,0,0:0:0:0:
415,211,75668,1,0,0:0:0:0:
279,211,75868,1,0,0:0:0:0:
415,211,76068,1,0,0:0:0:0:
120,216,76268,6,0,P|64:168|64:120,1,112
232,124,76668,5,0,0:0:0:0:
160,124,76801,1,0,0:0:0:0:
88,124,76934,1,0,0:0:0:0:
346,190,77068,6,0,B|494:194|494:194|414:190,1,210
224,172,77468,1,0,0:0:0:0:
198,170,77518,1,0,0:0:0:0:
176,156,77568,1,0,0:0:0:0:
164,133,77618,1,0,0:0:0:0:
165,108,77668,1,0,0:0:0:0:
179,86,77718,1,0,0:0:0:0:
202,74,77768,1,0,0:0:0:0:
228,75,77818,1,0,0:0:0:0:
304,72,77868,5,0,0:0:0:0:
452,284,78068,5,0,0:0:0:0:
270,288,78268,1,0,0:0:0:0:
88,284,78468,2,0,P|36:264|92:192,1,167.999994873047
232,188,79068,1,0,0:0:0:0:
384,188,79268,1,0,0:0:0:0:
124,142,79468,1,0,0:0:0:0:
206,158,79668,5,0,0:0:0:0:
80,193,79868,1,0,0:0:0:0:
208,206,80068,2,0,P|260:186|204:114,1,167.999994873047
108,104,80668,1,0,0:0:0:0:
292,100,80868,1,0,0:0:0:0:
8,104,81068,1,0,0:0:0:0:
156,252,81868,6,0,L|48:252,1,83.9999974365235
212,196,82268,2,0,L|316:196,1,83.9999974365235
64,136,82668,2,0,L|200:136,2,125.999996154785
396,236,83468,5,0,0:0:0:0:
458,190,83668,1,0,0:0:0:0:
456,113,83868,1,0,0:0:0:0:
390,72,84068,1,0,0:0:0:0:
72,88,84268,1,0,0:0:0:0:
208,80,84468,5,0,0:0:0:0:
72,88,84668,1,0,0:0:0:0:
234,80,84868,2,0,P|282:116|234:200,1,167.999994873047
112,198,85468,1,0,0:0:0:0:
240,198,85668,1,0,0:0:0:0:
80,152,85868,1,0,0:0:0:0:
80,152,86068,5,0,0:0:0:0:
258,144,86268,1,0,0:0:0:0:
436,144,86468,2,0,P|480:176|400:256,1,167.999994873047
250,261,87068,1,0,0:0:0:0:
64,256,87268,1,0,0:0:0:0:
339,263,87668,6,0,P|389:242|433:126,1,167.999994873047
288,144,88268,6,0,L|264:57,2,55.9999982910157
430,76,88668,2,0,L|454:-11,2,55.9999982910157
288,144,89068,1,0,0:0:0:0:
88,264,89868,6,0,L|72:212,1,41.9999987182618
208,240,90268,2,0,L|196:200,1,41.9999987182618
376,156,90668,1,0,0:0:0:0:
268,116,90868,1,0,0:0:0:0:
396,156,91068,2,0,P|400:200|372:236,1,83.9999974365235
244,224,91668,1,0,0:0:0:0:
388,220,91868,2,0,L|392:164,1,41.9999987182618
244,224,92268,5,0,0:0:0:0:
388,220,92468,1,0,0:0:0:0:
244,224,92668,1,0,0:0:0:0:
184,220,93068,6,0,L|200:164,1,41.9999987182618
76,180,93468,2,0,L|96:124,1,41.9999987182618
216,216,93868,1,0,0:0:0:0:
184,216,94268,2,0,L|128:216,1,41.9999987182618
288,212,94668,2,0,L|232:212,1,41.9999987182618
392,216,95068,2,0,L|336:216,1,41.9999987182618
504,216,95468,2,0,L|460:216,1,41.9999987182618
312,212,95868,6,0,P|280:188|316:164,1,83.9999974365235
392,208,96868,5,0,0:0:0:0:
272,208,97068,2,0,L|192:208,2,62.9999980773926
424,208,97868,2,0,P|460:184|472:132,1,83.9999974365235
304,132,98468,1,0,0:0:0:0:
80,128,98868,2,0,P|44:152|88:208,1,125.999996154785
216,192,100068,1,0,0:0:0:0:
352,192,100268,2,0,L|272:192,2,62.9999980773926
200,188,101068,1,0,0:0:0:0:
92,200,101868,5,0,0:0:0:0:
140,200,102001,1,0,0:0:0:0:
188,200,102134,1,0,0:0:0:0:
76,160,102268,5,0,0:0:0:0:
152,160,102401,1,0,0:0:0:0:
76,160,102534,1,0,0:0:0:0:
388,196,102668,6,0,P|412:160|396:128,1,70
136,212,103068,2,0,L|56:212,1,70
436,180,103468,2,0,P|460:152|436:116,1,70
124,224,103868,2,0,P|68:196|124:136,1,140
108,136,104318,1,0,0:0:0:0:
228,128,104468,1,0,0:0:0:0:
108,136,104668,1,0,0:0:0:0:
24,48,104868,1,0,0:0:0:0:
436,68,105068,6,0,L|452:144,1,70
160,208,105468,2,0,L|80:212,1,70
372,184,105868,6,0,L|456:184,1,70
260,188,106268,2,0,L|344:188,1,70
12,148,106668,2,0,L|96:148,1,70
376,144,107068,2,0,P|452:172|432:208,1,140
285,219,107668,5,0,0:0:0:0:
434,135,107868,1,0,0:0:0:0:
437,50,108068,1,0,0:0:0:0:
83,171,108268,6,0,L|41:105,1,70
184,128,108668,2,0,L|266:128,1,70
71,249,109068,5,0,0:0:0:0:
22,200,109268,1,0,0:0:0:0:
23,132,109468,1,0,0:0:0:0:
72,85,109668,1,0,0:0:0:0:
379,93,109868,2,0,L|230:93,1,140
341,94,110468,1,0,0:0:0:0:
443,90,110668,5,0,0:0:0:0:
483,145,110868,1,0,0:0:0:0:
482,214,111068,1,0,0:0:0:0:
440,269,111268,1,0,0:0:0:0:
134,272,111468,2,0,L|277:272,1,140
165,271,112068,1,0,0:0:0:0:
56,285,112268,6,0,L|188:285,2,105
276,285,113068,2,0,P|336:241|296:213,1,140
39,209,113868,5,0,0:0:0:0:
122,208,114001,1,0,0:0:0:0:
205,208,114134,1,0,0:0:0:0:
122,207,114268,1,0,0:0:0:0:
39,207,114401,1,0,0:0:0:0:
122,208,114534,1,0,0:0:0:0:
102,172,115068,5,0,0:0:0:0:
42,106,115268,1,0,0:0:0:0:
333,276,115468,2,0,P|448:297|399:125,1,363.999983337403
356,316,117068,6,0,L|480:316,1,90.9999958343508
280,272,117468,2,0,L|196:196,1,90.9999958343508
384,204,117868,5,0,0:0:0:0:
72,204,118068,1,0,0:0:0:0:
192,208,118268,1,0,0:0:0:0:
72,204,118468,1,0,0:0:0:0:
380,104,118668,2,0,P|448:220|284:328,1,363.999983337403
216,264,120268,6,0,L|316:264,1,90.9999958343508
116,264,120668,2,0,P|64:244|132:164,1,181.999991668702
256,160,121268,1,0,0:0:0:0:
100,144,121468,2,0,L|100:260,1,90.9999958343508
324,216,121868,5,0,0:0:0:0:
108,212,122268,1,0,0:0:0:0:
324,216,122668,2,0,P|408:184|276:64,1,363.999983337403
172,76,123668,5,0,0:0:0:0:
336,76,123868,2,0,L|336:192,1,90.9999958343508
64,80,124268,2,0,L|64:184,1,90.9999958343508
184,80,124668,2,0,L|288:80,1,90.9999958343508
88,148,125068,5,0,0:0:0:0:
368,148,125468,1,0,0:0:0:0:
40,152,125868,2,0,P|4:208|132:328,1,272.999987503052
324,232,126668,6,0,L|404:232,2,46.6666666666667
216,216,127068,2,0,L|132:216,2,46.6666666666667
440,212,127468,6,0,L|436:180,6,17.5
296,172,127868,2,0,L|300:144,6,17.5
484,124,128268,5,0,0:0:0:0:
442,124,128368,1,0,0:0:0:0:
400,124,128468,1,0,0:0:0:0:
358,124,128568,1,0,0:0:0:0:
316,124,128668,1,0,0:0:0:0:
432,92,128868,1,0,0:0:0:0:
92,124,129068,2,0,P|32:156|104:200,1,167.999994873047
208,208,129668,1,0,0:0:0:0:
488,208,129868,6,0,P|508:136|432:100,1,167.999994873047
320,96,130468,1,0,0:0:0:0:
20,112,130668,1,0,0:0:0:0:
44,132,131468,6,0,P|116:156|176:240,1,167.999994873047
32,232,132068,1,0,0:0:0:0:
304,224,132268,6,0,L|444:224,1,125.999996154785
368,224,132668,2,0,L|256:224,1,83.9999974365235
88,224,133068,6,0,L|4:224,2,55.9999982910157
228,224,133468,2,0,L|308:224,2,55.9999982910157
20,232,133868,6,0,L|128:232,1,83.9999974365235
256,200,134268,2,0,L|344:200,1,83.9999974365235
56,336,134668,6,0,P|36:272|68:216,1,125.999996154785
188,216,135068,2,0,P|248:200|164:88,1,251.999992309571
72,80,135868,1,0,0:0:0:0:
376,80,136068,1,0,0:0:0:0:
488,80,136268,5,0,0:0:0:0:
144,144,136468,1,0,0:0:0:0:
40,172,136668,1,0,0:0:0:0:
171,206,136868,1,0,0:0:0:0:
302,224,137068,2,0,P|364:208|380:100,1,167.999994873047
136,308,137868,6,0,P|200:284|192:216,1,125.999996154785
76,228,138268,2,0,P|24:200|128:100,1,251.999992309571
222,101,139068,1,0,0:0:0:0:
496,96,139268,1,0,0:0:0:0:
384,96,139468,5,0,0:0:0:0:
124,104,139668,1,0,0:0:0:0:
264,132,139868,1,0,0:0:0:0:
124,104,140068,1,0,0:0:0:0:
384,128,140268,6,0,P|424:112|436:56,1,83.9999974365235
244,136,140668,1,0,0:0:0:0:
300,136,140801,1,0,0:0:0:0:
244,136,140934,1,0,0:0:0:0:
36,212,141068,5,0,0:0:0:0:
16,192,141134,1,0,0:0:0:0:
6,166,141201,1,0,0:0:0:0:
8,138,141267,1,0,0:0:0:0:
20,113,141334,1,0,0:0:0:0:
42,95,141401,1,0,0:0:0:0:
68,88,141467,1,0,0:0:0:0:
196,88,141668,1,0,0:0:0:0:
456,120,141868,6,0,P|508:176|440:232,1,167.999994873047
332,236,142468,1,0,0:0:0:0:
20,224,142668,6,0,L|196:224,1,167.999994873047
64,168,143268,1,0,0:0:0:0:
480,184,143468,1,0,0:0:0:0:
480,184,144268,6,0,L|308:184,1,167.999994873047
428,136,144868,1,0,0:0:0:0:
156,264,145068,2,0,P|116:232|188:148,1,167.999994873047
408,188,145868,6,0,L|464:188,2,55.9999982910157
300,184,146268,2,0,L|356:184,2,55.9999982910157
68,156,146668,2,0,L|40:52,1,83.9999974365235
180,116,147068,2,0,L|272:88,1,83.9999974365235
88,336,147468,6,0,P|48:252|72:240,1,125.999996154785
176,244,147868,2,0,P|236:236|172:124,1,251.999992309571
60,128,148668,1,0,0:0:0:0:
364,120,148868,1,0,0:0:0:0:
476,116,149068,5,0,0:0:0:0:
152,192,149268,1,0,0:0:0:0:
36,192,149468,1,0,0:0:0:0:
152,192,149668,1,0,0:0:0:0:
328,192,149868,2,0,P|368:172|304:80,1,167.999994873047
136,308,150668,6,0,P|200:284|192:216,1,125.999996154785
76,228,151068,2,0,P|24:200|128:100,1,251.999992309571
222,101,151868,1,0,0:0:0:0:
496,96,152068,1,0,0:0:0:0:
384,96,152268,5,0,0:0:0:0:
124,104,152468,1,0,0:0:0:0:
264,132,152668,1,0,0:0:0:0:
124,104,152868,1,0,0:0:0:0:
448,176,153068,1,0,0:0:0:0:
308,204,153268,1,0,0:0:0:0:
448,176,153468,1,0,0:0:0:0:
308,204,153668,1,0,0:0:0:0:
24,208,153868,6,0,L|260:208,2,210
272,196,155468,6,0,L|408:296,1,140
264,300,156068,1,0,0:0:0:0:
88,208,156268,2,0,L|28:348,1,140
304,228,157068,6,0,L|72:228,2,210
448,224,158468,5,0,0:0:0:0:
312,224,158668,2,0,P|266:224|284:176,1,105
340,172,159068,6,0,L|428:172,1,70
136,172,159468,1,0,0:0:0:0:
328,160,159768,1,0,0:0:0:0:
160,252,160068,1,0,0:0:0:0:
40,252,160268,2,0,P|-8:184|128:112,1,280
388,104,161468,1,0,0:0:0:0:
168,212,161868,6,0,P|108:188|128:128,1,140
232,116,162468,1,0,0:0:0:0:
496,236,162668,2,0,P|496:156|448:120,1,140
160,268,163468,5,0,0:0:0:0:
372,240,163768,1,0,0:0:0:0:
160,236,164068,1,0,0:0:0:0:
36,236,164268,2,0,P|4:200|96:112,1,210
304,104,165068,6,0,L|160:104,1,140
304,104,165734,1,0,0:0:0:0:
108,136,165868,2,0,L|252:136,1,140
40,136,166534,1,0,0:0:0:0:
236,164,166668,6,0,L|240:128,1,23.3333333333333
56,168,167068,6,0,L|40:168,1,13.9999995727539
260,140,167468,6,0,L|240:140,1,13.9999995727539
84,148,167868,6,0,L|64:148,1,13.9999995727539
200,120,168068,1,0,0:0:0:0:
68,116,168268,2,0,L|228:116,1,125.999996154785
24,208,168868,1,0,0:0:0:0:
412,200,169068,2,0,L|252:200,1,125.999996154785
436,344,169668,1,0,0:0:0:0:
36,216,169868,6,0,L|236:216,1,167.999994873047
92,176,170468,1,0,0:0:0:0:
408,184,170668,2,0,P|448:144|372:88,1,167.999994873047
268,88,171268,5,0,0:0:0:0:
8,100,171468,2,0,P|40:192|112:228,1,167.999994873047
296,104,172068,2,0,P|336:148|284:228,1,167.999994873047
120,228,172668,2,0,L|24:228,1,83.9999974365235
296,184,173068,6,0,B|404:184|404:184|268:184|268:184|248:184,1,251.999992309571
132,184,173668,1,0,0:0:0:0:
400,184,173868,6,0,B|508:184|508:184|372:184|372:184|352:184,1,251.999992309571
104,192,174668,1,0,0:0:0:0:
392,228,175068,6,0,L|460:228,1,41.9999987182618
288,228,175268,2,0,L|184:228,1,83.9999974365235
448,164,175868,1,0,0:0:0:0:
328,168,176068,1,0,0:0:0:0:
44,172,176268,2,0,L|28:88,1,70
328,148,176868,5,0,0:0:0:0:
52,188,177068,2,0,P|16:152|72:76,1,140
168,76,177668,1,0,0:0:0:0:
472,184,177868,2,0,L|344:184,1,105
96,204,178468,1,0,0:0:0:0:
356,204,178668,6,0,B|444:204|444:204|200:204|200:204|400:204,1,490
400,204,179468,5,0,0:0:0:0:
435,184,179568,1,0,0:0:0:0:
449,145,179668,1,0,0:0:0:0:
434,107,179768,1,0,0:0:0:0:
398,88,179868,1,0,0:0:0:0:
276,88,180068,1,0,0:0:0:0:
16,116,180268,6,0,P|84:140|112:256,1,167.999994873047
0,224,180868,1,0,0:0:0:0:
360,224,181068,6,0,P|420:212|424:112,1,167.999994873047
308,120,181668,1,0,0:0:0:0:
4,116,181868,1,0,0:0:0:0:
4,116,182668,2,0,L|204:116,1,167.999994873047
52,64,183268,1,0,0:0:0:0:
476,204,183468,2,0,P|504:136|428:80,1,167.999994873047
320,84,184068,1,0,0:0:0:0:
24,204,184268,6,0,L|24:112,1,55.9999982910157
112,144,184534,1,0,0:0:0:0:
260,204,184668,6,0,L|260:112,1,55.9999982910157
172,144,184934,1,0,0:0:0:0:
488,120,185068,6,0,L|364:120,1,83.9999974365235
272,116,185468,2,0,L|156:116,1,83.9999974365235
464,248,185868,6,0,P|464:184|444:124,1,125.999996154785
312,128,186268,2,0,P|220:136|276:40,1,251.999992309571
400,36,187068,1,0,0:0:0:0:
64,212,187268,1,0,0:0:0:0:
44,92,187468,5,0,0:0:0:0:
316,152,187668,1,0,0:0:0:0:
448,152,187868,1,0,0:0:0:0:
298,153,188068,1,0,0:0:0:0:
148,152,188268,2,0,P|96:136|96:8,1,167.999994873047
228,332,189068,6,0,P|196:276|208:208,1,125.999996154785
332,216,189468,2,0,P|352:192|212:92,1,251.999992309571
112,80,190268,1,0,0:0:0:0:
448,200,190468,1,0,0:0:0:0:
472,80,190668,5,0,0:0:0:0:
64,176,190868,1,0,0:0:0:0:
208,160,191068,5,0,0:0:0:0:
64,152,191268,1,0,0:0:0:0:
336,124,191468,1,0,0:0:0:0:
464,128,191668,1,0,0:0:0:0:
96,176,191868,1,0,0:0:0:0:
4,180,192001,1,0,0:0:0:0:
96,176,192134,1,0,0:0:0:0:
440,224,192268,5,0,0:0:0:0:
463,210,192334,1,0,0:0:0:0:
480,187,192401,1,0,0:0:0:0:
487,160,192467,1,0,0:0:0:0:
483,133,192534,1,0,0:0:0:0:
469,109,192601,1,0,0:0:0:0:
447,92,192667,1,0,0:0:0:0:
320,88,192868,1,0,0:0:0:0:
4,200,193068,6,0,L|184:200,1,167.999994873047
48,164,193668,1,0,0:0:0:0:
424,200,193868,2,0,P|472:176|440:80,1,167.999994873047
320,80,194468,1,0,0:0:0:0:
0,76,194668,1,0,0:0:0:0:
16,112,195468,6,0,P|80:136|176:116,1,167.999994873047
52,112,196068,1,0,0:0:0:0:
376,140,196268,6,0,L|376:128,1,9.33333333333333
116,140,196668,6,0,L|116:128,1,9.33333333333333
368,208,197068,6,0,L|436:208,2,55.9999982910157
248,212,197468,1,0,0:0:0:0:
176,212,197601,1,0,0:0:0:0:
128,168,197734,1,0,0:0:0:0:
424,172,197868,6,0,L|460:272,1,83.9999974365235
264,188,198268,2,0,L|252:276,1,83.9999974365235
440,228,198668,6,0,P|488:140|456:104,1,125.999996154785
356,108,199068,2,0,B|228:108|228:108|368:108,1,251.999992309571
472,108,199868,1,0,0:0:0:0:
152,120,200068,1,0,0:0:0:0:
32,120,200268,5,0,0:0:0:0:
352,132,200468,1,0,0:0:0:0:
472,132,200668,1,0,0:0:0:0:
324,132,200868,1,0,0:0:0:0:
176,128,201068,2,0,P|128:168|180:272,1,167.999994873047
440,228,201868,6,0,P|488:140|456:104,1,125.999996154785
356,108,202268,2,0,B|228:108|228:108|368:108,1,251.999992309571
224,108,203068,1,0,0:0:0:0:
484,128,203268,1,0,0:0:0:0:
488,244,203468,5,0,0:0:0:0:
136,224,203668,1,0,0:0:0:0:
256,220,203868,1,0,0:0:0:0:
376,208,204068,1,0,0:0:0:0:
232,220,204268,6,0,P|192:160|264:104,1,168
376,144,204668,2,0,P|420:100|356:28,1,168
108,192,205068,2,0,P|32:176|116:140,1,210.000008010865
