osu file format v14

[General]
AudioFilename: audio.mp3
AudioLeadIn: 0
PreviewTime: 51611
Countdown: 1
SampleSet: Soft
StackLeniency: 0.2
Mode: 0
LetterboxInBreaks: 0
WidescreenStoryboard: 1

[Editor]
Bookmarks: 1664,14997,21664,28330,41664,54997,68330,81664,88330,94997,108330,121664,128330
DistanceSpacing: 0.7
BeatDivisor: 4
GridSize: 16
TimelineZoom: 3.399999

[Metadata]
Title:Open Your Mind
TitleUnicode:Open Your Mind
Artist:Red Pulse
ArtistUnicode:Red Pulse
Creator:wyrio
Version:Voice's Insane
Source:O2Jam
Tags:O2Jam O2 Jam Lunala Voicehe VoiceCore Ujimatcha Video Game MUG Music Korean
BeatmapID:2254285
BeatmapSetID:972185

[Difficulty]
HPDrainRate:6
CircleSize:4.5
OverallDifficulty:7
ApproachRate:8
SliderMultiplier:1.8
SliderTickRate:1

[Events]
//Background and Video events
0,0,"open your mind.jpg",0,0
//Break Periods
//Storyboard Layer 0 (Background)
//Storyboard Layer 1 (Fail)
//Storyboard Layer 2 (Pass)
//Storyboard Layer 3 (Foreground)
//Storyboard Layer 4 (Overlay)
//Storyboard Sound Samples

[TimingPoints]
1664,416.666666666667,4,2,1,35,1,0
1664,-200,4,2,1,35,0,0
4997,-166.666666666667,4,2,1,35,0,0
8330,-133.333333333333,4,2,1,35,0,0
11664,-117.647058823529,4,2,1,50,0,0
13330,-117.647058823529,4,2,1,35,0,0
14997,-100,4,2,1,60,0,0
16664,-133.333333333333,4,2,1,60,0,0
17705,-100,4,2,1,60,0,0
17914,-100,4,2,1,60,0,0
19997,-100,4,2,1,45,0,0
21664,-100,4,2,1,60,0,0
26664,-100,4,2,1,45,0,0
27497,-80,4,2,1,35,0,0
28330,-100,4,2,1,70,0,0
41664,-125,4,2,1,40,0,0
44268,-125,4,2,1,40,0,0
44372,-125,4,2,1,40,0,0
46039,-125,4,2,1,40,0,0
46143,-125,4,2,1,40,0,0
46351,-125,4,2,1,40,0,0
46455,-125,4,2,1,40,0,0
47184,-125,4,2,1,40,0,0
47289,-125,4,2,1,40,0,0
47601,-125,4,2,1,40,0,0
47705,-125,4,2,1,40,0,0
48018,-125,4,2,1,40,0,0
48122,-111.111111111111,4,2,1,40,0,0
49372,-111.111111111111,4,2,1,40,0,0
49476,-111.111111111111,4,2,1,40,0,0
49684,-111.111111111111,4,2,1,40,0,0
49789,-111.111111111111,4,2,1,40,0,0
51664,-111.111111111111,4,2,1,35,0,0
54580,-111.111111111111,4,2,1,60,0,0
54997,-80,4,2,1,80,0,0
59528,-80,4,2,1,5,0,0
59580,-80,4,2,1,80,0,0
64320,-80,4,2,1,80,0,0
64372,-80,4,2,1,80,0,0
69111,-80,4,2,1,80,0,0
69164,-80,4,2,1,80,0,0
70778,-80,4,2,1,80,0,0
70830,-80,4,2,1,80,0,0
72445,-80,4,2,1,80,0,0
72497,-80,4,2,1,80,0,0
73330,-133.333333333333,4,2,1,80,0,0
73643,-133.333333333333,4,2,1,80,0,0
73747,-100,4,2,1,80,0,0
74059,-100,4,2,1,80,0,0
74164,-80,4,2,1,80,0,0
74476,-80,4,2,1,80,0,0
74580,-66.6666666666667,4,2,1,80,0,0
74997,-80,4,2,1,80,0,0
75778,-80,4,2,1,80,0,0
75830,-80,4,2,1,80,0,0
81039,-133.333333333333,4,2,1,80,0,0
84580,-133.333333333333,4,2,1,60,0,0
86872,-100,4,2,1,60,0,0
87289,-100,4,2,1,70,0,0
88330,-80,4,2,1,70,0,0
88643,-80,4,2,1,5,0,0
88747,-80,4,2,1,70,0,0
88851,-80,4,2,1,5,0,0
88955,-80,4,2,1,70,0,0
89059,-80,4,2,1,5,0,0
89164,-80,4,2,1,70,0,0
90309,-80,4,2,1,5,0,0
90414,-80,4,2,1,70,0,0
90518,-80,4,2,1,5,0,0
90622,-80,4,2,1,70,0,0
91664,-100,4,2,1,70,0,0
93330,-100,4,2,1,55,0,0
93643,-80,4,2,1,55,0,0
93955,-66.6666666666667,4,2,1,55,0,0
94580,-133.333333333333,4,2,1,55,0,0
94997,-80,4,2,1,80,0,0
97653,-80,4,2,1,80,0,0
97705,-80,4,2,1,80,0,0
100986,-80,4,2,1,80,0,0
101039,-80,4,2,1,80,0,0
104320,-80,4,2,1,80,0,0
104372,-80,4,2,1,80,0,0
121664,-80,4,2,1,90,0,0

[Colours]
Combo1 : 128,255,128
Combo2 : 255,128,128
Combo3 : 128,255,255
Combo4 : 255,255,128

[HitObjects]
64,54,1247,5,2,0:1:0:0:
50,76,1351,1,2,0:1:0:0:
48,102,1455,1,2,0:1:0:0:
60,125,1559,1,2,0:1:0:0:
79,141,1664,6,0,L|177:128,1,90,2|0,0:0|0:0,0:0:0:0:
243,116,2289,2,0,B|296:154|296:154|363:124,1,135,2|0,0:1|0:0,0:0:0:0:
472,46,3330,6,0,L|465:138,1,90,2|2,0:1|0:1,0:0:0:0:
440,221,3955,2,0,B|458:284|458:284|446:322,2,90,2|2|2,0:1|0:3|0:3,0:0:0:0:
353,261,4997,6,0,P|308:254|275:289,1,80.9999975280763,2|0,0:0|0:0,0:0:0:0:
214,364,5622,1,2,0:1:0:0:
155,304,5830,2,0,L|73:312,1,80.9999975280763,2|2,0:0|0:1,0:0:0:0:
57,288,6247,2,0,L|-4:294,1,53.9999983520508,0|0,0:0|0:0,0:0:0:0:
105,157,6768,5,0,0:0:0:0:
114,172,6872,2,0,L|102:255,1,80.9999975280763,2|0,0:1|0:0,0:0:0:0:
36,310,7289,2,0,B|16:271|16:271|27:223,1,80.9999975280763,2|0,0:1|0:0,0:0:0:0:
29,216,7705,1,2,0:1:0:0:
4,122,7914,5,2,0:1:0:0:
28,125,8018,1,2,0:1:0:0:
52,128,8122,1,2,0:1:0:0:
76,131,8226,1,2,0:1:0:0:
98,136,8330,6,0,L|97:93,2,33.7500012874604,2|0|0,0:0|0:0|0:0,0:0:0:0:
126,148,8643,2,0,B|171:170|171:170|232:157,1,101.250003862381,2|0,0:1|0:0,0:0:0:0:
280,72,9164,1,2,0:0:0:0:
336,144,9372,1,0,0:0:0:0:
347,119,9476,1,2,0:1:0:0:
431,118,9684,1,0,0:0:0:0:
428,90,9788,1,2,0:0:0:0:
411,210,9997,6,0,L|457:205,2,33.7500012874604,2|0|0,0:0|0:0|0:0,0:0:0:0:
337,288,10414,2,0,L|321:214,1,67.5000025749208,2|0,0:0|0:0,0:0:0:0:
256,147,10830,2,0,B|234:180|234:180|243:225,1,67.5000025749208,2|2,0:0|0:1,0:0:0:0:
222,267,11143,2,0,B|244:234|244:234|235:189,1,67.5000025749208,2|0,0:0|0:0,0:0:0:0:
156,216,11455,1,2,0:0:0:0:
104,308,11664,6,0,L|152:302,3,38.2500007295609,8|0|0|0,0:0|0:0|0:0|0:0,0:0:0:0:
212,354,12080,2,0,L|260:348,3,38.2500007295609,8|0|8|8,0:0|0:0|0:0|0:0,0:0:0:0:
352,341,12497,5,8,0:0:0:0:
375,338,12601,1,8,0:0:0:0:
396,326,12705,1,8,0:0:0:0:
412,308,12809,1,8,0:0:0:0:
419,286,12913,1,8,0:0:0:0:
419,262,13017,1,8,0:0:0:0:
409,240,13121,1,8,0:0:0:0:
393,224,13226,1,8,0:0:0:0:
370,214,13330,6,0,L|340:219,16,19.1250003647804,8|8|8|8|8|8|8|8|8|8|8|8|8|8|8|8|8,0:0|0:0|0:0|0:0|0:0|0:0|0:0|0:0|0:0|0:0|0:0|0:0|0:0|0:0|0:0|0:0|0:0,0:0:0:0:
256,192,14216,12,4,14997,3:1:0:0:
141,90,15622,5,2,0:0:0:0:
393,176,16664,6,0,B|323:194|323:194|293:190,2,101.250003862381,2|2|0,0:0|0:0|0:0,0:0:0:0:
451,80,17705,2,0,L|396:91,1,45,0|0,0:0|0:0,0:0:0:0:
363,99,17914,5,4,0:1:0:0:
422,243,18122,1,4,0:1:0:0:
272,214,18330,6,0,L|221:208,3,45,4|8|8|8,0:1|0:0|0:0|0:0,0:0:0:0:
234,121,18747,2,0,L|183:125,3,45,8|8|8|8,0:0|0:0|0:0|0:0,0:0:0:0:
111,68,19164,5,8,0:0:0:0:
101,81,19268,1,8,0:0:0:0:
94,97,19372,1,8,0:0:0:0:
90,113,19476,1,8,0:0:0:0:
89,130,19580,1,8,0:0:0:0:
92,146,19684,1,8,0:0:0:0:
98,162,19789,1,8,0:0:0:0:
107,176,19893,1,8,0:0:0:0:
120,190,19997,6,0,L|158:187,14,22.5,8|8|8|8|8|8|8|8|8|8|8|8|8|8|8,0:0|0:0|0:0|0:0|0:0|0:0|0:0|0:0|0:0|0:0|0:0|0:0|0:0|0:0|0:0,0:0:0:0:
152,199,20830,6,0,L|190:196,16,22.5,8|8|8|8|8|8|8|8|8|8|8|8|8|8|8|8|4,0:0|0:0|0:0|0:0|0:0|0:0|0:0|0:0|0:0|0:0|0:0|0:0|0:0|0:0|0:0|0:0|3:2,0:0:0:0:
293,120,22080,5,2,3:1:0:0:
438,226,22497,1,0,3:0:0:0:
279,311,22914,1,2,3:1:0:0:
141,188,23330,6,0,B|154:117|154:117|108:66,1,135,2|2,3:1|0:1,0:0:0:0:
48,142,23747,2,0,L|52:240,1,90,0|0,3:0|0:0,0:0:0:0:
55,341,24164,1,0,3:0:0:0:
189,315,24372,2,0,P|226:312|266:342,2,90,2|2|2,0:1|3:1|0:1,0:0:0:0:
180,209,24997,5,2,3:1:0:0:
180,209,25101,1,8,0:0:0:0:
180,209,25205,1,8,0:0:0:0:
180,209,25309,1,8,0:0:0:0:
180,209,25414,2,0,L|237:217,3,45,8|8|8|8,0:0|0:0|0:0|0:0,0:0:0:0:
264,131,25830,5,8,0:0:0:0:
264,131,25934,1,8,0:0:0:0:
264,131,26038,1,8,0:0:0:0:
264,131,26142,1,8,0:0:0:0:
264,131,26247,2,0,L|214:127,3,45,8|8|8|8,3:2|0:0|0:0|0:0,0:0:0:0:
169,37,26664,6,0,L|201:41,14,22.5,8|8|8|8|8|8|8|8|0|8|8|8|8|8|8,3:2|0:0|0:0|0:0|0:0|0:0|0:0|0:0|0:0|0:0|0:0|0:0|0:0|0:0|0:0,0:0:0:0:
215,26,27497,6,0,L|255:30,14,28.125,8|8|8|8|8|8|8|8|8|8|8|8|8|8|8,3:2|0:0|0:0|0:0|0:0|0:0|0:0|0:0|3:2|0:0|0:0|0:0|0:0|0:0|0:0,0:0:0:0:
276,25,28330,5,2,3:2:0:0:
393,92,28539,2,0,L|437:82,1,45,0|2,0:3|0:1,0:0:0:0:
377,96,28747,2,0,B|362:147|362:147|380:181,1,90,2|2,1:2|0:1,0:0:0:0:
502,243,29164,5,2,3:2:0:0:
386,281,29372,2,0,L|394:327,1,45,0|2,0:3|0:1,0:0:0:0:
380,261,29580,2,0,P|330:246|290:265,1,90,2|2,1:2|0:1,0:0:0:0:
188,332,29997,5,2,3:2:0:0:
212,194,30205,2,0,L|208:142,1,45,0|2,0:0|0:1,0:0:0:0:
212,215,30414,2,0,B|169:233|169:233|123:221,1,90,2|2,1:2|0:1,0:0:0:0:
64,90,30830,5,2,3:2:0:0:
206,33,31039,1,2,0:1:0:0:
197,77,31143,1,2,0:1:0:0:
153,84,31247,1,2,1:2:0:0:
167,11,31455,1,2,0:1:0:0:
150,203,31664,6,0,L|153:247,2,45,2|0|0,3:2|0:0|0:3,0:0:0:0:
128,197,31976,1,2,0:1:0:0:
109,190,32080,2,0,B|67:210|67:210|25:201,1,90,2|2,1:2|0:1,0:0:0:0:
19,337,32497,6,0,L|66:335,2,45,2|2|0,3:2|0:1|0:3,0:0:0:0:
91,350,32809,1,2,0:1:0:0:
115,359,32914,2,0,P|158:312|151:280,1,90,2|2,1:2|0:1,0:0:0:0:
267,237,33330,6,0,L|265:180,2,45,2|2|0,3:2|0:1|0:3,0:0:0:0:
299,257,33643,1,2,0:1:0:0:
328,273,33747,2,0,P|383:280|414:255,1,90,2|2,1:2|0:1,0:0:0:0:
508,204,34164,5,2,3:2:0:0:
451,346,34373,1,2,0:1:0:0:
495,337,34477,1,2,0:1:0:0:
502,293,34581,1,2,1:2:0:0:
429,307,34789,1,2,0:1:0:0:
341,286,34997,6,0,L|333:229,1,45,2|0,3:2|0:0,0:0:0:0:
272,195,35205,2,0,L|264:138,1,45,0|2,0:3|0:1,0:0:0:0:
356,121,35414,2,0,B|388:108|388:108|378:172,1,90,2|0,1:2|0:0,0:0:0:0:
324,32,35830,6,0,L|372:34,1,45,2|2,3:2|0:1,0:0:0:0:
446,59,36039,2,0,L|494:61,1,45,0|2,0:3|0:1,0:0:0:0:
469,144,36247,2,0,B|456:196|456:196|464:241,1,90,2|2,1:2|0:1,0:0:0:0:
341,299,36664,6,0,P|331:263|334:245,1,45,2|0,3:2|0:0,0:0:0:0:
370,183,36872,2,0,P|368:154|356:135,1,45,0|2,0:3|0:1,0:0:0:0:
271,203,37080,2,0,L|176:216,1,90,2|2,1:2|0:1,0:0:0:0:
229,317,37497,5,2,3:2:0:0:
118,265,37705,1,2,0:1:0:0:
73,271,37809,1,2,0:1:0:0:
28,277,37913,1,2,1:2:0:0:
36,115,38122,1,2,0:1:0:0:
191,110,38330,5,2,3:2:0:0:
212,91,38434,2,0,L|217:41,2,45,2|0|2,0:1|0:3|0:1,0:0:0:0:
239,174,38747,2,0,P|187:194|146:177,1,90,2|2,1:2|0:1,0:0:0:0:
70,73,39164,5,2,3:2:0:0:
96,53,39268,2,0,L|82:152,1,90,2|2,0:1|0:1,0:0:0:0:
71,235,39580,2,0,P|109:231|87:256,1,90,2|2,1:2|0:1,0:0:0:0:
26,348,39997,5,2,3:2:0:0:
171,328,40205,1,2,3:1:0:0:
184,316,40309,2,0,L|188:269,1,45,2|2,3:1|1:2,0:0:0:0:
195,200,40518,2,0,B|185:229|212:241|212:241|267:234,1,90,0|0,3:0|0:0,0:0:0:0:
310,184,40830,5,2,3:2:0:0:
341,172,40934,1,8,0:2:0:0:
375,174,41038,1,2,0:1:0:0:
406,187,41142,1,8,0:2:0:0:
430,210,41247,1,2,1:2:0:0:
439,230,41351,1,8,0:2:0:0:
441,252,41455,1,2,0:1:0:0:
437,274,41559,1,8,0:2:0:0:
426,294,41664,6,0,L|338:288,1,72,4|2,3:1|0:0,0:0:0:0:
354,289,42289,1,2,0:0:0:0:
107,201,43330,6,0,L|189:209,1,72,2|2,0:0|0:0,0:0:0:0:
178,207,43955,2,0,P|207:174|202:102,1,108,2|0,0:0|0:0,0:0:0:0:
177,95,44372,1,2,0:0:0:0:
149,81,44476,1,0,0:0:0:0:
127,70,44580,2,0,L|131:155,1,72,2|2,0:0|0:0,0:0:0:0:
139,274,44997,6,0,L|221:262,1,72,2|2,0:0|0:0,0:0:0:0:
291,308,45414,2,0,B|317:332|317:332|364:316,1,72,0|2,0:0|0:0,0:0:0:0:
398,249,45830,2,0,L|481:238,1,72,0|0,0:0|0:0,0:0:0:0:
483,229,46143,2,0,L|400:240,1,72,0|0,0:0|0:0,0:0:0:0:
344,191,46455,1,0,0:0:0:0:
437,102,46664,5,2,0:0:0:0:
344,191,46872,2,0,B|264:184|264:184|287:147,1,108,2|0,0:0|0:0,0:0:0:0:
312,96,47289,2,0,B|327:63|327:63|314:28|314:28|267:28,1,108,2|0,0:0|0:0,0:0:0:0:
221,69,47705,2,0,B|192:96|192:96|118:86,1,108,0|0,0:0|0:0,0:0:0:0:
53,73,48122,1,0,0:0:0:0:
93,188,48330,5,6,0:0:0:0:
93,188,48434,2,0,L|84:272,1,80.9999975280763,0|0,0:0|0:0,0:0:0:0:
31,334,48747,2,0,B|60:352|60:352|116:346,1,80.9999975280763,2|0,0:1|0:0,0:0:0:0:
219,316,49164,2,0,L|207:232,1,80.9999975280763,2|0,0:0|0:0,0:0:0:0:
193,248,49476,2,0,L|205:332,1,80.9999975280763,2|0,0:0|0:0,0:0:0:0:
289,354,49789,1,2,0:0:0:0:
358,251,49997,6,0,L|405:248,2,40.4999987640381,0|0|0,0:0|0:0|0:0,0:0:0:0:
306,185,50414,2,0,B|273:210|273:210|278:265,1,80.9999975280763,2|0,0:0|0:0,0:0:0:0:
322,322,50830,2,0,P|379:332|429:293,2,121.499996292114,2|2|2,0:0|0:0|0:0,0:0:0:0:
240,328,51664,6,0,L|193:334,3,40.4999987640381,10|8|8|8,0:0|0:0|0:0|0:0,0:0:0:0:
114,269,52080,2,0,L|168:276,3,40.4999987640381,8|8|10|8,0:0|0:0|0:0|0:0,0:0:0:0:
213,216,52497,1,10,0:0:0:0:
192,201,52601,1,8,0:0:0:0:
168,194,52705,1,8,0:0:0:0:
142,197,52809,1,10,0:0:0:0:
120,210,52913,1,8,0:0:0:0:
99,222,53018,1,8,0:0:0:0:
73,225,53122,1,10,0:0:0:0:
49,219,53226,1,8,0:0:0:0:
28,204,53330,6,0,L|33:168,14,20.2499993820191,8|8|8|8|10|8|8|8|10|8|8|8|8|8|8,0:0|0:0|0:0|0:0|0:0|0:0|0:0|0:0|0:0|0:0|0:0|0:0|0:0|0:0|0:0,0:0:0:0:
59,157,54164,2,0,L|55:126,6,20.2499993820191,10|8|8|8|8|8|10,0:0|0:0|0:0|0:0|0:0|0:0|0:0,0:0:0:0:
54,97,54580,5,2,0:1:0:0:
98,110,54684,1,2,0:1:0:0:
142,99,54789,1,2,0:1:0:0:
175,67,54893,1,2,0:1:0:0:
187,23,54997,5,4,3:1:0:0:
222,153,55205,1,2,0:1:0:0:
292,108,55414,1,2,1:0:0:0:
270,27,55622,1,2,0:1:0:0:
157,100,55830,2,0,B|140:154|140:154|166:215,1,112.5,2|2,3:1|0:1,0:0:0:0:
53,158,56247,2,0,B|74:210|74:210|53:275,1,112.5,2|2,1:0|0:1,0:0:0:0:
118,349,56664,5,2,3:1:0:0:
153,219,56872,1,2,0:1:0:0:
223,264,57081,1,2,1:0:0:0:
201,345,57289,1,2,0:1:0:0:
88,272,57497,5,2,3:1:0:0:
62,242,57601,1,0,0:0:0:0:
72,204,57705,1,2,0:1:0:0:
151,109,57914,1,2,1:0:0:0:
266,153,58122,1,2,0:1:0:0:
244,299,58330,5,2,3:1:0:0:
202,217,58539,1,2,0:1:0:0:
266,153,58747,1,2,1:0:0:0:
347,194,58955,1,2,0:1:0:0:
331,284,59164,2,0,B|294:325|294:325|234:294,1,112.5,2|0,3:1|0:0,0:0:0:0:
403,260,59580,1,2,1:0:0:0:
277,215,59789,1,2,0:1:0:0:
425,114,59997,5,2,3:1:0:0:
361,178,60206,1,2,0:1:0:0:
403,260,60414,1,2,1:0:0:0:
493,245,60622,1,2,0:1:0:0:
506,154,60830,2,0,B|476:141|476:141|489:226,1,112.5,2|2,3:1|0:1,0:0:0:0:
504,52,61247,5,2,1:0:0:0:
476,46,61351,1,2,0:1:0:0:
448,50,61455,1,2,0:1:0:0:
423,62,61559,1,2,0:1:0:0:
405,83,61664,5,2,3:1:0:0:
274,52,61872,1,2,0:1:0:0:
351,20,62080,1,2,1:0:0:0:
362,155,62288,1,2,0:1:0:0:
263,249,62497,2,0,L|280:118,1,112.5,2|2,3:1|0:1,0:0:0:0:
187,54,62914,2,0,B|145:97|145:97|160:152,1,112.5,2|2,1:0|0:1,0:0:0:0:
282,118,63330,5,2,3:1:0:0:
145,96,63539,1,2,0:1:0:0:
205,156,63747,1,2,1:0:0:0:
183,19,63955,1,2,0:1:0:0:
74,66,64164,5,2,3:1:0:0:
106,174,64372,1,2,0:1:0:0:
12,243,64580,1,2,1:0:0:0:
139,297,64789,1,2,0:1:0:0:
5,328,64997,5,2,3:1:0:0:
139,297,65205,1,2,0:1:0:0:
12,243,65414,1,2,1:0:0:0:
82,360,65622,1,2,0:1:0:0:
238,315,65830,2,0,B|242:252|242:252|229:193,1,112.5,2|2,3:1|0:1,0:0:0:0:
346,257,66247,2,0,B|335:194|335:194|342:136,1,112.5,2|2,1:0|0:1,0:0:0:0:
463,319,66664,5,2,3:1:0:0:
315,361,66872,1,2,3:1:0:0:
334,330,66976,1,2,0:1:0:0:
340,202,67184,1,0,3:0:0:0:
357,233,67288,1,8,0:0:0:0:
251,250,67497,6,0,L|192:262,3,56.25,0|8|2|2,3:0|0:0|0:1|0:1,0:0:0:0:
133,256,67914,1,0,1:0:0:0:
155,272,68018,1,8,0:0:0:0:
164,298,68122,1,8,0:0:0:0:
157,324,68226,1,8,0:0:0:0:
136,342,68330,6,0,P|55:336|-1:344,1,112.5,2|2,3:2|0:1,0:0:0:0:
211,374,68747,1,2,1:2:0:0:
317,311,68955,1,2,0:1:0:0:
272,191,69164,6,0,L|217:202,1,56.25,2|0,3:2|0:0,0:0:0:0:
147,95,69372,1,8,0:0:0:0:
133,122,69476,1,8,0:0:0:0:
120,147,69580,2,0,L|232:125,1,112.5,2|2,1:2|0:1,0:0:0:0:
342,40,69997,6,0,P|332:101|349:155,1,112.5,2|2,3:2|0:1,0:0:0:0:
411,9,70414,1,2,1:2:0:0:
266,66,70622,1,2,0:1:0:0:
147,47,70830,6,0,P|118:106|135:157,1,112.5,2|2,3:2|0:1,0:0:0:0:
247,247,71247,1,2,1:2:0:0:
261,231,71351,1,0,0:0:0:0:
271,213,71455,1,2,0:1:0:0:
275,192,71559,1,0,0:0:0:0:
273,171,71664,6,0,L|158:186,1,112.5,2|2,3:2|0:1,0:0:0:0:
83,76,72080,1,2,1:2:0:0:
8,178,72289,1,2,0:1:0:0:
24,289,72497,6,0,L|84:286,1,56.25,2|0,3:2|0:0,0:0:0:0:
205,258,72705,1,0,0:0:0:0:
179,238,72809,1,8,0:0:0:0:
152,219,72914,2,0,L|163:337,1,112.5,2|2,1:2|0:1,0:0:0:0:
309,323,73330,6,0,P|335:288|314:229,1,101.250003862381,2|0,3:2|0:0,0:0:0:0:
264,173,73747,6,0,P|347:177|370:125,1,135,2|0,1:2|0:0,0:0:0:0:
353,61,74164,6,0,P|416:128|482:111,1,168.75,2|0,3:2|0:0,0:0:0:0:
510,32,74580,6,0,B|493:99|493:99|489:192,1,135.000005149842,2|2,1:2|0:1,0:0:0:0:
393,275,74997,6,0,P|451:275|504:289,1,112.5,2|2,3:2|0:1,0:0:0:0:
379,201,75414,1,2,1:2:0:0:
356,363,75622,1,2,0:1:0:0:
216,358,75830,6,0,L|225:296,1,56.25,2|0,3:2|0:0,0:0:0:0:
249,185,76039,1,8,0:0:0:0:
253,212,76143,1,8,0:0:0:0:
257,240,76247,2,0,P|187:269|135:255,1,112.5,2|2,1:2|0:1,0:0:0:0:
31,177,76664,6,0,B|78:147|78:147|152:170,1,112.5,2|2,3:2|0:1,0:0:0:0:
4,104,77080,1,2,1:2:0:0:
118,20,77289,1,2,0:1:0:0:
214,138,77497,2,0,B|252:153|252:153|327:139,1,112.5,2|2,3:2|0:1,0:0:0:0:
451,74,77914,1,2,1:2:0:0:
263,63,78122,1,2,0:1:0:0:
329,206,78330,5,2,3:2:0:0:
360,58,78539,2,0,L|381:-1,2,56.25,2|0|2,0:1|0:0|1:2,0:0:0:0:
248,159,78955,1,2,0:1:0:0:
174,97,79164,5,2,3:2:0:0:
209,8,79372,1,2,0:1:0:0:
329,108,79580,5,2,1:2:0:0:
306,16,79789,1,2,0:1:0:0:
248,159,79997,6,0,P|246:213|289:261,1,112.5,6|2,1:2|0:1,0:0:0:0:
425,206,80309,2,0,P|379:177|316:190,1,112.5,4|0,3:2|0:0,0:0:0:0:
295,335,80622,2,0,P|342:309|362:248,1,112.5,4|2,3:2|0:1,0:0:0:0:
171,214,81039,6,0,L|180:167,1,33.7500012874604,8|8,0:0|0:0,0:0:0:0:
162,246,81247,5,2,3:2:0:0:
140,259,81351,1,8,0:0:0:0:
116,264,81455,1,0,3:2:0:0:
91,258,81559,1,8,0:0:0:0:
71,243,81663,1,4,3:2:0:0:
253,245,84580,6,0,L|333:226,1,67.5000025749208,4|4,3:1|3:1,0:0:0:0:
318,229,84997,1,4,3:1:0:0:
221,54,86455,6,0,L|152:48,1,67.5000025749208,4|4,3:1|3:1,0:0:0:0:
65,138,86872,6,0,L|113:135,2,45,8|8|8,0:0|0:0|0:0,0:0:0:0:
201,225,87289,2,0,L|143:222,2,45,8|8|0,0:0|0:0|3:0,0:0:0:0:
63,320,87705,2,0,L|120:311,1,45,0|8,3:0|0:0,0:0:0:0:
128,315,87914,5,8,0:0:0:0:
150,317,88018,1,8,0:0:0:0:
172,319,88122,1,0,3:0:0:0:
195,321,88226,1,8,0:0:0:0:
217,324,88330,1,4,3:2:0:0:
363,343,88539,6,2,P|379:312|369:276,1,56.25,2|0,0:1|0:0,0:0:0:0:
449,240,88747,2,0,P|429:210|398:200,1,56.25,2|0,1:0|0:0,0:0:0:0:
394,120,88955,2,0,P|359:121|325:146,1,56.25,2|0,0:1|0:0,0:0:0:0:
309,227,89164,6,0,P|242:254|164:197,1,168.75,2|0,3:1|0:0,0:0:0:0:
154,110,89580,1,2,1:0:0:0:
255,61,89789,1,2,0:1:0:0:
247,172,89997,1,2,3:1:0:0:
69,223,90205,6,0,B|52:247|52:247|53:286,1,56.25,2|0,0:1|0:0,0:0:0:0:
132,294,90414,2,0,B|149:273|149:273|147:222,1,56.25,2|0,1:0|0:0,0:0:0:0:
130,161,90622,1,2,0:1:0:0:
76,85,90830,5,2,3:1:0:0:
215,122,91039,1,2,0:1:0:0:
159,52,91247,5,2,1:0:0:0:
298,89,91456,1,2,0:1:0:0:
437,126,91664,6,0,L|441:184,3,45,10|8|10|8,3:2|0:2|0:2|0:2,0:0:0:0:
485,233,92080,2,0,L|475:293,3,45,10|8|10|8,1:2|0:2|0:2|0:2,0:0:0:0:
512,341,92497,5,10,3:2:0:0:
492,352,92601,1,8,0:2:0:0:
470,355,92705,1,10,0:2:0:0:
448,350,92809,1,8,0:2:0:0:
430,337,92913,1,10,1:2:0:0:
411,324,93018,1,8,0:2:0:0:
389,318,93122,1,10,0:2:0:0:
367,322,93226,1,8,0:2:0:0:
344,333,93330,6,0,L|311:328,4,22.5,12|8|8|8|8,3:2|0:0|0:0|0:0|0:0,0:0:0:0:
253,272,93643,6,0,L|218:266,4,28.125,12|8|8|8|8,3:2|0:0|0:0|0:0|0:0,0:0:0:0:
150,217,93955,6,0,L|103:209,10,33.7500012874604,12|8|8|8|8|8|8|8|8|8|8,3:2|0:0|0:0|0:0|0:0|0:0|0:0|0:0|0:0|0:0|0:0,0:0:0:0:
85,134,94580,5,2,0:1:0:0:
50,160,94684,1,2,0:1:0:0:
32,200,94789,1,0,0:0:0:0:
37,243,94893,1,0,0:0:0:0:
63,278,94997,5,4,3:1:0:0:
174,262,95205,1,2,0:1:0:0:
158,151,95414,1,2,1:0:0:0:
47,167,95622,1,2,0:1:0:0:
174,262,95830,6,0,P|238:267|284:238,1,112.5,2|2,3:1|0:1,0:0:0:0:
296,211,96143,1,0,0:0:0:0:
298,169,96247,1,2,1:0:0:0:
209,100,96455,1,2,0:1:0:0:
314,58,96664,5,2,3:1:0:0:
425,74,96872,1,2,0:1:0:0:
409,185,97081,1,2,1:0:0:0:
298,169,97289,1,2,0:1:0:0:
425,74,97497,5,2,3:1:0:0:
497,148,97705,1,2,0:1:0:0:
445,248,97914,1,2,1:0:0:0:
512,364,98122,1,2,0:1:0:0:
382,344,98330,5,2,3:1:0:0:
264,355,98539,1,2,0:1:0:0:
253,237,98747,1,2,1:0:0:0:
371,226,98955,1,2,0:1:0:0:
264,355,99164,6,0,P|214:363|142:345,1,112.5,2|2,3:1|0:1,0:0:0:0:
124,333,99476,1,0,0:0:0:0:
96,309,99580,1,2,1:0:0:0:
169,206,99789,1,2,0:1:0:0:
158,88,99997,5,2,3:1:0:0:
40,99,100205,1,2,0:1:0:0:
51,217,100413,1,2,1:0:0:0:
169,206,100622,1,2,0:1:0:0:
40,99,100830,5,2,3:1:0:0:
158,88,101039,1,2,0:1:0:0:
309,33,101247,5,2,1:0:0:0:
330,50,101351,1,2,0:1:0:0:
343,75,101455,1,2,0:1:0:0:
343,103,101559,1,2,0:1:0:0:
332,128,101663,5,2,3:1:0:0:
254,225,101872,1,2,0:1:0:0:
157,146,102080,1,2,1:0:0:0:
236,50,102289,1,2,0:1:0:0:
254,225,102497,6,0,L|245:339,1,112.5,2|2,3:1|0:1,0:0:0:0:
171,275,102809,1,0,0:0:0:0:
152,254,102914,2,0,L|165:368,1,112.5,2|2,1:0|0:1,0:0:0:0:
332,321,103330,5,2,3:1:0:0:
429,243,103539,1,2,0:1:0:0:
350,146,103747,1,2,1:0:0:0:
254,225,103956,1,2,0:1:0:0:
429,243,104164,5,2,3:1:0:0:
484,164,104372,1,2,0:1:0:0:
396,89,104580,1,2,1:0:0:0:
498,25,104789,1,2,0:1:0:0:
361,14,104997,5,2,3:1:0:0:
252,42,105205,1,2,0:1:0:0:
280,151,105414,1,2,1:0:0:0:
389,123,105622,1,2,0:1:0:0:
252,42,105830,6,0,P|188:32|149:58,1,112.5,2|2,3:1|0:1,0:0:0:0:
102,126,106143,1,0,0:0:0:0:
63,123,106247,2,0,P|17:79|31:23,1,112.5,2|2,1:0|0:1,0:0:0:0:
105,217,106664,5,2,3:1:0:0:
213,282,106872,5,2,3:1:0:0:
185,278,106976,1,2,0:1:0:0:
157,274,107080,1,2,1:0:0:0:
179,190,107289,2,0,L|238:199,1,56.25,2|2,0:1|0:1,0:0:0:0:
256,208,107497,5,2,3:1:0:0:
275,222,107601,1,8,0:0:0:0:
290,241,107705,1,2,0:1:0:0:
299,264,107809,1,2,0:1:0:0:
301,289,107913,1,0,1:0:0:0:
296,313,108017,1,8,0:0:0:0:
284,334,108122,1,8,0:0:0:0:
266,351,108226,1,8,0:0:0:0:
245,363,108330,5,4,3:1:0:0:
105,348,108539,1,2,0:1:0:0:
184,289,108747,5,2,1:0:0:0:
44,274,108956,1,2,0:1:0:0:
124,181,109164,6,0,L|239:169,1,112.5,2|2,3:1|0:1,0:0:0:0:
157,96,109476,1,0,0:0:0:0:
157,96,109580,2,0,L|272:84,1,112.5,2|2,1:0|0:1,0:0:0:0:
442,75,109997,5,2,3:1:0:0:
426,220,110205,1,2,0:1:0:0:
348,137,110414,5,2,1:0:0:0:
332,282,110622,1,2,0:1:0:0:
216,255,110830,6,0,L|202:141,1,112.5,2|2,3:1|0:1,0:0:0:0:
138,323,111247,2,0,L|124:209,1,112.5,2|2,1:0|0:1,0:0:0:0:
64,31,111664,6,0,L|123:36,3,56.25,2|2|2|2,3:1|0:1|0:1|0:1,0:0:0:0:
85,106,112080,2,0,L|144:111,3,56.25,2|0|2|0,1:0|0:1|0:1|0:1,0:0:0:0:
200,56,112497,5,2,3:1:0:0:
227,49,112601,1,2,0:1:0:0:
255,51,112705,1,2,0:1:0:0:
281,60,112809,1,2,0:1:0:0:
307,72,112913,1,2,1:0:0:0:
333,81,113017,1,0,0:1:0:0:
361,84,113122,1,2,0:1:0:0:
389,82,113226,1,0,0:1:0:0:
416,74,113330,6,0,L|426:17,3,56.25,2|2|2|2,3:1|0:1|0:1|0:1,0:0:0:0:
482,121,113747,2,0,L|491:63,3,56.25,2|0|2|0,1:0|0:0|0:1|0:1,0:0:0:0:
412,183,114164,5,2,3:1:0:0:
388,168,114268,1,2,0:1:0:0:
360,168,114372,1,2,0:1:0:0:
336,182,114476,1,2,0:1:0:0:
324,207,114580,1,2,1:0:0:0:
326,235,114684,1,0,0:1:0:0:
342,257,114789,1,2,0:1:0:0:
367,268,114893,1,0,0:1:0:0:
395,264,114997,5,2,3:1:0:0:
267,323,115205,1,2,0:1:0:0:
284,214,115414,5,2,1:0:0:0:
156,272,115622,1,2,0:1:0:0:
67,152,115830,6,0,L|192:176,1,112.5,2|2,3:1|0:1,0:0:0:0:
133,78,116143,1,0,0:0:0:0:
133,78,116247,2,0,L|258:102,1,112.5,2|2,1:0|0:1,0:0:0:0:
327,61,116664,5,2,3:1:0:0:
353,205,116872,1,2,0:1:0:0:
433,126,117080,5,2,1:0:0:0:
459,270,117288,1,2,0:1:0:0:
327,299,117497,6,0,P|264:283|210:303,1,112.5,2|2,3:1|0:1,0:0:0:0:
95,215,117914,2,0,P|158:231|212:211,1,112.5,2|2,1:0|0:1,0:0:0:0:
290,89,118330,6,0,L|233:96,3,56.25,2|8|8|8,3:1|0:0|0:0|0:0,0:0:0:0:
160,50,118747,2,0,L|103:57,3,56.25,2|0|8|8,1:0|0:0|0:0|0:0,0:0:0:0:
70,132,119164,5,2,3:1:0:0:
58,157,119268,1,8,0:0:0:0:
53,185,119372,1,8,0:0:0:0:
55,213,119476,1,8,0:0:0:0:
67,238,119580,1,2,1:0:0:0:
79,263,119684,1,8,0:0:0:0:
82,291,119789,1,8,0:0:0:0:
76,319,119893,1,8,0:0:0:0:
64,344,119997,6,0,L|2:333,3,56.25,2|8|8|8,3:1|0:0|0:0|0:0,0:0:0:0:
153,329,120414,2,0,L|212:336,3,56.25,2|0|8|8,1:0|0:0|0:0|0:0,0:0:0:0:
241,231,120830,5,2,3:1:0:0:
261,212,120934,1,8,0:0:0:0:
288,204,121038,1,8,0:0:0:0:
316,208,121142,1,8,0:0:0:0:
339,223,121247,1,2,1:0:0:0:
362,238,121351,1,8,0:0:0:0:
389,244,121455,1,8,0:0:0:0:
417,242,121559,1,8,0:0:0:0:
443,231,121664,6,0,L|435:168,3,56.25,6|0|2|0,3:2|0:0|0:1|0:0,0:0:0:0:
383,67,122080,2,0,L|374:130,3,56.25,2|0|2|0,1:2|0:0|0:1|0:0,0:0:0:0:
338,271,122497,6,0,L|329:207,1,56.25,2|0,3:2|0:0,0:0:0:0:
277,106,122705,2,0,L|268:169,1,56.25,2|0,0:1|0:0,0:0:0:0:
232,310,122914,6,0,L|223:246,1,56.25,2|0,1:2|0:0,0:0:0:0:
171,145,123122,2,0,L|162:208,1,56.25,2|0,0:1|0:0,0:0:0:0:
126,349,123330,6,0,P|86:351|69:338,3,56.25,2|0|2|0,3:2|0:0|0:1|0:0,0:0:0:0:
29,227,123747,2,0,P|64:245|72:265,3,56.25,2|0|2|0,1:2|0:0|0:1|0:0,0:0:0:0:
208,283,124164,6,0,P|168:285|151:272,1,56.25,2|0,3:2|0:0,0:0:0:0:
111,161,124372,2,0,P|146:179|154:199,1,56.25,2|0,0:1|0:0,0:0:0:0:
290,217,124580,6,0,P|250:219|233:206,1,56.25,2|0,1:2|0:0,0:0:0:0:
193,95,124789,2,0,P|228:113|236:133,1,56.25,2|0,0:1|0:0,0:0:0:0:
372,151,124997,5,2,3:2:0:0:
344,148,125101,1,8,0:2:0:0:
321,132,125205,1,8,0:2:0:0:
309,107,125309,1,8,0:2:0:0:
310,79,125413,1,2,1:2:0:0:
326,56,125517,1,8,0:2:0:0:
350,43,125622,1,8,0:2:0:0:
378,44,125726,1,8,0:2:0:0:
402,59,125830,5,2,3:2:0:0:
369,70,125934,1,8,0:2:0:0:
334,72,126038,1,8,0:2:0:0:
299,66,126142,1,8,0:2:0:0:
267,53,126246,1,2,1:2:0:0:
232,46,126350,1,8,0:2:0:0:
197,44,126455,1,8,0:2:0:0:
163,50,126559,1,8,0:2:0:0:
131,65,126664,6,0,L|138:117,14,28.125,10|8|8|8|8|8|8|8|10|8|8|8|8|8|8,3:2|0:0|0:2|0:0|3:2|0:0|0:2|0:0|1:2|0:0|3:2|0:0|0:2|0:0|0:2,0:0:0:0:
123,121,127497,6,0,L|130:173,14,28.125,10|8|8|8|8|8|8|8|10|8|8|8|8|8|8,3:2|0:0|0:2|0:0|0:2|0:0|0:2|0:0|1:2|0:0|0:2|0:0|3:2|0:0|0:2,0:0:0:0:
115,177,128330,5,4,0:0:0:0:
256,192,128434,12,0,129372,0:0:0:0:
