osu file format v14

[General]
AudioFilename: audio.mp3
AudioLeadIn: 0
PreviewTime: 51611
Countdown: 1
SampleSet: Soft
StackLeniency: 0.5
Mode: 0
LetterboxInBreaks: 0
WidescreenStoryboard: 1

[Editor]
Bookmarks: 31403
DistanceSpacing: 1.4
BeatDivisor: 8
GridSize: 16
TimelineZoom: 1.9

[Metadata]
Title:Open Your Mind
TitleUnicode:Open Your Mind
Artist:Red Pulse
ArtistUnicode:Red Pulse
Creator:wyrio
Version:Hard
Source:O2Jam
Tags:O2Jam O2 Jam Lunala Voicehe VoiceCore Ujimatcha Video Game MUG Music Korean
BeatmapID:2254089
BeatmapSetID:972185

[Difficulty]
HPDrainRate:5
CircleSize:4
OverallDifficulty:6
ApproachRate:7
SliderMultiplier:1.3
SliderTickRate:1

[Events]
//Background and Video events
0,0,"open your mind.jpg",0,0
//Break Periods
2,42697,47430
//Storyboard Layer 0 (Background)
//Storyboard Layer 1 (Fail)
//Storyboard Layer 2 (Pass)
//Storyboard Layer 3 (Foreground)
//Storyboard Layer 4 (Overlay)
//Storyboard Sound Samples

[TimingPoints]
1664,416.666666666667,4,2,1,35,1,0
1664,-133.333333333333,4,2,1,35,0,0
11664,-100,4,2,1,50,0,0
13330,-100,4,2,1,35,0,0
14997,-133.333333333333,4,2,1,60,0,0
19997,-133.333333333333,4,2,1,45,0,0
21664,-133.333333333333,4,2,1,60,0,0
26664,-133.333333333333,4,2,1,45,0,0
27497,-133.333333333333,4,2,1,35,0,0
28330,-100,4,2,1,70,0,0
41664,-285.714285714286,4,2,1,40,0,0
49164,-133.333333333333,4,2,1,40,0,0
51664,-133.333333333333,4,2,1,35,0,0
54580,-133.333333333333,4,2,1,60,0,0
54997,-133.333333333333,4,2,1,80,0,0
55414,-100,4,2,1,80,0,0
81664,-133.333333333333,4,2,1,80,0,0
84580,-133.333333333333,4,2,1,60,0,0
87289,-133.333333333333,4,2,1,70,0,0
88330,-100,4,2,1,70,0,0
93330,-100,4,2,1,55,0,0
94997,-90.9090909090909,4,2,1,80,0,1
121664,-90.9090909090909,4,2,1,90,0,1
128330,-250,4,2,1,90,0,0

[Colours]
Combo1 : 128,255,128
Combo2 : 255,128,128
Combo3 : 128,255,255
Combo4 : 255,255,128

[HitObjects]
88,219,1247,6,0,L|141:241,3,32.5,2|2|2|2,0:1|0:1|0:1|0:1,0:0:0:0:
148,246,1664,2,0,P|170:241|222:132,1,146.250005578995,2|0,0:0|0:0,0:0:0:0:
224,141,3330,2,0,P|239:189|246:253,1,97.50000371933,2|2,0:1|0:1,0:0:0:0:
324,264,3955,2,0,P|298:316|280:372,2,97.50000371933,2|2|2,0:1|0:3|0:3,0:0:0:0:
383,201,4997,6,0,P|419:195|464:191,2,73.1250027894975,2|2|0,0:0|0:0|0:0,0:0:0:0:
325,264,5830,1,2,0:0:0:0:
187,223,6247,1,0,0:0:0:0:
187,223,6455,2,0,P|131:188|93:173,2,97.50000371933,2|2|2,0:1|0:1|0:1,0:0:0:0:
79,100,7705,5,2,0:1:0:0:
164,100,7914,2,0,L|174:67,3,24.3750009298325,2|0|0|0,0:1|0:0|0:0|0:0,0:0:0:0:
174,56,8330,6,0,P|215:47|261:23,2,73.1250027894975,2|2|0,0:0|0:1|0:0,0:0:0:0:
87,27,9164,2,0,P|45:14|2:12,2,73.1250027894975,2|2|2,0:0|0:0|0:0,0:0:0:0:
110,114,9997,5,2,0:0:0:0:
110,114,10205,1,2,0:0:0:0:
66,193,10414,2,0,L|1:178,1,48.750001859665,2|0,0:0|0:0,0:0:0:0:
0,276,10830,2,0,B|41:276|90:270,2,73.1250027894975,2|2|0,0:0|0:0|0:0,0:0:0:0:
18,182,11664,5,8,0:0:0:0:
256,192,11768,12,4,14997,3:1:0:0:
414,137,16664,6,0,L|403:56,2,73.1250027894975,2|2|0,0:0|0:0|0:0,0:0:0:0:
369,345,17705,1,0,0:0:0:0:
297,309,17914,1,4,0:1:0:0:
297,309,18122,1,4,0:1:0:0:
246,235,18330,6,0,P|186:207|160:200,2,73.1250027894975,4|8|8,0:1|0:0|0:0,0:0:0:0:
267,105,19997,2,0,P|304:99|358:82,2,73.1250027894975,8|8|8,0:0|0:0|0:0,0:0:0:0:
64,107,21247,2,0,B|72:74|72:74|86:66|86:66|96:22,1,73.1250027894975,8|8,0:0|0:0,0:0:0:0:
99,30,21664,6,0,P|47:40|11:47,2,73.1250027894975,4|2|2,3:2|0:1|0:1,0:0:0:0:
147,124,22497,1,0,3:0:0:0:
147,124,22705,1,0,0:0:0:0:
101,214,22914,1,2,3:1:0:0:
101,214,23122,1,2,0:1:0:0:
156,286,23330,6,0,P|202:292|242:298,2,73.1250027894975,2|2|0,3:1|0:1|0:0,0:0:0:0:
88,354,24164,1,0,3:0:0:0:
88,354,24372,1,2,0:1:0:0:
21,281,24580,2,0,P|12:240|6:215,1,48.750001859665,2|2,3:1|0:1,0:0:0:0:
74,158,24997,6,0,P|29:150|-8:148,2,73.1250027894975,2|8|8,3:1|0:0|0:0,0:0:0:0:
156,117,25830,1,0,0:0:0:0:
156,117,26039,1,8,0:0:0:0:
236,157,26247,1,8,3:2:0:0:
315,110,26455,1,8,0:0:0:0:
389,157,26664,6,0,L|457:168,1,48.750001859665,8|8,3:2|0:0,0:0:0:0:
506,249,27080,2,0,P|516:281|518:283,3,24.3750009298325,8|8|8|8,3:2|0:0|0:0|0:0,0:0:0:0:
512,307,27497,2,0,P|501:340|497:348,3,24.3750009298325,8|8|8|8,3:2|0:0|0:0|0:0,0:0:0:0:
486,354,27914,2,0,B|467:344|467:344|447:340,3,24.3750009298325,8|8|8|8,3:2|0:0|0:0|0:0,0:0:0:0:
440,331,28330,6,0,P|396:356|339:378,1,97.5,2|2,3:2|0:1,0:0:0:0:
292,237,28955,1,2,0:1:0:0:
292,237,29164,2,0,P|236:230|187:209,1,97.5,2|2,3:2|0:1,0:0:0:0:
145,60,29789,1,2,0:1:0:0:
145,60,29997,6,0,L|254:76,1,97.5,2|2,3:2|0:1,0:0:0:0:
367,7,30622,1,2,0:1:0:0:
386,88,30830,2,0,P|401:93|444:81,3,32.5,2|2|2|2,3:2|0:1|0:1|0:1,0:0:0:0:
449,80,31247,2,0,L|462:157,1,65,2|2,1:2|0:1,0:0:0:0:
377,203,31664,6,0,P|322:198|282:179,1,97.5,2|2,3:2|0:1,0:0:0:0:
140,247,32289,1,2,0:1:0:0:
140,247,32497,2,0,P|191:251|252:288,1,97.5,2|2,3:2|0:1,0:0:0:0:
394,343,33122,1,2,0:1:0:0:
394,343,33330,6,0,L|504:314,1,97.5,2|2,3:2|0:1,0:0:0:0:
472,54,33955,1,2,0:1:0:0:
403,112,34164,1,2,3:2:0:0:
386,19,34372,1,2,0:1:0:0:
386,19,34476,1,2,0:1:0:0:
386,19,34580,2,0,L|319:28,1,65,2|2,1:2|0:1,0:0:0:0:
226,75,34997,6,0,B|259:84|259:84|278:100|278:100|321:109,1,97.5,2|2,3:2|0:1,0:0:0:0:
407,243,35622,1,2,0:1:0:0:
407,243,35830,2,0,B|382:267|382:267|359:275|359:275|330:308,1,97.5,2|2,3:2|0:1,0:0:0:0:
148,307,36455,1,2,0:1:0:0:
148,307,36664,6,0,B|139:273|139:273|143:249|143:249|129:207,1,97.5,2|2,3:2|0:1,0:0:0:0:
226,75,37289,1,2,0:1:0:0:
144,61,37497,2,0,P|128:80|111:89,3,32.5,2|0|2|2,3:2|0:0|0:1|0:1,0:0:0:0:
105,96,37914,2,0,L|34:89,1,65,2|0,1:2|0:0,0:0:0:0:
11,172,38330,6,0,L|129:180,1,97.5,2|2,3:2|0:1,0:0:0:0:
292,188,38955,1,2,0:1:0:0:
382,169,39164,2,0,P|371:154|373:123,3,32.5,2|2|0|2,3:2|0:1|0:3|0:1,0:0:0:0:
363,111,39580,2,0,L|378:35,1,65,2|2,1:2|0:1,0:0:0:0:
471,21,39997,5,2,3:2:0:0:
489,116,40205,1,2,3:1:0:0:
489,116,40309,1,2,3:1:0:0:
489,116,40414,1,2,1:2:0:0:
502,212,40622,1,2,0:1:0:0:
492,208,40726,1,8,0:0:0:0:
483,203,40830,2,0,L|430:194,3,32.5,2|8|2|8,3:2|0:2|0:1|0:2,0:0:0:0:
417,225,41247,2,0,L|426:267,3,32.5,2|8|2|8,1:2|0:2|0:1|0:2,0:0:0:0:
415,297,41664,6,0,L|321:284,1,90.9999972229005,4|0,3:1|0:0,0:0:0:0:
411,86,48330,5,6,0:0:0:0:
294,259,48955,1,2,0:0:0:0:
224,215,49164,2,0,P|170:208|145:207,2,73.1250027894975,2|2|2,0:0|0:0|0:0,0:0:0:0:
294,259,49997,6,0,P|332:245|355:239,1,48.750001859665,0|0,0:0|0:0,0:0:0:0:
425,222,50414,2,0,L|420:280,1,48.750001859665,2|0,0:0|0:0,0:0:0:0:
392,350,50830,2,0,B|362:351|362:351|347:356|347:356|307:358,2,73.1250027894975,2|2|2,0:0|0:0|0:0,0:0:0:0:
475,335,51664,5,10,0:0:0:0:
256,192,51768,12,4,54997,3:1:0:0:
130,188,55414,6,0,P|127:232|120:262,1,65,2|2,1:0|0:1,0:0:0:0:
185,317,55830,1,2,3:1:0:0:
269,305,56039,1,2,0:1:0:0:
299,214,56247,2,0,P|339:210|376:204,1,65,2|2,1:0|0:1,0:0:0:0:
420,132,56664,6,0,P|474:139|497:146,2,65,2|2|2,3:1|0:1|1:0,0:0:0:0:
361,58,57289,2,0,B|308:68|308:68|287:83|287:83|225:88,2,130,2|2|2,0:1|0:1|0:1,0:0:0:0:
451,44,58330,5,2,3:1:0:0:
420,132,58539,1,2,0:1:0:0:
393,217,58747,2,0,P|399:261|401:296,1,65,2|2,1:0|0:1,0:0:0:0:
435,360,59164,1,2,3:1:0:0:
486,288,59372,1,2,0:1:0:0:
400,281,59580,2,0,P|366:296|333:304,1,65,2|2,1:0|0:1,0:0:0:0:
247,266,59997,5,2,3:1:0:0:
247,266,60205,2,0,P|164:256|104:256,2,130,2|2|2,0:1|0:1|0:1,0:0:0:0:
269,173,61247,1,2,1:0:0:0:
267,158,61351,1,2,0:1:0:0:
264,146,61455,1,2,0:1:0:0:
262,135,61559,1,2,0:1:0:0:
258,123,61664,6,0,L|181:135,1,65,2|2,3:1|0:1,0:0:0:0:
119,74,62080,2,0,L|41:86,1,65,2|2,1:0|0:1,0:0:0:0:
0,10,62497,2,0,P|50:2|86:-3,1,65,2|2,3:1|0:1,0:0:0:0:
163,2,62914,2,0,L|242:11,1,65,2|2,1:0|0:1,0:0:0:0:
326,0,63330,5,2,3:1:0:0:
364,89,63539,1,2,0:1:0:0:
282,154,63747,2,0,P|300:189|313:226,1,65,2|2,1:0|0:1,0:0:0:0:
398,240,64164,1,2,3:1:0:0:
374,327,64372,1,2,0:1:0:0:
452,371,64580,2,0,L|517:356,1,65,2|2,1:0|0:1,0:0:0:0:
501,268,64997,6,0,L|430:256,1,65,2|2,3:1|0:1,0:0:0:0:
374,327,65414,2,0,P|326:339|300:349,1,65,2|2,1:0|0:1,0:0:0:0:
232,313,65830,2,0,P|216:269|205:247,1,65,2|2,3:1|0:1,0:0:0:0:
120,225,66247,2,0,P|113:260|110:293,1,65,2|2,1:0|0:1,0:0:0:0:
52,358,66664,5,2,3:1:0:0:
18,273,66872,1,2,3:1:0:0:
18,273,66976,1,2,0:1:0:0:
18,273,67080,1,2,1:0:0:0:
82,203,67289,1,8,0:0:0:0:
91,205,67393,1,8,0:0:0:0:
101,207,67497,2,0,L|141:200,3,32.5,0|8|2|2,3:0|0:0|0:1|0:1,0:0:0:0:
155,210,67914,2,0,L|189:201,3,32.5,0|8|8|8,1:0|0:0|0:0|0:0,0:0:0:0:
216,203,68330,6,0,B|228:138|228:138|214:64,1,130,2|2,3:2|1:2,0:0:0:0:
306,29,68955,1,2,0:1:0:0:
216,75,69164,1,2,3:2:0:0:
133,117,69372,1,8,0:0:0:0:
133,117,69476,1,8,0:0:0:0:
133,117,69580,2,0,L|63:98,1,65,2|2,1:2|0:1,0:0:0:0:
0,33,69997,6,0,P|56:27|138:16,1,130,2|2,3:2|1:2,0:0:0:0:
216,75,70622,1,2,0:1:0:0:
216,172,70830,2,0,P|202:231|199:254,1,65,2|2,3:2|0:1,0:0:0:0:
128,311,71247,2,0,P|119:301|115:281,3,32.5,2|0|2|0,1:2|0:0|0:1|0:0,0:0:0:0:
84,266,71664,6,0,L|215:285,1,130,2|2,3:2|1:2,0:0:0:0:
288,352,72289,1,2,0:1:0:0:
386,360,72497,1,2,3:2:0:0:
476,302,72705,1,0,0:0:0:0:
476,302,72809,1,8,0:0:0:0:
476,302,72914,2,0,P|493:249|506:222,1,65,2|2,1:2|0:1,0:0:0:0:
392,183,73330,6,0,P|463:161|517:131,2,130,2|2|2,3:2|1:2|3:2,0:0:0:0:
149,84,74580,2,0,L|165:17,1,65,2|2,1:2|0:1,0:0:0:0:
261,8,74997,6,0,B|302:14|302:14|316:127,1,130,2|2,3:2|1:2,0:0:0:0:
246,168,75622,1,2,0:1:0:0:
157,140,75830,1,2,3:2:0:0:
91,211,76039,1,8,0:0:0:0:
91,211,76143,1,8,0:0:0:0:
91,211,76247,2,0,P|102:250|109:280,1,65,2|2,1:2|0:1,0:0:0:0:
54,350,76664,6,0,P|117:367|180:324,1,130,2|2,3:2|1:2,0:0:0:0:
193,256,77289,1,2,0:1:0:0:
258,313,77497,2,0,P|320:301|349:300,1,65,2|2,3:2|0:1,0:0:0:0:
395,233,77914,2,0,P|343:217|320:197,1,65,2|2,1:2|0:1,0:0:0:0:
300,122,78330,6,0,B|260:112|260:112|243:99|243:99|186:86,2,97.5,2|2|2,3:2|0:0|0:1,0:0:0:0:
369,55,79164,2,0,L|433:45,1,65,2|2,3:2|0:1,0:0:0:0:
444,137,79580,2,0,L|519:155,1,65,2|2,1:2|0:1,0:0:0:0:
502,243,79997,6,0,P|457:254|389:272,2,97.5,6|4|4,1:2|3:2|3:2,0:0:0:0:
508,153,80830,2,0,P|513:122|510:99,3,32.5,2|8|8|8,0:1|0:0|0:0|0:0,0:0:0:0:
512,86,81247,2,0,P|488:48|482:43,3,32.5,2|8|0|8,3:2|0:0|3:2|0:0,0:0:0:0:
468,44,81664,5,4,3:2:0:0:
122,20,84580,6,0,L|190:37,2,48.750001859665,4|4|4,3:1|3:1|3:1,0:0:0:0:
324,241,86455,5,4,3:1:0:0:
245,206,86664,1,4,3:1:0:0:
171,241,86872,1,8,0:0:0:0:
171,241,86976,1,8,0:0:0:0:
171,241,87080,1,8,0:0:0:0:
94,199,87289,1,8,0:0:0:0:
94,199,87393,1,8,0:0:0:0:
94,199,87497,2,0,L|92:159,3,24.3750009298325,0|8|0|8,3:0|0:0|3:0|0:0,0:0:0:0:
103,134,87914,2,0,L|135:122,3,24.3750009298325,8|8|0|8,0:0|0:0|3:0|0:0,0:0:0:0:
141,89,88330,6,0,P|180:78|206:71,1,65,4|2,3:2|0:1,0:0:0:0:
273,9,88747,2,0,P|316:20|360:27,1,65,2|2,1:0|0:1,0:0:0:0:
379,108,89164,2,0,B|417:104|417:104|437:89|437:89|491:82,2,97.5,2|2|2,3:1|0:0|0:1,0:0:0:0:
320,176,89997,5,2,3:1:0:0:
354,262,90205,1,2,0:1:0:0:
438,274,90414,2,0,P|444:320|451:353,1,65,2|2,1:0|0:1,0:0:0:0:
367,374,90830,2,0,P|330:354|298:344,1,65,2|2,3:1|0:1,0:0:0:0:
278,329,91143,1,0,0:0:0:0:
278,329,91247,2,0,L|203:352,1,65,2|2,1:0|0:1,0:0:0:0:
158,274,91664,5,10,3:2:0:0:
95,210,91872,1,10,0:2:0:0:
95,210,91976,1,8,0:2:0:0:
95,210,92080,2,0,P|45:222|19:230,1,65,10|10,1:2|0:2,0:0:0:0:
0,138,92497,1,10,3:2:0:0:
88,87,92705,1,10,0:2:0:0:
88,87,92809,1,8,0:2:0:0:
88,87,92914,2,0,P|131:101|156:112,1,65,10|10,1:2|0:2,0:0:0:0:
232,58,93330,6,0,P|284:53|353:41,2,97.5,12|12|4,3:2|3:2|3:2,0:0:0:0:
222,82,94059,2,0,P|236:117|254:180,1,97.5,0|0,1:1|0:1,0:0:0:0:
341,219,94580,1,2,0:1:0:0:
344,208,94684,1,2,0:1:0:0:
347,198,94789,1,0,0:0:0:0:
351,188,94893,1,0,0:0:0:0:
353,178,94997,6,0,L|432:160,1,71.5000021820069,4|2,3:1|0:1,0:0:0:0:
491,246,95414,2,0,L|464:322,1,71.5000021820069,2|2,1:0|0:1,0:0:0:0:
430,328,95726,1,0,0:0:0:0:
430,328,95830,2,0,B|392:340|392:340|371:363|371:363|309:378,2,107.25000327301,2|2|2,3:1|0:0|0:1,0:0:0:0:
393,240,96664,5,2,3:1:0:0:
307,275,96872,1,2,0:1:0:0:
272,181,97080,2,0,P|264:141|250:105,1,71.5000021820069,2|2,1:0|0:1,0:0:0:0:
157,95,97497,1,2,3:1:0:0:
229,29,97705,1,2,0:1:0:0:
325,16,97914,1,2,1:0:0:0:
409,68,98122,1,2,0:1:0:0:
442,154,98330,6,0,P|492:149|523:144,1,71.5000021820069,2|2,3:1|0:1,0:0:0:0:
512,50,98747,1,2,1:0:0:0:
417,50,98955,1,2,0:1:0:0:
417,50,99059,1,0,0:0:0:0:
417,50,99164,2,0,P|361:33|305:20,2,107.25000327301,2|2|2,3:1|0:0|0:1,0:0:0:0:
408,150,99997,5,2,3:1:0:0:
482,218,100205,1,2,0:1:0:0:
462,313,100414,2,0,P|409:319|380:326,1,71.5000021820069,2|2,1:0|0:1,0:0:0:0:
300,289,100830,1,2,3:1:0:0:
211,249,101039,1,2,0:1:0:0:
288,184,101247,1,2,1:0:0:0:
292,176,101351,1,2,0:1:0:0:
298,167,101455,1,2,0:1:0:0:
302,160,101559,1,2,0:1:0:0:
310,150,101664,6,0,P|370:163|390:172,1,71.5000021820069,2|2,3:1|0:1,0:0:0:0:
422,72,102080,2,0,P|369:65|336:46,1,71.5000021820069,2|2,1:0|0:1,0:0:0:0:
256,27,102497,2,0,B|210:15|210:15|151:7,2,107.25000327301,2|2|2,3:1|0:0|0:1,0:0:0:0:
199,107,103330,5,2,3:1:0:0:
275,162,103539,1,2,0:1:0:0:
217,236,103747,2,0,P|174:219|142:214,1,71.5000021820069,2|2,1:0|0:1,0:0:0:0:
68,274,104164,1,2,3:1:0:0:
131,345,104372,1,2,0:1:0:0:
226,358,104580,1,2,1:0:0:0:
308,317,104789,1,2,0:1:0:0:
347,229,104997,6,0,P|398:216|425:213,1,71.5000021820069,2|2,3:1|0:1,0:0:0:0:
484,131,105414,2,0,P|433:119|403:107,1,71.5000021820069,2|2,1:0|0:1,0:0:0:0:
416,213,105830,2,0,B|406:261|406:261|412:278|412:278|404:343,2,107.25000327301,2|2|2,3:1|0:0|0:1,0:0:0:0:
415,112,106664,5,2,3:1:0:0:
317,87,106872,1,2,3:1:0:0:
317,87,106976,1,2,0:1:0:0:
317,87,107080,1,2,1:0:0:0:
261,168,107289,1,2,0:1:0:0:
253,167,107393,1,2,0:1:0:0:
244,165,107497,2,0,L|200:160,3,35.7500010910034,2|8|2|2,3:1|0:0|0:1|0:1,0:0:0:0:
173,126,107914,2,0,L|132:120,3,35.7500010910034,0|8|8|8,1:0|0:0|0:0|0:0,0:0:0:0:
99,101,108330,6,0,P|113:45|122:8,1,71.5000021820069,4|2,3:1|0:1,0:0:0:0:
216,12,108747,2,0,L|294:29,1,71.5000021820069,2|2,1:0|0:1,0:0:0:0:
377,49,109164,1,2,3:1:0:0:
391,150,109372,1,2,0:1:0:0:
391,150,109476,1,0,0:0:0:0:
391,150,109580,2,0,P|338:169|315:180,1,71.5000021820069,2|2,1:0|0:1,0:0:0:0:
271,254,109997,5,2,3:1:0:0:
356,296,110205,1,2,0:1:0:0:
442,241,110414,2,0,P|494:230|530:224,1,71.5000021820069,2|2,1:0|0:1,0:0:0:0:
511,338,110830,2,0,P|459:351|418:355,1,71.5000021820069,2|2,3:1|0:1,0:0:0:0:
356,296,111247,2,0,P|358:260|363:224,1,71.5000021820069,2|2,1:0|0:1,0:0:0:0:
428,137,111664,5,2,3:1:0:0:
256,192,111768,12,2,114997,3:1:0:0:
443,114,115414,6,0,P|486:125|523:131,1,71.5000021820069,2|2,1:0|0:1,0:0:0:0:
496,223,115830,1,2,3:1:0:0:
414,278,116039,1,2,0:1:0:0:
414,278,116143,1,0,0:0:0:0:
414,278,116247,2,0,P|356:260|333:254,1,71.5000021820069,2|2,1:0|0:1,0:0:0:0:
284,171,116664,6,0,P|324:162|361:147,1,71.5000021820069,2|2,3:1|0:1,0:0:0:0:
417,81,117080,2,0,P|397:25|382:-12,1,71.5000021820069,2|2,1:0|0:1,0:0:0:0:
285,0,117497,2,0,P|276:40|262:77,1,71.5000021820069,2|2,3:1|0:1,0:0:0:0:
213,158,117914,2,0,P|260:166|289:172,1,71.5000021820069,2|2,1:0|0:1,0:0:0:0:
394,160,118330,5,2,3:1:0:0:
256,192,118434,12,6,121664,3:2:0:0:
328,44,122080,6,0,P|264:64|230:67,1,71.5000021820069,2|2,1:2|0:1,0:0:0:0:
188,145,122497,1,2,3:2:0:0:
282,168,122705,1,2,0:1:0:0:
214,248,122914,2,0,P|233:294|241:331,1,71.5000021820069,2|2,1:2|0:1,0:0:0:0:
396,347,123330,5,2,3:2:0:0:
483,315,123539,1,2,0:1:0:0:
416,254,123747,2,0,L|338:237,1,71.5000021820069,2|2,1:2|0:1,0:0:0:0:
256,70,124164,1,2,3:2:0:0:
201,153,124372,1,2,0:1:0:0:
296,162,124580,2,0,L|381:141,1,71.5000021820069,2|2,1:2|0:1,0:0:0:0:
460,96,124997,6,0,P|450:59|435:45,3,35.7500010910034,2|8|8|8,3:2|0:2|0:2|0:2,0:0:0:0:
433,22,125414,2,0,P|394:20|376:30,3,35.7500010910034,2|0|8|8,1:2|0:0|0:2|0:2,0:0:0:0:
354,22,125830,2,0,P|340:57|344:77,3,35.7500010910034,2|8|8|8,3:2|0:2|0:2|0:2,0:0:0:0:
332,97,126247,2,0,P|361:121|382:123,3,35.7500010910034,2|0|8|8,1:2|0:0|0:2|0:2,0:0:0:0:
392,136,126664,5,2,3:2:0:0:
325,219,126872,1,8,3:2:0:0:
384,301,127080,1,2,1:2:0:0:
479,274,127289,1,8,0:2:0:0:
487,167,127497,2,0,P|431:171|405:168,1,71.5000021820069,2|8,3:2|0:2,0:0:0:0:
319,99,127914,2,0,P|264:97|234:100,1,71.5000021820069,2|8,1:2|3:2,0:0:0:0:
144,176,128330,6,0,P|78:184|14:175,1,130,4|0,1:2|0:0,0:0:0:0:
