osu file format v14

[General]
AudioFilename: audio.mp3
AudioLeadIn: 0
PreviewTime: 109476
Countdown: 0
SampleSet: None
StackLeniency: 0.7
Mode: 0
LetterboxInBreaks: 0
WidescreenStoryboard: 0

[Editor]
DistanceSpacing: 0.9
BeatDivisor: 4
GridSize: 4
TimelineZoom: 1

[Metadata]
Title:Face Down
TitleUnicode:Face Down
Artist:Red Jumpsuit Apparatus
ArtistUnicode:Red Jumpsuit Apparatus
Creator:Loughje
Version:Another
Source:
Tags:
BeatmapID:935168
BeatmapSetID:433905

[Difficulty]
HPDrainRate:6
CircleSize:4.3
OverallDifficulty:8.5
ApproachRate:9.2
SliderMultiplier:1.8
SliderTickRate:1

[Events]
//Background and Video events
0,0,"BG.jpg",0,0
//Break Periods
//Storyboard Layer 0 (Background)
//Storyboard Layer 1 (Fail)
//Storyboard Layer 2 (Pass)
//Storyboard Layer 3 (Foreground)
//Storyboard Sound Samples

[TimingPoints]
-523,322.58064516129,4,2,1,60,1,0
283,-125,4,2,1,60,0,0
16251,-111.111111111111,4,2,2,60,0,0
25928,-200,4,2,1,60,0,0
26573,-111.111111111111,4,2,1,60,0,0
34315,-100,4,2,1,60,0,0
36896,-90.9090909090909,4,2,2,75,0,1
44557,-105.263157894737,4,2,2,75,0,1
46735,-90.9090909090909,4,2,1,75,0,1
47218,-90.9090909090909,4,2,2,75,0,1
54799,-111.111111111111,4,2,2,75,0,1
57541,-153.846153846154,4,2,2,60,0,0
75606,-111.111111111111,4,2,2,60,0,0
78186,-120.481927710843,4,2,2,60,0,0
85928,-100,4,2,1,60,0,0
88509,-83.3333333333333,4,2,2,75,0,1
98428,-83.3333333333333,4,2,1,75,0,1
98831,-83.3333333333333,4,2,2,75,0,1
107864,-83.3333333333333,4,2,2,75,0,0
108831,-83.3333333333333,4,2,1,75,0,0
109154,-80,4,2,2,75,0,1
129476,-80,4,2,1,75,0,1
129799,-200,4,2,2,60,0,0
137299,-125,4,2,2,60,0,0
142864,-125,4,2,2,20,0,0

[HitObjects]
140,112,283,5,0,0:0:0:0:
140,112,444,2,0,L|168:196,1,72,8|0,0:0|0:0,0:0:0:0:
196,264,767,1,0,0:0:0:0:
224,264,1089,1,8,0:0:0:0:
248,264,1735,5,8,0:0:0:0:
276,264,2380,1,8,0:0:0:0:
216,76,3025,1,8,0:0:0:0:
192,92,3670,5,8,0:0:0:0:
440,184,4315,1,8,0:0:0:0:
420,160,4960,1,8,0:0:0:0:
144,84,5444,1,0,0:0:0:0:
156,120,5606,2,0,L|184:196,1,72,8|0,0:0|0:0,0:0:0:0:
208,272,5928,6,0,B|236:352|236:352|264:332|304:328,2,144,4|8|0,0:0|0:0|0:0,0:0:0:0:
156,120,6896,1,8,0:0:0:0:
264,40,7218,1,0,0:0:0:0:
312,156,7541,1,8,0:0:0:0:
156,120,7864,1,0,0:0:0:0:
264,40,8025,1,0,0:0:0:0:
312,156,8186,1,8,0:0:0:0:
160,44,8347,1,0,0:0:0:0:
120,212,8509,6,0,B|108:288|108:288|120:360,1,144,4|8,0:0|0:0,0:0:0:0:
240,260,9154,1,0,0:0:0:0:
192,112,9476,1,8,0:0:0:0:
88,260,9799,1,0,0:0:0:0:
272,108,10122,1,8,0:0:0:0:
120,48,10444,1,0,0:0:0:0:
200,236,10606,1,0,0:0:0:0:
176,32,10767,1,0,0:0:0:0:
136,240,10928,1,0,0:0:0:0:
272,108,11089,6,0,B|328:72|360:28|360:28|364:72,1,144,4|0,0:0|0:0,0:0:0:0:
376,236,11735,1,0,0:0:0:0:
272,108,12057,1,8,0:0:0:0:
432,92,12380,1,0,0:0:0:0:
292,256,12702,1,8,0:0:0:0:
148,100,13025,1,0,0:0:0:0:
24,216,13186,1,0,0:0:0:0:
200,204,13347,1,8,0:0:0:0:
40,104,13509,1,0,0:0:0:0:
128,284,13670,6,0,B|172:320|172:320|264:336,1,144,4|8,0:0|0:0,0:0:0:0:
412,260,14315,1,0,0:0:0:0:
256,152,14638,1,8,0:0:0:0:
128,284,14960,1,0,0:0:0:0:
332,124,15283,1,8,0:0:0:0:
176,68,15606,2,0,L|108:36,1,72
200,176,15928,1,8,0:0:0:0:
292,224,16089,1,0,0:0:0:0:
268,108,16251,6,0,P|336:84|420:100,1,121.499996292114,4|0,0:0|0:0,0:0:0:0:
440,136,16573,2,0,P|464:192|468:232,1,80.9999975280763,8|0,0:0|0:0,0:0:0:0:
388,340,16896,2,0,P|364:284|360:244,1,80.9999975280763
352,144,17218,2,0,P|312:152|276:171,1,80.9999975280763,8|0,0:0|0:0,0:0:0:0:
168,256,17541,1,0,0:0:0:0:
324,236,17702,1,0,0:0:0:0:
80,180,17864,1,8,0:0:0:0:
248,180,18025,1,0,0:0:0:0:
136,344,18186,6,0,B|96:316|96:316|72:272,1,80.9999975280763
192,123,18509,2,0,B|232:151|232:151|256:195,1,80.9999975280763,8|0,0:0|0:0,0:0:0:0:
128,172,18831,2,0,P|116:96|164:48,1,121.499996292114
212,36,19154,2,0,P|260:40|304:32,1,80.9999975280763,8|0,0:0|0:0,0:0:0:0:
472,12,19476,2,0,P|476:52|472:92,1,80.9999975280763
280,208,19799,2,0,P|320:212|360:207,1,80.9999975280763,8|0,0:0|0:0,0:0:0:0:
492,148,20122,5,0,0:0:0:0:
368,64,20283,1,0,0:0:0:0:
360,207,20444,2,0,B|352:256|352:256|360:296,1,80.9999975280763,8|0,0:0|0:0,0:0:0:0:
464,356,20767,1,0,0:0:0:0:
396,136,20928,1,0,0:0:0:0:
358,286,21089,2,0,P|322:330|274:358,1,80.9999975280763,8|0,0:0|0:0,0:0:0:0:
296,156,21412,6,0,B|224:136|264:104|208:80,1,121.499996292114
136,60,21735,2,0,L|112:148,1,80.9999975280763,8|0,0:0|0:0,0:0:0:0:
152,344,22057,2,0,L|176:256,1,80.9999975280763
128,136,22380,2,0,L|149:57,1,80.9999975280763,8|0,0:0|0:0,0:0:0:0:
264,36,22702,2,0,P|340:56|372:136,1,161.999995056153,0|8,0:0|0:0,0:0:0:0:
304,248,23186,5,0,0:0:0:0:
192,148,23347,1,0,0:0:0:0:
124,272,23509,1,0,0:0:0:0:
336,344,23670,1,8,0:0:0:0:
280,164,23831,1,0,0:0:0:0:
124,272,23993,2,0,B|80:216|80:216|80:116,1,161.999995056153,0|8,0:0|0:0,0:0:0:0:
200,180,24476,5,0,0:0:0:0:
132,352,24638,2,0,P|188:356|228:340,1,80.9999975280763
296,220,24960,2,0,P|335:211|375:216,1,80.9999975280763,8|0,0:0|0:0,0:0:0:0:
488,288,25283,1,0,0:0:0:0:
488,288,25444,1,0,0:0:0:0:
428,120,25606,1,8,0:0:0:0:
428,120,25767,1,0,0:0:0:0:
348,268,25928,6,0,B|264:304|168:276,1,180,8|4,0:0|0:0,0:0:0:0:
40,152,26896,6,0,P|52:100|72:68,1,80.9999975280763,8|0,0:0|0:0,0:0:0:0:
104,220,27218,2,0,P|140:184|176:164,1,80.9999975280763
100,312,27541,2,0,P|148:296|192:296,1,80.9999975280763,8|0,0:0|0:0,0:0:0:0:
304,344,27864,1,0,0:0:0:0:
396,224,28025,1,0,0:0:0:0:
232,356,28186,1,8,0:0:0:0:
144,188,28347,1,0,0:0:0:0:
332,168,28509,6,0,P|312:220|312:252,1,80.9999975280763
388,84,28831,2,0,P|336:64|304:64,1,80.9999975280763
452,168,29154,2,0,P|480:220|468:308,1,121.499996292114,4|0,0:0|0:0,0:0:0:0:
448,320,29476,2,0,P|420:280|368:244,1,80.9999975280763,8|0,0:0|0:0,0:0:0:0:
296,348,29799,2,0,P|292:292|276:252,1,80.9999975280763
156,340,30122,2,0,P|176:292|180:260,1,80.9999975280763,8|0,0:0|0:0,0:0:0:0:
128,112,30444,5,0,0:0:0:0:
56,272,30606,1,0,0:0:0:0:
200,180,30767,1,8,0:0:0:0:
28,168,30928,1,0,0:0:0:0:
176,280,31089,1,0,0:0:0:0:
28,168,31251,1,0,0:0:0:0:
200,180,31412,2,0,P|244:180|280:168,1,80.9999975280763,8|0,0:0|0:0,0:0:0:0:
184,104,31735,6,0,P|136:132|136:220,1,121.499996292114,4|0,0:0|0:0,0:0:0:0:
160,256,32057,2,0,P|200:312|212:352,1,80.9999975280763,8|0,0:0|0:0,0:0:0:0:
117,148,32380,2,0,P|173:108|213:96,1,80.9999975280763
84,228,32702,2,0,P|28:268|-12:280,1,80.9999975280763,8|0,0:0|0:0,0:0:0:0:
64,72,33025,1,0,0:0:0:0:
148,104,33186,1,0,0:0:0:0:
76,152,33347,1,8,0:0:0:0:
60,44,33509,5,0,0:0:0:0:
176,96,33670,1,0,0:0:0:0:
80,180,33831,1,0,0:0:0:0:
240,272,33993,1,8,0:0:0:0:
36,216,34154,1,0,0:0:0:0:
248,212,34315,6,0,B|320:204|320:204|368:168|368:168|372:140|372:140|360:96,1,180,4|8,0:0|0:0,0:0:0:0:
224,40,34960,1,0,0:0:0:0:
248,212,35283,1,8,0:0:0:0:
96,120,35606,1,8,0:0:0:0:
84,144,35686,1,8,0:0:0:0:
88,172,35767,1,8,0:0:0:0:
84,200,35847,1,8,0:0:0:0:
92,220,35928,1,8,0:0:0:0:
256,152,36089,5,8,0:0:0:0:
256,152,36170,1,8,0:0:0:0:
256,152,36251,1,8,0:0:0:0:
240,300,36412,1,8,0:0:0:0:
240,300,36493,1,8,0:0:0:0:
240,300,36573,1,8,0:0:0:0:
384,196,36735,1,8,0:0:0:0:
384,196,36815,1,8,0:0:0:0:
384,196,36896,6,0,P|428:160|444:120,1,99.0000030212403,4|0,0:0|0:0,0:0:0:0:
268,180,37218,1,8,0:0:0:0:
400,304,37380,1,0,0:0:0:0:
328,120,37541,2,0,P|304:72|268:40,1,99.0000030212403
112,24,37864,2,0,P|136:72|172:104,1,99.0000030212403,8|0,0:0|0:0,0:0:0:0:
396,160,38186,5,0,0:0:0:0:
240,264,38347,1,0,0:0:0:0:
304,96,38509,2,0,P|328:44|360:12,1,99.0000030212403,8|0,0:0|0:0,0:0:0:0:
396,160,38831,2,0,P|372:212|340:244,1,99.0000030212403
188,304,39154,1,8,0:0:0:0:
236,144,39315,1,0,0:0:0:0:
248,352,39476,1,0,0:0:0:0:
336,344,39799,6,0,P|396:340|448:320,1,99.0000030212403,8|0,0:0|0:0,0:0:0:0:
352,144,40122,2,0,P|356:204|376:256,1,99.0000030212403
420,80,40444,1,8,0:0:0:0:
288,236,40606,1,0,0:0:0:0:
304,56,40767,2,0,B|260:88|260:88|208:104,1,99.0000030212403
12,92,41089,2,0,B|56:60|56:60|108:44,1,99.0000030212403,8|0,0:0|0:0,0:0:0:0:
220,28,41412,1,0,0:0:0:0:
84,156,41573,1,0,0:0:0:0:
200,308,41735,6,0,P|268:332|324:340,1,99.0000030212403,8|0,0:0|0:0,0:0:0:0:
144,360,42057,2,0,P|124:308|224:236,1,198.000006042481,0|8,0:0|0:0,0:0:0:0:
200,308,42541,1,0,0:0:0:0:
76,212,42702,1,0,0:0:0:0:
280,304,42864,1,0,0:0:0:0:
152,152,43025,2,0,P|204:124|264:112,1,99.0000030212403,8|0,0:0|0:0,0:0:0:0:
448,148,43347,2,0,P|396:176|336:188,1,99.0000030212403
200,224,43670,5,8,0:0:0:0:
120,60,43831,1,0,0:0:0:0:
76,212,43993,1,0,0:0:0:0:
212,60,44154,1,0,0:0:0:0:
212,60,44235,1,0,0:0:0:0:
212,60,44315,2,0,P|276:52|328:68,1,99.0000030212403,8|0,0:0|0:0,0:0:0:0:
432,144,44638,6,0,L|448:232,1,85.4999977169037,8|0,0:0|0:0,0:0:0:0:
336,40,44960,1,0,0:0:0:0:
416,44,45122,1,8,0:0:0:0:
408,180,45283,2,0,L|400:272,1,85.4999977169037
372,44,45606,1,8,0:0:0:0:
444,84,45767,1,0,0:0:0:0:
368,196,45928,2,0,L|312:276,1,85.4999977169037,0|8,0:0|0:0,0:0:0:0:
320,272,46251,1,0,0:0:0:0:
240,288,46573,1,8,0:0:0:0:
116,220,46896,5,8,0:0:0:0:
152,208,46976,1,8,0:0:0:0:
188,188,47057,1,8,0:0:0:0:
216,160,47138,1,8,0:0:0:0:
228,124,47218,2,0,P|248:64|376:56,1,198.000006042481,4|8,0:0|0:0,0:0:0:0:
480,152,47702,1,0,0:0:0:0:
316,120,47864,1,0,0:0:0:0:
456,40,48025,1,0,0:0:0:0:
424,220,48186,6,0,P|396:288|360:332,1,99.0000030212403,8|0,0:0|0:0,0:0:0:0:
240,368,48509,2,0,P|268:300|304:256,1,99.0000030212403
451,151,48831,1,8,0:0:0:0:
264,192,48993,1,0,0:0:0:0:
432,264,49154,1,0,0:0:0:0:
304,104,49315,1,0,0:0:0:0:
332,272,49476,2,0,P|256:272|216:256,1,99.0000030212403,8|0,0:0|0:0,0:0:0:0:
136,168,49799,2,0,B|184:140|240:164|240:164|248:112|248:112|292:72,1,198.000006042481,0|8,0:0|0:0,0:0:0:0:
424,120,50283,5,0,0:0:0:0:
432,280,50444,1,0,0:0:0:0:
276,336,50606,2,0,P|208:340|172:320,1,99.0000030212403,0|8,0:0|0:0,0:0:0:0:
32,208,50928,1,0,0:0:0:0:
144,344,51089,1,0,0:0:0:0:
4,256,51251,1,0,0:0:0:0:
160,288,51412,6,0,P|176:236|196:196,1,99.0000030212403,8|0,0:0|0:0,0:0:0:0:
352,96,51735,2,0,P|336:148|316:188,1,99.0000030212403
232,324,52057,1,8,0:0:0:0:
380,240,52218,1,0,0:0:0:0:
180,196,52380,1,0,0:0:0:0:
312,124,52702,1,8,0:0:0:0:
180,284,52864,1,0,0:0:0:0:
392,156,53025,6,0,P|392:100|356:52,1,99.0000030212403
264,208,53347,2,0,P|264:264|300:312,1,99.0000030212403,8|0,0:0|0:0,0:0:0:0:
248,124,53670,1,0,0:0:0:0:
120,248,53831,1,0,0:0:0:0:
348,208,53993,1,8,0:0:0:0:
144,120,54154,1,0,0:0:0:0:
224,284,54315,2,0,P|260:340|288:360,1,99.0000030212403
292,360,54638,1,8,0:0:0:0:
220,200,54960,6,0,L|220:120,1,80.9999975280763,8|0,0:0|0:0,0:0:0:0:
324,28,55283,1,0,0:0:0:0:
324,128,55444,1,8,0:0:0:0:
240,128,55606,2,0,L|240:208,1,80.9999975280763
344,36,55928,1,8,0:0:0:0:
344,136,56090,1,0,0:0:0:0:
260,216,56251,2,0,L|260:136,1,80.9999975280763,0|8,0:0|0:0,0:0:0:0:
364,44,56574,1,0,0:0:0:0:
364,144,56735,1,0,0:0:0:0:
416,228,56896,2,0,P|464:232|496:220,2,80.9999975280763,8|0|0,0:0|0:0|0:0,0:0:0:0:
312,196,57541,6,0,P|272:168|180:168,1,116.999994644165,4|0,0:0|0:0,0:0:0:0:
76,192,58186,1,8,0:0:0:0:
176,300,58509,1,0,0:0:0:0:
0,184,58831,2,0,P|20:140|88:116,1,116.999994644165
276,128,59476,1,8,0:0:0:0:
144,196,59799,5,0,0:0:0:0:
288,280,60122,2,0,B|344:308|344:308|416:320,1,116.999994644165
320,184,60767,1,8,0:0:0:0:
144,316,61089,1,0,0:0:0:0:
64,144,61412,2,0,B|72:90|72:90|100:34,1,116.999994644165
312,88,62057,5,8,0:0:0:0:
148,204,62380,1,0,0:0:0:0:
348,256,62702,2,0,B|416:280|416:280|420:328,1,116.999994644165
200,336,63347,1,8,0:0:0:0:
348,160,63670,1,0,0:0:0:0:
164,128,63993,6,0,B|96:104|96:104|92:56,1,116.999994644165
304,100,64638,1,8,0:0:0:0:
112,208,64960,1,0,0:0:0:0:
108,32,65283,2,0,P|164:24|236:52,1,116.999994644165
388,164,65928,1,8,0:0:0:0:
176,264,66251,5,0,0:0:0:0:
240,96,66573,1,0,0:0:0:0:
292,232,66735,1,8,0:0:0:0:
292,232,66815,1,8,0:0:0:0:
292,232,66896,1,8,0:0:0:0:
176,192,67057,1,0,0:0:0:0:
144,332,67218,6,0,P|115:325|92:307,1,58.4999973220826,8|0,0:0|0:0,0:0:0:0:
96,168,67541,1,0,0:0:0:0:
120,152,67622,1,0,0:0:0:0:
152,152,67702,1,0,0:0:0:0:
180,168,67783,1,0,0:0:0:0:
196,192,67864,6,0,P|232:224|320:232,1,116.999994644165,4|0,0:0|0:0,0:0:0:0:
436,192,68509,1,8,0:0:0:0:
336,84,68832,1,0,0:0:0:0:
512,200,69154,2,0,P|492:244|424:268,1,116.999994644165
236,256,69799,1,8,0:0:0:0:
368,188,70122,5,0,0:0:0:0:
224,104,70445,2,0,B|168:76|168:76|96:64,1,116.999994644165
192,200,71090,1,8,0:0:0:0:
368,68,71412,1,0,0:0:0:0:
448,240,71735,2,0,B|439:293|439:293|411:349,1,116.999994644165
200,296,72380,5,8,0:0:0:0:
364,180,72703,1,0,0:0:0:0:
164,128,73025,2,0,B|96:104|96:104|92:56,1,116.999994644165
312,48,73670,1,8,0:0:0:0:
164,224,73993,1,0,0:0:0:0:
348,256,74316,6,0,B|416:280|416:280|420:328,1,116.999994644165
208,284,74961,1,8,0:0:0:0:
400,176,75283,1,0,0:0:0:0:
268,132,75444,1,0,0:0:0:0:
128,160,75606,6,0,P|80:184|56:216,1,80.9999975280763,8|0,0:0|0:0,0:0:0:0:
32,292,75928,1,0,0:0:0:0:
144,288,76089,1,8,0:0:0:0:
128,140,76251,2,0,P|72:140|28:164,1,80.9999975280763
52,256,76573,1,8,0:0:0:0:
160,248,76735,1,0,0:0:0:0:
144,120,76896,6,0,P|112:80|68:64,1,80.9999975280763,0|8,0:0|0:0,0:0:0:0:
40,160,77218,1,0,0:0:0:0:
108,232,77380,1,0,0:0:0:0:
248,224,77541,2,0,L|332:216,1,80.9999975280763,8|0,0:0|0:0,0:0:0:0:
184,324,77864,2,0,L|272:316,1,80.9999975280763,8|0,0:0|0:0,0:0:0:0:
403,212,78186,6,0,L|323:216,1,74.70000108284
164,216,78509,1,0,0:0:0:0:
320,144,78670,1,0,0:0:0:0:
188,296,78831,1,8,0:0:0:0:
64,112,79476,5,0,0:0:0:0:
64,112,79638,1,0,0:0:0:0:
248,52,79960,1,0,0:0:0:0:
208,128,80122,2,0,P|196:192|204:232,1,74.70000108284,8|0,0:0|0:0,0:0:0:0:
308,116,80606,1,8,0:0:0:0:
376,192,80767,6,0,L|288:224,1,74.70000108284
404,280,81089,2,0,L|320:292,1,74.70000108284
408,364,81412,1,8,0:0:0:0:
160,336,82057,5,0,0:0:0:0:
48,348,82218,1,0,0:0:0:0:
48,348,82541,1,0,0:0:0:0:
160,336,82702,1,8,0:0:0:0:
44,260,82864,1,0,0:0:0:0:
244,336,83186,5,8,0:0:0:0:
336,288,83347,2,0,P|384:260|416:256,1,74.70000108284
264,224,83670,2,0,P|220:200|184:200,1,74.70000108284
328,160,83993,1,8,0:0:0:0:
44,92,84638,5,0,0:0:0:0:
48,96,84799,1,0,0:0:0:0:
48,96,85122,1,0,0:0:0:0:
88,172,85283,2,0,L|132:236,1,74.70000108284,8|0,0:0|0:0,0:0:0:0:
140,248,85767,1,0,0:0:0:0:
248,280,85928,6,0,P|244:235|231:192,1,90,8|0,0:0|0:0,0:0:0:0:
176,116,86251,1,0,0:0:0:0:
88,72,86412,1,8,0:0:0:0:
16,176,86573,2,0,P|1:218|1:263,1,90
72,348,86896,1,8,0:0:0:0:
176,360,87057,1,0,0:0:0:0:
268,288,87218,6,0,L|264:192,1,90,0|8,0:0|0:0,0:0:0:0:
184,36,87541,2,0,L|192:132,1,90
80,252,87864,1,8,0:0:0:0:
160,252,88025,1,8,0:0:0:0:
252,216,88186,1,8,0:0:0:0:
316,112,88347,1,8,0:0:0:0:
212,24,88509,6,0,P|160:60|144:128,1,107.999996704102,4|0,0:0|0:0,0:0:0:0:
183,291,88831,2,0,P|235:255|251:187,1,107.999996704102,8|0,0:0|0:0,0:0:0:0:
143,99,89154,1,0,0:0:0:0:
328,180,89315,1,0,0:0:0:0:
136,216,89476,1,8,0:0:0:0:
228,56,89638,1,0,0:0:0:0:
64,252,89799,6,0,P|108:292|180:288,1,107.999996704102
356,256,90122,2,0,P|312:216|240:220,1,107.999996704102,8|0,0:0|0:0,0:0:0:0:
64,252,90444,1,0,0:0:0:0:
276,284,90606,1,0,0:0:0:0:
280,116,90767,1,8,0:0:0:0:
188,296,90928,1,0,0:0:0:0:
104,168,91089,2,0,B|112:112|172:76|172:76|132:44|76:60,1,215.999993408203,0|8,0:0|0:0,0:0:0:0:
192,160,91573,5,0,0:0:0:0:
40,256,91735,1,0,0:0:0:0:
216,344,91896,1,0,0:0:0:0:
124,192,92057,2,0,B|120:136|120:136|160:92,1,107.999996704102,8|0,0:0|0:0,0:0:0:0:
216,344,92380,2,0,B|250:305|250:305|246:249,1,107.999996704102
212,100,92702,5,8,0:0:0:0:
152,280,92864,1,0,0:0:0:0:
16,216,93025,1,0,0:0:0:0:
244,252,93186,1,0,0:0:0:0:
88,324,93347,2,0,P|72:276|108:216,1,107.999996704102,8|0,0:0|0:0,0:0:0:0:
336,240,93670,6,0,B|392:288|408:336|408:336|456:300|448:236,1,215.999993408203,0|8,0:0|0:0,0:0:0:0:
268,168,94154,1,0,0:0:0:0:
456,152,94315,2,0,L|472:40,1,107.999996704102
268,168,94638,2,8,L|252:280,1,107.999996704102,8|0,0:0|0:0,0:0:0:0:
244,360,94960,1,0,0:0:0:0:
328,112,95122,1,0,0:0:0:0:
80,248,95283,5,8,0:0:0:0:
120,104,95444,1,0,0:0:0:0:
212,216,95606,1,0,0:0:0:0:
36,156,95767,1,0,0:0:0:0:
220,112,95928,1,8,0:0:0:0:
160,288,96089,1,0,0:0:0:0:
160,288,96170,1,0,0:0:0:0:
160,288,96251,6,0,P|224:320|268:312,1,107.999996704102
384,260,96573,1,0,0:0:0:0:
280,176,96735,1,8,0:0:0:0:
160,288,96896,2,0,P|224:296|280:256,1,107.999996704102
356,220,97218,1,8,0:0:0:0:
248,124,97380,1,0,0:0:0:0:
160,288,97541,2,0,P|212:256|232:208,1,107.999996704102,0|8,0:0|0:0,0:0:0:0:
148,204,97864,5,8,0:0:0:0:
152,68,98186,1,0,0:0:0:0:
288,76,98509,1,8,0:0:0:0:
324,100,98589,1,8,0:0:0:0:
352,132,98670,1,8,0:0:0:0:
364,172,98751,1,8,0:0:0:0:
360,216,98831,6,0,B|336:288|336:288|260:232|180:272,1,215.999993408203,4|8,0:0|0:0,0:0:0:0:
64,352,99315,1,0,0:0:0:0:
112,168,99476,1,0,0:0:0:0:
168,360,99638,1,0,0:0:0:0:
188,168,99799,2,0,P|232:220|248:272,1,107.999996704102,8|0,0:0|0:0,0:0:0:0:
88,96,100122,2,0,P|140:52|192:36,1,107.999996704102
380,44,100444,5,8,0:0:0:0:
280,232,100606,1,0,0:0:0:0:
176,38,100767,1,0,0:0:0:0:
380,44,100928,1,0,0:0:0:0:
280,232,101089,2,0,B|312:284|312:284|384:308,1,107.999996704102,8|0,0:0|0:0,0:0:0:0:
252,104,101412,6,0,B|220:52|220:52|148:48|148:48|96:120,1,215.999993408203,0|8,0:0|0:0,0:0:0:0:
44,208,101896,1,0,0:0:0:0:
248,252,102057,1,0,0:0:0:0:
168,40,102218,1,0,0:0:0:0:
148,236,102380,2,0,P|144:320|152:360,1,107.999996704102,8|0,0:0|0:0,0:0:0:0:
272,156,102702,2,0,P|276:72|268:32,1,107.999996704102
136,156,103025,5,8,0:0:0:0:
328,264,103186,1,0,0:0:0:0:
216,68,103347,1,0,0:0:0:0:
264,296,103509,1,0,0:0:0:0:
292,56,103670,2,0,P|352:64|396:92,1,107.999996704102,8|0,0:0|0:0,0:0:0:0:
363,328,103993,2,0,P|303:320|212:204,1,215.999993408203,0|8,0:0|0:0,0:0:0:0:
332,160,104476,5,0,0:0:0:0:
360,328,104638,1,0,0:0:0:0:
384,96,104799,1,0,0:0:0:0:
232,224,104960,2,0,P|172:252|128:252,1,107.999996704102,8|0,0:0|0:0,0:0:0:0:
283,124,105283,2,0,P|343:96|387:96,1,107.999996704102
200,156,105606,5,8,0:0:0:0:
392,224,105767,1,0,0:0:0:0:
160,84,105928,2,0,P|104:60|40:60,2,107.999996704102
272,132,106573,6,0,P|320:192|328:224,1,107.999996704102,8|0,0:0|0:0,0:0:0:0:
208,224,106896,1,0,0:0:0:0:
420,120,107057,1,8,0:0:0:0:
272,132,107218,2,0,P|296:192|292:252,1,107.999996704102
180,160,107541,1,8,0:0:0:0:
400,192,107702,1,0,0:0:0:0:
272,132,107864,2,0,P|264:192|236:232,1,107.999996704102,0|8,0:0|0:0,0:0:0:0:
188,88,108186,1,0,0:0:0:0:
360,208,108509,5,8,0:0:0:0:
44,180,108831,1,8,0:0:0:0:
64,228,108912,1,8,0:0:0:0:
88,276,108993,1,8,0:0:0:0:
132,244,109073,1,8,0:0:0:0:
172,208,109154,6,0,P|228:156|284:132,1,112.5,4|0,0:0|0:0,0:0:0:0:
480,144,109476,2,0,P|424:196|368:220,1,112.5,8|0,0:0|0:0,0:0:0:0:
172,204,109799,1,0,0:0:0:0:
280,32,109960,1,0,0:0:0:0:
156,80,110122,1,8,0:0:0:0:
384,104,110283,1,0,0:0:0:0:
192,288,110444,2,0,P|232:212|272:184,1,112.5
464,140,110767,6,0,P|424:216|384:244,1,112.5,8|0,0:0|0:0,0:0:0:0:
228,340,111089,1,0,0:0:0:0:
348,192,111251,1,0,0:0:0:0:
312,352,111412,1,8,0:0:0:0:
276,160,111573,1,0,0:0:0:0:
112,276,111735,2,0,P|72:208|176:148,1,225,0|8,0:0|0:0,0:0:0:0:
36,308,112380,5,0,0:0:0:0:
175,147,112541,1,0,0:0:0:0:
240,248,112702,1,8,0:0:0:0:
60,80,112864,1,0,0:0:0:0:
152,280,113025,2,0,B|184:340|184:340|220:372,1,112.5
296,152,113347,6,0,B|264:92|264:92|228:60,1,112.5,8|0,0:0|0:0,0:0:0:0:
228,204,113670,1,0,0:0:0:0:
452,128,113831,1,0,0:0:0:0:
208,232,113993,1,8,0:0:0:0:
456,96,114154,1,0,0:0:0:0:
192,268,114315,2,0,B|144:304|116:360|116:360|200:360|240:328,1,225,0|8,0:0|0:0,0:0:0:0:
90,160,114960,5,0,0:1:0:0:
260,100,115122,1,0,0:1:0:0:
332,264,115283,1,8,0:0:0:0:
162,324,115445,1,0,0:1:0:0:
276,216,115606,2,0,P|336:180|388:176,1,112.5
162,324,115928,2,0,P|126:264|122:212,1,112.5,8|0,0:0|0:0,0:0:0:0:
136,88,116251,1,0,0:0:0:0:
280,100,116412,1,0,0:0:0:0:
280,100,116493,1,0,0:0:0:0:
280,100,116574,2,0,P|248:160|232:212,1,112.5,8|0,0:0|0:0,0:0:0:0:
256,300,116896,5,8,0:0:0:0:
124,232,117057,1,0,0:0:0:0:
300,224,117218,2,0,L|420:220,1,112.5,0|8,0:0|0:0,0:0:0:0:
216,272,117541,1,0,0:0:0:0:
104,188,117702,1,0,0:0:0:0:
252,192,117864,2,0,L|376:192,1,112.5,8|0,0:0|0:0,0:0:0:0:
184,240,118186,1,0,0:0:0:0:
72,156,118347,1,8,0:0:0:0:
220,160,118509,2,0,L|344:160,1,112.5
484,72,118831,6,0,L|364:72,2,112.5,8|0|8,0:0|0:0|0:0,0:0:0:0:
300,360,119476,6,0,P|352:324|368:256,1,112.5,4|0,0:0|0:0,0:0:0:0:
329,93,119798,2,0,P|277:129|260:184,1,112.5,8|0,0:0|0:0,0:0:0:0:
369,285,120121,1,0,0:0:0:0:
184,204,120282,1,0,0:0:0:0:
376,168,120443,1,8,0:0:0:0:
284,328,120605,1,0,0:0:0:0:
448,132,120766,6,0,P|404:92|328:96,1,112.5
156,128,121089,2,0,P|200:168|276:160,1,112.5,8|0,0:0|0:0,0:0:0:0:
448,132,121411,1,0,0:0:0:0:
236,100,121573,1,0,0:0:0:0:
232,268,121734,1,8,0:0:0:0:
324,88,121895,1,0,0:0:0:0:
408,216,122056,2,0,B|400:272|340:308|340:308|380:340|444:324,1,225,0|8,0:0|0:0,0:0:0:0:
320,224,122540,5,0,0:0:0:0:
472,128,122702,1,0,0:0:0:0:
296,40,122863,1,0,0:0:0:0:
388,192,123024,2,0,B|392:248|392:248|352:296,1,112.5,8|0,0:0|0:0,0:0:0:0:
296,40,123347,2,0,B|262:79|262:79|264:144,1,112.5
300,284,123669,5,8,0:0:0:0:
360,104,123831,1,0,0:0:0:0:
496,168,123992,1,0,0:0:0:0:
268,132,124153,1,0,0:0:0:0:
424,60,124314,2,0,P|440:108|400:168,1,112.5,8|0,0:0|0:0,0:0:0:0:
176,144,124637,6,0,B|172:52|76:40|16:64|56:160,1,225,0|8,0:0|0:0,0:0:0:0:
244,216,125121,1,0,0:0:0:0:
56,232,125282,2,0,L|40:348,1,112.5
244,216,125605,2,8,L|260:100,1,112.5,8|0,0:0|0:0,0:0:0:0:
268,24,125927,1,0,0:0:0:0:
184,272,126089,1,0,0:0:0:0:
432,136,126250,5,8,0:0:0:0:
392,280,126411,1,0,0:0:0:0:
300,168,126573,1,0,0:0:0:0:
476,228,126734,1,0,0:0:0:0:
292,272,126895,1,8,0:0:0:0:
128,228,127218,5,8,0:0:0:0:
240,96,127380,1,0,0:0:0:0:
72,164,127541,1,0,0:0:0:0:
208,248,127702,5,8,0:0:0:0:
168,72,127864,1,0,0:0:0:0:
280,208,128025,1,0,0:0:0:0:
124,220,128186,5,8,0:0:0:0:
96,96,128347,1,0,0:0:0:0:
280,132,128509,1,0,0:0:0:0:
200,260,128670,5,8,0:0:0:0:
220,80,128831,1,0,0:0:0:0:
88,168,128993,1,0,0:0:0:0:
276,208,129154,1,8,0:0:0:0:
372,64,129476,1,8,0:0:0:0:
396,88,129557,1,8,0:0:0:0:
412,120,129638,1,8,0:0:0:0:
420,152,129718,1,8,0:0:0:0:
424,184,129799,6,0,P|424:220|404:272,1,90,4|0,0:0|0:0,0:0:0:0:
220,344,130444,2,0,P|220:308|240:256,1,90,8|0,0:0|0:0,0:0:0:0:
312,164,131089,1,0,0:0:0:0:
312,164,131412,1,0,0:0:0:0:
360,296,131735,1,8,0:0:0:0:
360,296,132057,1,0,0:0:0:0:
236,256,132380,6,0,P|184:244|136:248,1,90
328,336,133025,2,0,P|340:284|336:236,1,90,8|0,0:0|0:0,0:0:0:0:
308,172,133670,1,0,0:0:0:0:
244,120,133993,1,0,0:0:0:0:
208,192,134315,6,0,L|168:276,1,90,8|0,0:0|0:0,0:0:0:0:
44,332,134960,2,0,L|84:248,1,90
116,176,135606,1,8,0:0:0:0:
60,116,135928,1,0,0:0:0:0:
136,88,136251,6,0,P|192:80|244:80,1,90
368,144,136896,2,0,P|312:152|260:152,1,90,8|0,0:0|0:0,0:0:0:0:
164,132,137380,5,0,0:0:0:0:
200,216,137541,2,0,L|224:304,1,72,8|0,0:0|0:0,0:0:0:0:
218,285,137864,1,0,0:0:0:0:
164,132,138025,1,8,0:0:0:0:
200,216,138186,2,0,L|128:248,1,72
134,245,138509,1,8,0:0:0:0:
292,176,138670,1,0,0:0:0:0:
200,216,138831,2,0,L|164:148,1,72,0|8,0:0|0:0,0:0:0:0:
166,152,139154,1,0,0:0:0:0:
408,56,139476,5,8,0:0:0:0:
392,240,139638,1,0,0:0:0:0:
376,24,139799,1,8,0:0:0:0:
428,268,139960,1,0,0:0:0:0:
380,100,140122,2,0,L|304:136,1,72,8|0,0:0|0:0,0:0:0:0:
156,84,140606,1,0,0:0:0:0:
136,188,140767,1,8,0:0:0:0:
48,96,140928,1,0,0:0:0:0:
228,264,141251,6,0,L|292:316,2,72,0|8|0,0:0|0:0|0:0,0:0:0:0:
88,296,141896,1,0,0:0:0:0:
144,220,142057,1,8,0:0:0:0:
256,192,142138,12,0,143106,0:0:0:0:
