osu file format v14

[General]
AudioFilename: audio.mp3
AudioLeadIn: 0
PreviewTime: 251159
Countdown: 0
SampleSet: Soft
StackLeniency: 0.2
Mode: 0
LetterboxInBreaks: 0
WidescreenStoryboard: 0

[Editor]
DistanceSpacing: 1.3
BeatDivisor: 4
GridSize: 32
TimelineZoom: 3.135649

[Metadata]
Title:Wet Sand
TitleUnicode:Wet Sand
Artist:Red Hot Chili Peppers
ArtistUnicode:Red Hot Chili Peppers
Creator:Rin Desu
Version:Insane
Source:
Tags:RHCP 2006 Stadium Arcadium
BeatmapID:4279818
BeatmapSetID:2049681

[Difficulty]
HPDrainRate:7
CircleSize:4.4
OverallDifficulty:7.8
ApproachRate:9
SliderMultiplier:1.2
SliderTickRate:1

[Events]
//Background and Video events
0,0,"bg wetsand.jpg",0,0
//Break Periods
//Storyboard Layer 0 (Background)
//Storyboard Layer 1 (Fail)
//Storyboard Layer 2 (Pass)
//Storyboard Layer 3 (Foreground)
//Storyboard Layer 4 (Overlay)
//Storyboard Sound Samples

[TimingPoints]
331,355.837209302326,4,2,2,20,1,0
4067,-100,4,2,2,5,0,0
4156,-100,4,2,2,20,0,0
4601,-100,4,2,2,5,0,0
4690,-100,4,2,2,20,0,0
4956,349.837209302326,4,2,2,20,1,0
5305,-100,4,2,2,5,0,0
5393,-100,4,2,2,20,0,0
6530,-100,4,2,2,5,0,0
6617,-100,4,2,2,20,0,0
7055,334.837209302326,4,2,2,20,1,0
8059,365.837209302326,4,2,2,20,1,0
8424,343.837209302326,4,2,2,20,1,0
8595,-100,4,2,2,5,0,0
8681,-100,4,2,2,20,0,0
9283,-100,4,2,2,5,0,0
9369,-100,4,2,2,20,0,0
9455,356.837209302326,4,2,2,20,1,0
9811,-100,4,2,2,5,0,0
9901,-100,4,2,2,20,0,0
10525,328.837209302326,4,2,2,20,1,0
11182,347.837209302326,4,2,2,20,1,0
11355,-100,4,2,2,5,0,0
11442,-100,4,2,2,20,0,0
12051,-100,4,2,2,5,0,0
12138,-100,4,2,2,20,0,0
12225,369.837209302326,4,2,2,20,1,0
12594,-100,4,2,2,5,0,0
12687,-100,4,2,2,20,0,0
12964,326.837209302326,4,2,2,20,1,0
13127,-100,4,2,2,5,0,0
13209,-100,4,2,2,20,0,0
13617,342.837209302326,4,2,2,20,1,0
14988,375.837209302326,4,2,2,20,1,0
15175,-100,4,2,2,5,0,0
15269,-100,4,2,2,20,0,0
15551,-100,4,2,2,5,0,0
15645,-100,4,2,2,20,0,0
15739,334.337209302326,4,2,2,20,1,0
17243,-100,4,2,2,5,0,0
17327,-100,4,2,2,20,0,0
17410,375.837209302326,4,2,2,20,1,0
17597,-100,4,2,2,5,0,0
17691,-100,4,2,2,20,0,0
17973,-100,4,2,2,5,0,0
18067,-100,4,2,2,20,0,0
18161,327.637209302326,4,2,2,20,1,0
18324,-100,4,2,2,5,0,0
18406,-100,4,2,2,20,0,0
18652,-100,4,2,2,5,0,0
18734,-100,4,2,2,20,0,0
18816,345.687209302326,4,2,2,20,1,0
19507,347.137209302326,4,2,2,20,1,0
22284,357.337209302326,4,2,2,20,1,0
24070,326.837209302326,4,2,2,20,1,0
24723,350.837209302326,4,2,2,20,1,0
26126,351.837209302326,4,2,2,20,1,0
28588,334.837209302326,4,2,2,20,1,0
28922,345.237209302326,4,2,2,20,1,0
31683,365.837209302326,4,2,2,20,1,0
33878,352.137209302326,4,2,2,20,1,0
35990,356.437209302326,4,2,2,20,1,0
37415,352.937209302326,4,2,2,20,1,0
40238,344.237209302326,4,2,2,20,1,0
42995,362.637209302326,4,2,2,20,1,0
43720,364.787209302326,4,2,2,20,1,0
44084,333.837209302326,4,2,2,20,1,0
44751,349.747209302326,4,2,2,20,1,0
45100,-90.9090909090909,4,2,2,20,0,0
46149,352.337209302326,4,2,2,20,1,0
46149,-90.9090909090909,4,2,2,20,0,0
47558,362.837209302326,4,2,2,20,1,0
47558,-90.9090909090909,4,2,2,20,0,0
47920,348.037209302326,4,2,2,20,1,0
47920,-100,4,2,2,20,0,0
51400,351.837209302326,4,2,2,20,1,0
51400,-90.9090909090909,4,2,2,20,0,0
52103,315.837209302326,4,2,2,20,1,0
52103,-90.9090909090909,4,2,2,20,0,0
52418,362.837209302326,4,2,2,20,1,0
52418,-90.9090909090909,4,2,2,20,0,0
53143,312.837209302326,4,2,2,20,1,0
53143,-90.9090909090909,4,2,2,20,0,0
53455,353.837209302326,4,2,2,20,1,0
53455,-90.9090909090909,4,2,2,20,0,0
54870,349.837209302326,4,2,2,20,1,0
54870,-90.9090909090909,4,2,2,20,0,0
56619,340.837209302326,4,2,2,20,1,0
56619,-90.9090909090909,4,2,2,20,0,0
56959,357.837209302326,4,2,2,20,1,0
56959,-90.9090909090909,4,2,2,20,0,0
57674,348.837209302326,4,2,2,20,1,0
57674,-90.9090909090909,4,2,2,20,0,0
61511,345.137209302326,4,2,2,20,1,0
61511,-90.9090909090909,4,2,2,20,0,0
64272,363.337209302326,4,2,2,20,1,0
64272,-90.9090909090909,4,2,2,20,0,0
66088,334.837209302326,4,2,2,20,1,0
66088,-90.9090909090909,4,2,2,20,0,0
66422,323.837209302326,4,2,2,20,1,0
66422,-83.3333333333333,4,2,2,20,0,0
67069,350.837209302326,4,2,2,20,1,0
67069,-83.3333333333333,4,2,2,20,0,0
67419,370.837209302326,4,2,2,20,1,0
67419,-83.3333333333333,4,2,2,20,0,0
68160,355.837209302326,4,2,2,20,1,0
68160,-83.3333333333333,4,2,2,20,0,0
70295,339.137209302326,4,2,2,20,1,0
70395,-83.3333333333333,4,2,2,20,0,0
70973,355.837209302326,4,2,2,20,1,0
71073,-83.3333333333333,4,2,2,20,0,0

[HitObjects]
42,69,331,5,0,0:0:0:0:
42,69,1042,1,0,0:0:0:0:
129,38,1576,1,0,0:0:0:0:
129,38,1932,2,0,P|127:76|127:116,1,60
126,179,2643,1,0,0:0:0:0:
126,179,3177,5,0,0:0:0:0:
190,231,3889,2,0,P|194:269|203:315,1,60
74,244,4423,2,0,P|78:282|87:328,1,60
147,356,4956,1,0,0:0:0:0:
296,336,5655,1,0,0:0:0:0:
455,256,6005,6,0,B|345:302|345:224|235:267,1,210
233,222,6705,2,0,P|227:156|231:88,1,120
229,102,7222,1,0,0:0:0:0:
229,102,7724,1,0,0:0:0:0:
229,102,8059,1,0,0:0:0:0:
356,2,8424,6,0,P|351:43|351:85,1,60
298,203,8767,2,0,P|391:180|460:260,1,210
488,271,9455,2,0,P|494:205|491:134,1,120
489,49,9990,2,0,P|423:28|358:55,1,120
338,120,10525,5,0,0:0:0:0:
290,50,10689,1,0,0:0:0:0:
215,82,10853,1,0,0:0:0:0:
141,123,11018,1,0,0:0:0:0:
142,38,11182,1,0,0:0:0:0:
142,38,11529,6,0,P|64:86|71:170,1,180
151,195,12225,2,0,P|158:232|160:276,1,60
76,333,12594,2,0,P|78:303|84:273,1,60
228,296,12964,2,0,L|295:290,1,60
352,339,13290,2,0,L|411:344,1,60
490,359,13617,5,0,0:0:0:0:
452,284,13788,1,0,0:0:0:0:
502,217,13959,1,0,0:0:0:0:
395,221,14131,1,0,0:0:0:0:
444,159,14302,6,0,P|410:116|277:88,1,180
144,149,14988,2,0,P|176:146|227:145,1,60
320,212,15363,2,0,P|290:209|260:208,1,60
187,250,15739,1,0,0:0:0:0:
378,272,15906,2,0,P|400:239|395:183,1,90
381,158,16240,5,0,0:0:0:0:
464,157,16407,1,0,0:0:0:0:
510,87,16574,1,0,0:0:0:0:
425,85,16742,1,0,0:0:0:0:
469,13,16909,1,0,0:0:0:0:
343,76,17076,6,0,P|339:41|338:8,1,60
255,80,17410,2,0,P|253:109|250:139,1,60
166,98,17785,2,0,P|162:68|161:38,1,60
79,108,18161,2,0,P|77:137|74:168,1,60
61,291,18488,2,0,P|132:254|163:328,1,180
265,361,19161,2,0,P|300:358|333:358,1,60
465,309,19507,2,0,P|440:299|407:322,1,60
478,214,19854,2,0,B|390:190|392:249|293:200,1,180
472,131,20548,2,0,P|475:92|476:55,1,60
356,119,20895,2,0,P|272:73|218:168,1,210
181,151,21589,6,0,P|178:116|171:81,1,70
103,68,21936,1,0,0:0:0:0:
26,102,22110,1,0,0:0:0:0:
93,147,22284,1,0,0:0:0:0:
106,229,22461,1,0,0:0:0:0:
32,270,22641,6,0,P|91:311|185:264,1,180
267,142,23356,2,0,P|228:140|186:145,1,60
337,200,23713,2,0,P|367:199|397:201,1,60
352,117,24070,2,0,P|352:82|360:48,1,60
437,17,24396,2,0,P|442:46|441:76,1,60
468,150,24723,5,0,0:0:0:0:
397,201,24898,1,0,0:0:0:0:
458,257,25073,1,0,0:0:0:0:
379,286,25249,1,0,0:0:0:0:
431,351,25424,2,0,P|337:358|297:275,1,180
203,339,26126,6,0,P|168:339|130:344,1,60
200,253,26477,2,0,P|210:222|223:195,1,60
116,266,26829,1,0,0:0:0:0:
116,266,27005,2,0,P|70:313|70:370,1,120
143,341,27533,1,0,0:0:0:0:
216,299,27709,1,0,0:0:0:0:
186,220,27885,1,0,0:0:0:0:
249,164,28061,1,0,0:0:0:0:
99,82,28237,6,0,L|90:158,1,60
37,210,28588,2,0,L|48:276,1,60
232,242,28922,2,0,P|202:215|153:219,1,90
145,253,29267,2,0,L|136:329,1,60
240,328,29612,6,0,P|276:315|295:188,1,180
388,317,30302,2,0,P|383:352|382:387,1,60
473,301,30648,2,0,P|471:271|466:241,1,60
342,122,30993,2,0,P|417:77|423:166,1,210
389,185,31683,2,0,P|373:215|373:250,1,60
277,150,32048,2,0,P|393:3|440:235,1,540
299,315,33878,5,0,0:0:0:0:
299,315,34582,1,0,0:0:0:0:
85,42,35638,2,0,L|84:155,1,90
83,167,35990,1,0,0:0:0:0:
83,167,36702,1,0,0:0:0:0:
418,136,37415,6,0,P|365:139|313:143,1,90
292,145,37767,1,0,0:0:0:0:
352,236,37944,2,0,P|279:251|210:230,1,120
489,191,38473,2,0,P|504:115|412:45,1,180
352,47,39179,2,0,P|311:48|269:53,1,60
208,60,39532,6,0,P|200:148|197:272,1,210
195,312,40238,6,0,P|124:295|43:304,1,150
19,323,40754,1,0,0:0:0:0:
38,219,40926,2,0,L|18:157,1,60
183,101,41270,2,0,P|177:190|250:244,1,180
260,150,41959,1,0,0:0:0:0:
476,48,42303,6,0,P|365:53|245:63,1,210
224,66,42995,1,0,0:0:0:0:
370,188,43357,1,0,0:0:0:0:
416,257,43538,1,0,0:0:0:0:
366,324,43720,2,0,P|317:325|269:330,1,90
238,354,44084,2,0,P|193:353|148:349,1,90
125,313,44417,2,0,P|80:317|35:317,1,90
19,281,44751,1,0,0:0:0:0:
286,230,45100,5,0,0:0:0:0:
286,230,45275,2,0,P|280:159|276:84,1,132.00000402832
341,30,45800,2,0,P|379:30|427:34,1,66.0000020141602
439,109,46149,2,0,P|471:107|504:107,1,66.0000020141602
479,207,46501,1,0,0:0:0:0:
480,207,46853,2,0,P|426:207|370:235,1,99.0000030212403
354,258,47206,2,0,P|357:295|362:332,1,66.0000020141602
268,231,47558,2,0,P|272:198|274:165,1,66.0000020141602
278,48,47920,5,0,0:0:0:0:
168,110,48094,2,0,P|161:179|160:244,1,120
222,364,48616,2,0,P|221:333|210:284,1,60
268,231,48964,2,0,P|296:230|327:234,1,60
377,309,49312,1,0,0:0:0:0:
445,197,49486,2,0,P|442:227|443:257,2,60
456,104,50008,2,0,P|397:92|334:86,1,120
211,24,50530,5,0,0:0:0:0:
211,24,50704,2,0,P|207:61|205:96,1,60
269,206,51052,2,0,P|266:176|263:146,1,60
192,34,51400,2,0,P|188:71|186:106,1,60
250,216,51748,2,0,P|247:186|244:156,1,60
142,183,52103,2,0,P|88:179|35:194,1,99.0000030212403
27,226,52418,6,0,P|38:281|31:329,1,99.0000030212403
15,358,52780,1,0,0:0:0:0:
121,320,52962,1,0,0:0:0:0:
221,364,53143,2,0,P|275:360|338:358,1,99.0000030212403
354,354,53455,2,0,P|390:252|286:246,1,231.000007049561
271,266,54162,1,0,0:0:0:0:
417,326,54516,2,0,P|420:266|378:216,1,99.0000030212403
367,211,54870,5,0,0:0:0:0:
412,130,55044,2,0,P|342:121|286:120,1,99.0000030212403
267,120,55394,1,0,0:0:0:0:
214,218,55744,1,0,0:0:0:0:
214,218,55919,2,0,P|144:209|88:208,1,99.0000030212403
69,205,56269,6,0,L|64:290,1,66.0000020141602
155,384,56619,2,0,L|151:318,1,66.0000020141602
253,299,56959,2,0,L|338:303,1,66.0000020141602
423,359,57316,2,0,P|433:321|422:254,1,99.0000030212403
399,222,57674,1,0,0:0:0:0:
472,166,57848,2,0,L|479:17,1,132.00000402832
385,43,58371,2,0,P|314:43|266:45,1,99.0000030212403
243,63,58720,2,0,P|193:61|144:62,1,99.0000030212403
97,62,59069,1,0,0:0:0:0:
69,247,59418,5,0,0:0:0:0:
69,247,59592,1,0,0:0:0:0:
69,247,59767,1,0,0:0:0:0:
209,366,60115,1,0,0:0:0:0:
347,243,60464,1,0,0:0:0:0:
209,366,60813,1,0,0:0:0:0:
209,366,60987,2,0,P|211:268|251:189,1,165.000005035401
262,176,61511,1,0,0:0:0:0:
405,108,61856,6,0,L|318:95,1,66.0000020141602
388,207,62201,2,0,L|453:197,1,66.0000020141602
418,80,62546,6,0,L|331:67,1,66.0000020141602
401,179,62891,2,0,L|466:169,1,66.0000020141602
279,122,63236,2,0,P|264:92|262:59,1,66.0000020141602
401,179,63581,2,0,P|398:211|384:241,1,66.0000020141602
236,199,63926,2,0,P|191:189|120:195,1,99.0000030212403
101,203,64272,2,0,P|113:256|117:327,1,99.0000030212403
106,338,64635,2,0,P|162:328|324:341,1,198.000006042481
302,335,65362,1,0,0:0:0:0:
106,338,65725,2,0,P|143:337|194:336,1,66.0000020141602
314,203,66088,5,0,0:0:0:0:
314,203,66422,1,0,0:0:0:0:
298,105,66583,5,0,0:0:0:0:
329,301,66745,1,0,0:0:0:0:
416,268,66907,1,0,0:0:0:0:
398,351,67069,1,0,0:0:0:0:
241,272,67244,1,0,0:0:0:0:
252,355,67419,6,0,P|156:274|213:194,1,215.999993408203
415,182,68160,2,0,L|263:168,1,116.999994644165
263,167,68515,1,0,0:0:0:0:
349,90,68693,2,0,P|272:48|185:77,1,179.999994506836
145,93,69227,2,0,P|98:87|44:83,1,71.9999978027344
79,233,69583,6,0,P|118:228|172:222,1,71.9999978027344
255,191,69939,1,0,0:0:0:0:
91,211,70117,2,0,L|184:200,1,71.9999978027344
255,191,70464,1,0,0:0:0:0:
229,307,70634,2,0,P|172:299|119:320,1,107.999996704102
103,345,70973,1,0,0:0:0:0:
292,369,71150,2,0,P|328:283|294:192,1,181.999991668702
293,163,71684,2,0,P|245:162|197:168,1,90.9999958343508
