osu file format v14

[General]
AudioFilename: audio.mp3
AudioLeadIn: 0
PreviewTime: 39262
Countdown: 0
SampleSet: Soft
StackLeniency: 0.2
Mode: 0
LetterboxInBreaks: 0
WidescreenStoryboard: 0

[Editor]
Bookmarks: 1435,20304,29774,39262,43975,53471,58177,62903,70042,79543,79841,80140,80439,80738,81036,81335
DistanceSpacing: 2.7
BeatDivisor: 8
GridSize: 4
TimelineZoom: 3.340001

[Metadata]
Title:Suck My Kiss
TitleUnicode:Suck My Kiss
Artist:Red Hot Chili Peppers
ArtistUnicode:Red Hot Chili Peppers
Creator:Rin Desu
Version:Parachute's Kiss
Source:
Tags:RHCP 1991 Blood Sugar Sex Magic Rock Alternative Funk -Space- Space Parachute Explicit
BeatmapID:1366652
BeatmapSetID:596832

[Difficulty]
HPDrainRate:6.5
CircleSize:5
OverallDifficulty:8
ApproachRate:9
SliderMultiplier:3.4
SliderTickRate:1

[Events]
//Background and Video events
0,0,"spdQn7.png",0,0
//Break Periods
//Storyboard Layer 0 (Background)
//Storyboard Layer 1 (Fail)
//Storyboard Layer 2 (Pass)
//Storyboard Layer 3 (Foreground)
//Storyboard Sound Samples

[TimingPoints]
1435,597.659405940594,4,2,2,68,1,0
6216,583.559405940594,4,2,2,68,1,0
8550,590.259405940594,4,2,2,68,1,0
10320,574.559405940594,4,2,2,68,1,0
10894,588.559405940595,4,2,2,68,1,0
11188,-100,4,2,2,48,0,0
11482,-100,4,2,2,68,0,0
12659,588.959405940594,4,2,2,68,1,0
15014,587.359405940594,4,2,2,68,1,0
17363,589.659405940594,4,2,2,68,1,0
19721,583.759405940593,4,2,2,68,1,0
20012,-100,4,2,2,58,0,0
20158,-100,4,2,2,68,0,0
22056,606.759405940594,4,2,2,68,1,0
22207,-100,4,2,2,48,0,0
22662,-100,4,2,2,68,0,0
23269,589.459405940594,4,2,2,68,1,0
24742,-100,4,2,2,48,0,0
25037,-100,4,2,2,68,0,0
25626,591.959405940593,4,2,2,68,1,0
26809,611.059405940595,4,2,2,68,1,0
26961,-100,4,2,2,48,0,0
27420,-100,4,2,2,68,0,0
28031,575.259405940593,4,2,2,68,1,0
28750,-100,4,2,2,58,0,0
29181,593.759405940593,4,2,2,68,1,0
31556,601.059405940594,4,2,2,68,1,0
33960,583.959405940594,4,2,2,68,1,0
35127,588.959405940594,4,2,2,68,1,0
36304,613.659405940595,4,2,2,68,1,0
37531,572.259405940594,4,2,2,68,1,0
38675,587.859405940594,4,2,2,68,1,0
39850,590.459405940595,4,2,2,68,1,0
41030,585.659405940594,4,2,2,68,1,0
42201,587.159405940594,4,2,2,68,1,0
43375,600.859405940595,4,2,2,68,1,0
43975,593.859405940593,4,2,2,68,1,0
45756,604.159405940595,4,2,2,68,1,0
45907,-100,4,2,2,48,0,0
46058,-100,4,2,2,68,0,0
46964,597.259405940594,4,2,2,68,1,0
48158,597.659405940594,4,2,2,68,1,0
49353,574.659405940594,4,2,2,68,1,0
50502,630.079405940596,4,2,2,68,1,0
50659,-100,4,2,2,48,0,0
50817,-100,4,2,2,68,0,0
51132,599.259405940594,4,2,2,48,1,0
51431,-100,4,2,2,68,0,0
51731,566.359405940593,4,2,2,68,1,0
52863,608.659405940594,4,2,2,68,1,0
54080,567.359405940593,4,2,2,68,1,0
55214,590.759405940594,4,2,2,68,1,0
55804,592.359405940593,4,2,2,68,1,0
56988,595.459405940593,4,2,2,68,1,0
57583,594.059405940593,4,2,2,68,1,0
58177,594.559405940593,4,2,2,68,1,0
58771,578.659405940594,4,2,2,68,1,0
59928,590.659405940593,4,2,2,68,1,0
60502,371.799999999999,4,2,2,68,1,0
60873,375,4,2,2,68,1,0
61059,614.159405940596,4,2,2,68,1,0
62903,602.059405940595,4,2,2,68,1,0
64107,602.059405940595,4,2,2,68,1,0
65311,597.159405940594,4,2,2,68,1,0
66505,584.759405940594,4,2,2,68,1,0
67089,592.759405940593,4,2,2,68,1,0
67681,583.659405940594,4,2,2,68,1,0
68848,597.159405940594,4,2,2,68,1,0
70042,593.659405940593,4,2,2,68,1,0
71822,597.659405940594,4,2,2,68,1,0
72419,596.959405940594,4,2,2,68,1,0
73015,596.759405940594,4,2,2,68,1,0
73611,597.659405940594,4,2,2,68,1,0
74806,595.859405940594,4,2,2,68,1,0
77189,583.659405940594,4,2,2,68,1,0
78356,593.959405940593,4,2,2,68,1,0
79543,597.659405940594,4,2,2,38,1,0
79841,-100,4,2,2,28,0,0
80738,597.659405940594,4,2,2,18,1,0
81335,-100,4,2,2,8,0,0

[Colours]
Combo1 : 255,0,0
Combo2 : 128,128,128
Combo3 : 255,128,192
Combo4 : 0,255,64

[HitObjects]
168,48,1435,6,0,P|256:48|344:48,2,170,6|0|0,0:0|0:0|1:0,0:0:0:0:
256,192,2331,2,0,P|308:240|296:340,1,170,2|0,0:0|0:0,0:0:0:0:
210,333,2779,2,0,P|199:251|255:192,1,170,0|2,0:0|0:0,0:0:0:0:
332,68,3227,2,0,P|256:36|180:68,1,170,0|2,1:2|0:0,0:0:0:0:
160,152,3676,1,0,0:0:0:0:
76,144,3825,6,0,L|76:44,1,85
0,108,4124,2,0,L|0:316,1,170,2|0,0:0|1:0,0:0:0:0:
184,324,4722,2,0,P|255:364|328:324,1,170,2|0,0:0|0:0,0:0:0:0:
256,277,5170,2,0,P|185:237|114:276,1,170,0|2,0:0|0:0,0:0:0:0:
256,277,5618,2,0,L|256:107,1,170,0|2,1:2|0:0,0:0:0:0:
256,107,6066,1,0,0:0:0:0:
340,72,6216,6,0,L|340:168,1,85
424,104,6507,2,0,L|424:296,1,170,2|0,0:0|1:0,0:0:0:0:
184,324,7091,2,0,P|255:364|328:324,1,170,2|0,0:0|0:0,0:0:0:0:
256,277,7529,2,0,P|184:237|113:275,1,170,0|2,0:0|0:0,0:0:0:0:
256,107,7966,2,0,L|256:277,1,170,0|2,1:2|0:0,0:0:0:0:
256,277,8404,1,0,0:0:0:0:
256,22,8550,6,0,L|256:107,1,85,4|0,0:0|0:0,0:0:0:0:
256,277,8845,2,0,L|256:192,1,85,2|0,0:0|0:0,0:0:0:0:
256,362,9140,2,0,L|256:277,1,85,0|0,1:2|0:0,0:0:0:0:
256,22,9435,2,0,L|256:107,1,85,2|0,0:0|0:0,0:0:0:0:
468,192,9730,2,0,L|383:192,1,85
44,192,10025,2,0,L|129:192,1,85,2|0,0:0|0:0,0:0:0:0:
360,304,10320,5,2,1:2:0:0:
256,124,10463,1,0,0:0:0:0:
152,304,10607,1,2,1:2:0:0:
256,22,10750,1,2,1:2:0:0:
256,192,10894,6,0,L|256:280,1,85,4|0,0:0|0:0,0:0:0:0:
192,172,11188,2,0,P|256:124|320:172,1,170,6|0,0:2|1:0,0:0:0:0:
88,48,11776,2,0,P|49:120|88:192,1,170,2|0,0:2|0:0,0:0:0:0:
87,336,12218,2,0,P|125:264|88:192,1,170,0|2,0:0|0:0,0:0:0:0:
256,192,12659,2,0,L|436:192,1,170,0|2,1:2|0:0,0:0:0:0:
426,192,13100,1,0,0:0:0:0:
341,112,13247,6,0,L|256:112,1,85
426,32,13542,2,0,L|256:32,1,170,2|0,0:0|1:0,0:0:0:0:
112,191,14131,2,0,P|184:230|256:192,1,170,2|0,0:0|0:0,0:0:0:0:
400,191,14573,2,0,P|328:153|256:192,1,170,0|2,0:0|0:0,0:0:0:0:
256,362,15014,2,0,L|256:192,1,170,0|2,1:0|0:0,0:0:0:0:
256,192,15454,1,0,0:0:0:0:
164,192,15601,6,0,L|164:107,1,85
72,22,15895,2,0,L|72:192,1,170,2|0,0:0|1:0,0:0:0:0:
154,18,16482,2,0,P|232:41|256:120,1,170,2|0,0:0|0:0,0:0:0:0:
358,222,16922,2,0,P|280:198|256:120,1,170,0|2,0:0|0:0,0:0:0:0:
256,289,17363,2,0,L|256:119,1,170,0|2,1:0|0:0,0:0:0:0:
256,119,17805,1,0,0:0:0:0:
256,289,17952,6,0,L|160:289,1,85,4|0,0:0|0:0,0:0:0:0:
171,192,18247,2,0,L|256:192,1,85,2|0,0:0|0:0,0:0:0:0:
341,95,18542,2,0,L|256:95,1,85,0|0,1:0|0:0,0:0:0:0:
256,192,18837,2,0,L|341:192,1,85,2|0,0:0|0:0,0:0:0:0:
171,192,19131,2,0,L|86:192,1,85
341,95,19426,2,0,L|426:95,1,85,2|0,0:0|0:0,0:0:0:0:
171,289,19721,5,2,1:2:0:0:
341,289,19866,1,0,0:0:0:0:
86,192,20012,1,6,1:2:0:0:
426,192,20158,1,2,1:2:0:0:
256,192,20304,6,0,P|248:280|312:360,2,170,0|2|0,0:0|0:0|1:0,0:0:0:0:
256,192,21034,1,2,0:0:0:0:
222,38,21326,2,0,P|266:109|257:191,1,170
88,192,21764,2,0,L|3:192,1,85,2|0,0:0|0:0,0:0:0:0:
341,192,22056,2,0,L|256:192,1,85,0|4,1:0|0:0,0:0:0:0:
256,360,22662,6,0,P|164:348|88:360,2,170,0|2|0,0:0|0:0|1:0,0:0:0:0:
256,360,23416,1,2,0:0:0:0:
423,359,23711,2,0,P|339:347|256:360,1,170,0|0,0:0|1:0,0:0:0:0:
256,360,24153,1,2,0:0:0:0:
256,192,24300,1,0,0:0:0:0:
396,284,24447,5,0,1:0:0:0:
256,80,24595,1,0,0:0:0:0:
116,284,24742,1,4,0:0:0:0:
116,283,25037,6,0,P|193:249|256:192,2,170,0|2|0,0:0|0:0|1:0,0:0:0:0:
116,284,25773,1,2,0:0:0:0:
396,284,26069,2,0,P|320:246|256:192,1,170
403,192,26513,2,0,L|488:192,1,85,2|0,0:0|0:0,0:0:0:0:
171,192,26809,2,0,L|256:192,1,85,0|4,1:0|0:0,0:0:0:0:
256,192,27420,6,0,P|205:268|135:312,2,170,0|2|0,0:0|0:0|1:0,0:0:0:0:
256,192,28174,1,2,0:0:0:0:
370,73,28462,2,0,P|301:120|256:192,1,170,0|0,0:0|1:0,0:0:0:0:
256,192,28893,1,2,0:0:0:0:
160,192,29037,1,0,0:0:0:0:
352,192,29181,5,0,1:0:0:0:
112,112,29329,1,0,1:0:0:0:
400,272,29477,1,0,0:0:0:0:
400,272,29774,5,4,0:0:0:0:
308,272,29923,1,0,0:0:0:0:
352,192,30071,1,2,0:0:0:0:
160,192,30368,5,0,1:0:0:0:
204,272,30516,1,0,0:0:0:0:
112,272,30665,1,2,0:0:0:0:
256,192,30962,5,0,0:0:0:0:
256,96,31110,1,0,0:0:0:0:
256,0,31259,1,2,0:0:0:0:
256,192,31556,5,0,1:0:0:0:
256,288,31705,1,0,0:0:0:0:
256,384,31856,1,2,0:0:0:0:
176,288,32006,1,0,0:0:0:0:
256,192,32157,6,0,L|356:192,1,85
256,96,32457,2,0,L|156:96,1,85,2|0,0:0|0:0,0:0:0:0:
256,0,32758,2,0,L|356:0,1,85,0|0,1:0|0:0,0:0:0:0:
256,96,33058,1,2,0:0:0:0:
256,192,33208,1,0,0:0:0:0:
212,284,33359,5,0,0:0:0:0:
300,284,33509,2,0,L|396:284,1,85,0|2,1:0|0:0,0:0:0:0:
212,284,33809,2,0,L|127:284,1,85,0|0,0:0|1:0,0:0:0:0:
256,192,34105,2,0,L|426:192,1,170
86,192,34543,6,0,L|256:192,1,170,0|2,0:0|0:0,0:0:0:0:
256,192,35127,2,0,L|1:192,1,255,0|2,1:0|0:0,0:0:0:0:
256,192,35715,1,0,0:0:0:0:
1,192,35863,1,0,0:0:0:0:
511,192,36304,2,0,L|256:192,1,255,2|0,1:2|0:0,0:0:0:0:
171,192,36917,6,0,L|267:192,1,85
304,288,37224,1,2,0:0:0:0:
256,112,37378,1,0,0:0:0:0:
208,288,37531,1,0,1:0:0:0:
341,192,37674,1,0,0:0:0:0:
171,192,37817,2,0,L|76:193,1,85,2|0,0:0|0:0,0:0:0:0:
256,112,38103,5,0,0:0:0:0:
341,192,38246,2,0,L|436:192,2,85,0|2|0,1:0|0:0|0:0,0:0:0:0:
256,112,38675,1,0,1:0:0:0:
256,272,38821,1,0,1:0:0:0:
172,128,38968,1,2,0:0:0:0:
340,256,39115,1,0,0:0:0:0:
256,192,39262,5,4,0:0:0:0:
256,192,39556,2,0,L|164:192,1,85
341,324,39850,2,0,L|256:324,1,85,2|0,1:2|0:0,0:0:0:0:
444,192,40145,2,0,L|359:192,1,85
256,60,40440,2,0,L|348:60,1,85,2|0,0:0|0:0,0:0:0:0:
171,192,40735,2,0,L|275:192,1,85
511,192,41030,2,0,L|256:192,1,255,2|0,1:2|0:0,0:0:0:0:
1,192,41615,6,0,L|105:192,1,85,4|0,0:0|0:0,0:0:0:0:
24,308,41908,1,0,0:0:0:0:
171,192,42054,1,0,0:0:0:0:
24,76,42201,2,0,P|116:68|180:28,2,170,0|2|0,1:0|0:0|0:0,0:0:0:0:
24,308,43081,1,2,0:0:0:0:
256,192,43375,2,0,L|171:192,1,85,0|0,1:0|0:0,0:0:0:0:
256,88,43675,2,0,L|341:88,1,85,0|0,1:0|0:0,0:0:0:0:
340,296,43975,6,0,L|170:296,2,170,0|2|0,0:0|0:0|1:0,0:0:0:0:
426,192,44717,1,0,0:0:0:0:
340,88,44865,2,0,L|170:88,1,170,2|0,0:0|0:0,0:0:0:0:
86,192,45311,1,0,0:0:0:0:
170,296,45459,1,2,0:0:0:0:
256,192,45608,1,0,0:0:0:0:
86,192,45756,1,0,1:0:0:0:
256,296,45907,1,4,0:0:0:0:
426,192,46058,2,0,L|256:192,1,170,2|0,0:0|0:0,0:0:0:0:
171,88,46511,5,0,0:0:0:0:
341,88,46662,2,0,L|256:88,1,85,2|0,0:0|0:0,0:0:0:0:
170,296,46964,2,0,L|340:296,1,170,0|2,1:0|0:0,0:0:0:0:
340,296,47411,1,0,0:0:0:0:
336,156,47561,1,0,0:0:0:0:
176,156,47710,2,0,L|76:156,1,85,0|2,1:2|0:0,0:0:0:0:
256,192,48009,1,0,0:0:0:0:
128,72,48158,1,0,1:0:0:0:
384,72,48307,1,0,0:0:0:0:
256,296,48456,1,2,0:0:0:0:
256,88,48755,5,0,0:0:0:0:
86,360,49054,1,2,0:0:0:0:
426,360,49353,2,0,L|256:360,2,170,0|2|0,1:0|0:0|0:0,0:0:0:0:
426,24,50214,1,2,0:0:0:0:
86,24,50502,2,0,L|192:24,1,85,0|4,1:0|0:0,0:0:0:0:
171,24,51132,1,4,0:0:0:0:
171,24,51431,5,0,0:0:0:0:
256,107,51581,1,0,0:0:0:0:
180,192,51731,1,2,1:2:0:0:
256,277,51872,1,0,0:0:0:0:
340,192,52014,5,0,0:0:0:0:
256,277,52155,1,0,0:0:0:0:
180,192,52297,1,2,0:0:0:0:
256,107,52438,2,0,L|256:279,1,170,0|0,1:0|0:0,0:0:0:0:
408,107,52863,1,0,1:0:0:0:
256,360,53015,1,0,1:0:0:0:
104,107,53167,1,2,0:0:0:0:
256,192,53471,5,4,0:0:0:0:
28,192,53775,2,0,L|28:296,1,85
104,107,54080,2,0,L|104:192,1,85,2|0,1:2|0:0,0:0:0:0:
180,192,54363,2,0,L|180:277,1,85
256,107,54647,2,0,L|256:192,1,85,2|0,0:0|0:0,0:0:0:0:
332,192,54931,2,0,L|332:277,1,85
408,107,55214,2,0,L|408:277,1,170,2|0,1:2|0:0,0:0:0:0:
484,360,55657,1,0,0:0:0:0:
484,192,55804,6,0,L|484:88,1,85,4|0,0:0|0:0,0:0:0:0:
408,277,56100,2,0,L|408:362,1,85
332,107,56396,2,0,L|332:22,1,85,2|0,1:2|0:0,0:0:0:0:
256,277,56692,2,0,L|256:192,1,85
180,107,56988,2,0,L|180:192,2,85,2|0|0,0:0|0:0|0:0,0:0:0:0:
180,107,57434,1,0,0:0:0:0:
104,362,57583,2,0,L|104:192,1,170,2|0,1:2|1:0,0:0:0:0:
104,192,58028,1,2,1:2:0:0:
180,107,58177,6,0,P|255:75|332:108,2,170,4|2|0,0:0|0:0|1:0,0:0:0:0:
256,192,58915,2,0,P|181:224|104:191,2,170,0|2|0,0:0|0:0|1:0,0:0:0:0:
408,193,59638,2,0,P|332:160|256:192,1,170,2|0,0:0|1:0,0:0:0:0:
256,362,60075,2,0,L|256:192,1,170,2|0,0:0|0:0,0:0:0:0:
256,12,60502,5,0,1:0:0:0:
256,28,60594,1,0,0:0:0:0:
256,44,60687,1,0,0:0:0:0:
256,60,60780,1,0,0:0:0:0:
256,76,60873,1,0,1:0:0:0:
256,92,60966,1,0,0:0:0:0:
256,108,61059,2,0,B|236:192|276:192|252:284,1,170,0|4,0:0|0:0,0:0:0:0:
256,192,61519,12,4,62901,0:0:0:0:
256,192,63204,5,0,0:0:0:0:
164,32,63505,1,0,1:0:0:0:
348,32,63806,1,0,0:0:0:0:
124,107,64107,6,0,L|124:192,2,85,2|0|0,1:2|0:0|0:0,0:0:0:0:
256,360,64558,2,0,L|256:275,2,85,2|0|0,1:2|0:0|0:0,0:0:0:0:
388,107,65010,2,0,L|388:192,1,85,2|0,0:0|0:0,0:0:0:0:
256,192,65311,6,0,L|256:96,1,85,2|0,0:0|0:0,0:0:0:0:
256,24,65609,1,0,0:0:0:0:
256,360,65908,1,0,1:0:0:0:
256,360,66505,6,0,L|256:264,1,85,2|0,0:0|0:0,0:0:0:0:
256,24,66797,2,0,L|256:120,1,85
256,360,67089,1,0,1:0:0:0:
256,360,67681,5,4,0:0:0:0:
256,24,67972,1,0,0:0:0:0:
136,192,68264,1,0,1:0:0:0:
376,192,68556,1,0,0:0:0:0:
256,96,68848,6,0,L|171:96,2,85,2|0|0,1:2|0:0|0:0,0:0:0:0:
256,288,69295,2,0,L|341:288,2,85,2|0|0,1:2|0:0|0:0,0:0:0:0:
136,192,69743,2,0,L|36:192,1,85,2|0,0:0|0:0,0:0:0:0:
376,192,70042,6,0,L|476:192,2,85,2|0|0,0:0|0:0|0:0,0:0:0:0:
256,192,70635,1,0,1:0:0:0:
196,284,71229,6,0,L|256:344,1,85,2|0,0:0|0:0,0:0:0:0:
256,192,71526,2,0,L|316:252,1,85
316,100,71822,2,0,L|436:220,1,170,0|0,1:0|0:0,0:0:0:0:
436,220,72419,5,4,0:0:0:0:
76,164,72717,1,0,0:0:0:0:
352,220,73015,1,0,1:0:0:0:
160,164,73313,1,0,0:0:0:0:
316,100,73611,6,0,L|380:36,2,85,2|0|0,1:2|0:0|0:0,0:0:0:0:
256,272,74059,2,0,L|256:364,2,85,2|0|0,1:2|0:0|0:0,0:0:0:0:
196,100,74507,2,0,L|132:36,1,85,2|0,0:0|0:0,0:0:0:0:
88,152,74806,6,0,L|88:260,1,85,2|0,0:0|0:0,0:0:0:0:
135,345,75103,2,0,P|224:316|304:324,2,170,0|0|0,0:0|1:0|0:0,0:0:0:0:
20,312,75848,5,0,0:0:0:0:
20,312,75923,1,0,0:0:0:0:
20,312,75997,1,0,0:0:0:0:
36,192,76146,2,0,P|20:124|4:104,1,85
120,88,76444,2,0,P|156:28|159:3,1,85,0|0,0:0|1:0,0:0:0:0:
248,80,76742,2,0,P|316:64|336:47,1,85
256,192,77040,1,0,0:0:0:0:
416,108,77189,6,0,L|416:284,1,170,4|0,0:0|0:0,0:0:0:0:
256,362,77626,2,0,L|256:192,1,170,0|0,1:0|0:0,0:0:0:0:
96,108,78064,2,0,L|96:192,1,85
256,108,78356,6,0,L|256:20,2,85,2|0|0,1:2|0:0|0:0,0:0:0:0:
360,260,78801,2,0,L|360:345,2,85,2|0|0,1:2|0:0|0:0,0:0:0:0:
464,107,79246,2,0,L|464:192,1,85,2|0,0:0|0:0,0:0:0:0:
360,260,79543,5,6,0:0:0:0:
152,124,79841,1,4,0:0:0:0:
256,192,80140,1,0,0:0:0:0:
200,248,80439,1,0,0:0:0:0:
312,136,80738,1,0,0:0:0:0:
360,192,81036,1,0,0:0:0:0:
312,248,81335,1,0,0:0:0:0:
