osu file format v14

[General]
AudioFilename: audio.mp3
AudioLeadIn: 0
PreviewTime: 39262
Countdown: 0
SampleSet: None
StackLeniency: 0.7
Mode: 0
LetterboxInBreaks: 0
WidescreenStoryboard: 0

[Editor]
DistanceSpacing: 1.1
BeatDivisor: 4
GridSize: 16
TimelineZoom: 1.280194

[Metadata]
Title:Suck My Kiss
TitleUnicode:Suck My Kiss
Artist:Red Hot Chili Peppers
ArtistUnicode:Red Hot Chili Peppers
Creator:Rin Desu
Version:Normal
Source:
Tags:RHCP 1991 Blood Sugar Sex Magic Rock Alternative Funk -Space- Space Parachute Explicit
BeatmapID:1262662
BeatmapSetID:596832

[Difficulty]
HPDrainRate:3
CircleSize:3
OverallDifficulty:4
ApproachRate:5
SliderMultiplier:1.6
SliderTickRate:1

[Events]
//Background and Video events
0,0,"spdQn7.png",0,0
//Break Periods
2,39462,42175
2,53671,56377
//Storyboard Layer 0 (Background)
//Storyboard Layer 1 (Fail)
//Storyboard Layer 2 (Pass)
//Storyboard Layer 3 (Foreground)
//Storyboard Sound Samples

[TimingPoints]
1435,597.659405940594,4,3,2,100,1,0
6216,583.559405940594,4,3,2,100,1,0
8550,590.259405940594,4,3,2,100,1,0
10320,574.559405940594,4,3,2,100,1,0
10894,588.559405940595,4,3,2,100,1,0
12659,588.959405940594,4,3,2,100,1,0
15014,587.359405940594,4,3,2,100,1,0
17363,589.659405940594,4,3,2,100,1,0
19721,583.759405940593,4,3,2,100,1,0
22056,606.759405940594,4,3,2,100,1,0
23269,589.459405940594,4,3,2,100,1,0
25626,591.959405940593,4,3,2,100,1,0
26809,611.059405940595,4,3,2,100,1,0
28031,575.259405940593,4,3,2,100,1,0
29181,593.759405940593,4,3,2,100,1,0
31556,601.059405940594,4,3,2,100,1,0
33960,583.959405940594,4,3,2,100,1,0
35127,588.959405940594,4,3,2,100,1,0
36304,613.659405940595,4,3,2,100,1,0
37531,572.259405940594,4,3,2,100,1,0
38675,587.859405940594,4,3,2,100,1,0
39850,590.459405940595,4,3,2,100,1,0
41030,585.659405940594,4,3,2,100,1,0
42201,587.159405940594,4,3,2,100,1,0
43375,600.859405940595,4,3,2,100,1,0
43975,593.859405940593,4,3,2,100,1,0
45756,604.159405940595,4,3,2,100,1,0
46964,597.259405940594,4,3,2,100,1,0
48158,597.659405940594,4,3,2,100,1,0
49353,574.659405940594,4,3,2,100,1,0
50502,630.079405940596,4,3,2,100,1,0
51132,599.259405940594,4,3,2,100,1,0
51731,566.359405940593,4,3,2,100,1,0
52863,608.659405940594,4,3,2,100,1,0
54080,567.359405940593,4,3,2,100,1,0
55214,590.759405940594,4,3,2,100,1,0
55804,592.359405940593,4,3,2,100,1,0
56988,595.459405940593,4,3,2,100,1,0
57583,594.059405940593,4,3,2,100,1,0
58177,594.559405940593,4,3,2,100,1,0
58771,578.659405940594,4,3,2,100,1,0
59928,590.659405940593,4,3,2,100,1,0
60502,371.799999999999,4,3,2,100,1,0
60873,375,4,3,2,100,1,0
61059,614.159405940596,4,3,2,100,1,0
62903,602.059405940595,4,3,2,100,1,0
64107,602.059405940595,4,3,2,100,1,0
65311,597.159405940594,4,3,2,100,1,0
66505,584.759405940594,4,3,2,100,1,0
67089,592.759405940593,4,3,2,100,1,0
67681,583.659405940594,4,3,2,100,1,0
68848,597.159405940594,4,3,2,100,1,0
70042,593.659405940593,4,3,2,100,1,0
71822,597.659405940594,4,3,2,100,1,0
72419,596.959405940594,4,3,2,100,1,0
73015,596.759405940594,4,3,2,100,1,0
73611,597.659405940594,4,3,2,100,1,0
74806,595.859405940594,4,3,2,100,1,0
77189,583.659405940594,4,3,2,100,1,0
78356,593.959405940593,4,3,2,100,1,0
79543,597.659405940594,4,3,2,100,1,0
80738,597.659405940594,4,3,2,100,1,0

[Colours]
Combo1 : 255,0,0
Combo2 : 128,128,128
Combo3 : 255,128,192
Combo4 : 0,255,64

[HitObjects]
60,265,1435,6,0,P|44:301|46:340,1,80,2|2,0:0|0:0,0:0:0:0:
130,315,2031,1,8,0:0:0:0:
143,228,2331,2,0,P|97:180|40:175,2,120,2|2|8,0:0|0:0|0:0,0:0:0:0:
269,105,3825,6,0,P|286:69|317:45,1,80,2|2,0:0|0:0,0:0:0:0:
353,125,4423,1,8,0:0:0:0:
296,192,4722,2,0,P|230:188|188:146,2,120,2|2|8,0:0|0:0|0:0,0:0:0:0:
473,160,6216,6,0,P|443:186|430:224,1,80,2|2,0:0|0:0,0:0:0:0:
454,309,6799,1,8,0:0:0:0:
368,289,7091,2,0,P|309:297|268:339,2,120,2|2|8,0:0|0:0|0:0,0:0:0:0:
430,223,8258,1,0,0:0:0:0:
394,143,8550,6,0,L|351:60,1,80,4|2,0:2|0:0,0:0:0:0:
269,71,9140,2,0,L|197:107,1,80,8|0,0:0|0:0,0:0:0:0:
135,169,9730,2,0,L|171:240,1,80,2|0,0:0|0:0,0:0:0:0:
235,303,10320,2,8,L|306:266,1,80
270,188,10894,5,4,0:2:0:0:
277,101,11188,1,4,0:2:0:0:
197,137,11482,1,8,0:0:0:0:
116,175,11776,2,0,P|111:116|143:67,2,120,2|2|8,0:0|0:0|0:0,0:0:0:0:
271,92,13247,6,0,P|308:104|335:132,1,80,2|2,0:0|0:0,0:0:0:0:
346,223,13836,1,8,0:0:0:0:
257,221,14131,2,0,P|276:279|332:312,2,120,2|2|8,0:0|0:0|0:0,0:0:0:0:
175,64,15601,6,0,P|144:88|129:125,1,80,2|2,0:0|0:0,0:0:0:0:
216,141,16188,1,8,0:0:0:0:
159,210,16482,2,0,P|90:206|47:161,2,120,2|2|8,0:0|0:0|0:0,0:0:0:0:
216,141,17657,1,0,0:0:0:0:
290,94,17952,6,0,P|328:92|385:75,1,80,4|2,0:2|0:0,0:0:0:0:
456,81,18542,2,0,P|458:119|475:176,1,80,8|0,0:0|0:0,0:0:0:0:
468,247,19131,2,0,P|430:249|373:266,1,80,2|2,0:0|0:0,0:0:0:0:
300,259,19721,2,8,P|297:219|287:180,1,80
201,199,20304,6,0,P|176:167|161:129,1,80,2|2,0:0|0:0,0:0:0:0:
228,69,20888,2,0,P|246:63|266:61,1,40,8|0,0:0|0:0,0:0:0:0:
342,18,21326,2,0,B|356:54|356:54|346:94|346:94|360:132,1,120,2|2,0:0|0:0,0:0:0:0:
395,209,22056,2,0,P|369:217|348:216,1,40,8|4,0:0|0:0,0:0:0:0:
224,229,22662,6,0,P|245:267|246:305,1,80,2|2,0:0|0:0,0:0:0:0:
156,291,23269,2,0,P|96:318|45:305,1,120,8|2,0:0|0:0,0:0:0:0:
91,230,24005,1,8,0:0:0:0:
41,107,24447,2,0,P|108:98|164:120,1,120,8|0,0:0|0:0,0:0:0:0:
190,142,25037,6,0,P|227:161|270:156,1,80,2|2,0:0|0:0,0:0:0:0:
313,85,25626,2,0,P|334:100|345:118,1,40,8|0,0:0|0:0,0:0:0:0:
341,199,26069,2,0,B|378:209|378:209|402:164|457:169,1,120,2|2,0:0|0:0,0:0:0:0:
506,110,26809,2,0,P|492:97|472:88,1,40,8|4,0:0|0:0,0:0:0:0:
363,22,27420,6,0,L|305:93,1,80,2|2,0:0|0:0,0:0:0:0:
227,122,28031,2,0,B|214:93|223:65,1,40,8|0,0:0|0:0,0:0:0:0:
184,2,28462,2,0,P|149:28|133:61,1,80,2|8,0:0|0:0,0:0:0:0:
142,147,29037,1,2,0:0:0:0:
161,185,29181,2,0,P|192:208|232:214,1,80,8|2,0:0|0:0,0:0:0:0:
301,159,29774,6,0,L|393:182,1,80,6|2,0:0|0:0,0:0:0:0:
387,266,30368,2,0,L|309:246,1,80,8|0,0:0|0:0,0:0:0:0:
313,334,30962,2,0,L|369:348,2,40,0|0|2,0:0|0:0|0:0,0:0:0:0:
231,302,31556,2,0,L|179:317,1,40,0|4,0:0|0:0,0:0:0:0:
64,344,32157,6,0,B|65:296|65:296|89:255,1,80,2|2,0:0|0:0,0:0:0:0:
159,227,32758,2,0,L|240:206,1,80,8|0,0:0|0:0,0:0:0:0:
310,158,33359,2,0,L|356:173,1,40,0|8,0:0|0:0,0:0:0:0:
386,91,33809,1,2,0:0:0:0:
343,75,33960,2,0,B|301:63|301:63|249:83,1,80,8|2,0:0|0:0,0:0:0:0:
187,110,34543,5,2,0:0:0:0:
124,47,34835,1,2,0:0:0:0:
104,132,35127,1,8,0:0:0:0:
238,242,35715,6,0,P|277:240|316:249,1,80,0|2,0:0|0:0,0:0:0:0:
360,322,36304,2,0,P|385:302|397:274,1,40,8|2,0:0|0:0,0:0:0:0:
348,170,36917,6,0,P|309:151|286:114,2,80,2|2|8,0:0|0:0|0:0,0:0:0:0:
368,84,37817,1,2,0:0:0:0:
453,61,38103,2,8,L|477:96,1,40
439,173,38532,2,0,L|461:205,1,40,0|8,0:0|0:0,0:0:0:0:
442,291,38968,1,2,0:0:0:0:
360,320,39262,1,4,0:2:0:0:
475,45,43975,5,2,0:0:0:0:
447,128,44271,1,2,0:0:0:0:
456,215,44568,2,0,P|465:236|471:260,2,40,8|2|0,0:0|0:0|0:0,0:0:0:0:
375,179,45162,2,0,P|363:209|355:222,2,40,0|0|2,0:0|0:0|0:0,0:0:0:0:
363,93,45756,2,0,P|339:92|317:89,1,40,8|4,0:0|0:0,0:0:0:0:
214,15,46360,6,0,P|179:95|206:161,1,160,2|8,0:0|0:0,0:0:0:0:
291,154,47262,2,0,P|281:205|208:245,1,120,0|8,0:0|0:0,0:0:0:0:
144,271,48009,1,2,0:0:0:0:
151,356,48307,2,0,P|214:354|268:317,1,120,8|2,0:0|0:0,0:0:0:0:
293,242,49054,5,2,0:0:0:0:
283,150,49353,2,0,P|302:152|444:140,1,160,8|0,0:0|0:0,0:0:0:0:
490,213,50214,5,2,0:0:0:0:
479,297,50502,2,0,L|473:337,1,40,8|4,0:0|0:2,0:0:0:0:
369,243,51132,6,0,P|404:159|380:97,1,160,4|8,0:2|0:0,0:0:0:0:
293,104,52014,2,0,L|240:110,2,40,0|2|0,0:0|0:0|0:0,0:0:0:0:
291,147,52438,1,8,0:0:0:0:
168,149,52863,2,0,B|198:182|198:182|199:238|199:238|240:293,1,160,8|6,0:0|0:2,0:0:0:0:
256,192,58177,12,0,61366,0:0:0:0:
85,320,62903,5,2,0:0:0:0:
22,257,63204,1,2,0:0:0:0:
106,233,63505,6,0,P|152:231|201:215,1,80,8|0,0:0|0:0,0:0:0:0:
228,145,64107,2,0,P|257:170|273:214,1,80,8|0,0:0|0:0,0:0:0:0:
241,290,64709,2,0,P|291:294|324:279,1,80
362,206,65311,5,2,0:0:0:0:
336,121,65609,1,2,0:0:0:0:
422,137,65908,2,0,P|390:52|327:34,1,160,8|4,0:0|0:0,0:0:0:0:
252,76,66797,5,2,0:0:0:0:
181,25,67089,1,8,0:0:0:0:
48,145,67681,5,2,0:0:0:0:
67,230,67972,1,2,0:0:0:0:
30,309,68264,1,8,0:0:0:0:
194,358,68848,6,0,P|165:323|278:224,1,240,8|0,0:0|0:0,0:0:0:0:
354,259,70042,5,2,0:0:0:0:
416,196,70338,1,2,0:0:0:0:
399,109,70635,1,8,0:0:0:0:
233,48,71229,6,0,B|202:62|202:62|147:47|147:47|98:63|98:63|81:63,1,160,2|8,0:0|0:0,0:0:0:0:
236,144,72419,5,2,0:0:0:0:
148,137,72717,1,2,0:0:0:0:
60,148,73015,2,0,P|46:188|52:230,1,80,8|0,0:0|0:0,0:0:0:0:
82,306,73611,6,0,P|181:337|285:259,1,240,2|4,0:0|0:0,0:0:0:0:
216,206,74806,5,2,0:0:0:0:
195,120,75103,1,2,0:0:0:0:
500,160,76146,6,0,L|485:76,2,80
370,120,77189,5,2,0:0:0:0:
288,87,77480,1,2,0:0:0:0:
301,173,77772,1,8,0:0:0:0:
346,339,78356,6,0,P|342:259|475:279,1,240,2|4,0:0|0:0,0:0:0:0:
256,192,79543,12,0,81335,0:0:0:0:
