osu file format v14

[General]
AudioFilename: audio.mp3
AudioLeadIn: 0
PreviewTime: 39262
Countdown: 0
SampleSet: None
StackLeniency: 0.5
Mode: 0
LetterboxInBreaks: 0
WidescreenStoryboard: 0

[Editor]
Bookmarks: 1733,4124,6507,20304,49054
DistanceSpacing: 1.4
BeatDivisor: 4
GridSize: 4
TimelineZoom: 2.400193

[Metadata]
Title:Suck My Kiss
TitleUnicode:Suck My Kiss
Artist:Red Hot Chili Peppers
ArtistUnicode:Red Hot Chili Peppers
Creator:Rin Desu
Version:Insane
Source:
Tags:RHCP 1991 Blood Sugar Sex Magic Rock Alternative Funk -Space- Space Parachute Explicit
BeatmapID:1362629
BeatmapSetID:596832

[Difficulty]
HPDrainRate:6
CircleSize:3.5
OverallDifficulty:7
ApproachRate:9
SliderMultiplier:2.8
SliderTickRate:1

[Events]
//Background and Video events
0,0,"spdQn7.png",0,0
//Break Periods
//Storyboard Layer 0 (Background)
//Storyboard Layer 1 (Fail)
//Storyboard Layer 2 (Pass)
//Storyboard Layer 3 (Foreground)
//Storyboard Sound Samples

[TimingPoints]
1435,597.659405940594,4,3,2,87,1,0
2331,-66.6666666666667,4,3,2,87,0,0
2779,-100,4,3,2,87,0,0
4722,-66.6666666666667,4,3,2,87,0,0
5170,-100,4,3,2,87,0,0
6216,583.559405940594,4,3,2,87,1,0
7091,-66.6666666666667,4,3,2,87,0,0
7529,-100,4,3,2,87,0,0
8550,590.259405940594,4,3,2,87,1,0
10320,574.559405940594,4,3,2,87,1,0
10894,588.559405940595,4,3,2,87,1,0
11776,-66.6666666666667,4,3,2,87,0,0
12218,-100,4,3,2,87,0,0
12659,588.959405940594,4,3,2,87,1,0
14131,-66.6666666666667,4,3,2,87,0,0
14573,-100,4,3,2,87,0,0
15014,587.359405940594,4,3,2,87,1,0
16482,-66.6666666666667,4,3,2,87,0,0
16922,-100,4,3,2,87,0,0
17363,589.659405940594,4,3,2,87,1,0
19721,583.759405940593,4,3,2,87,1,0
22056,606.759405940594,4,3,2,87,1,0
23269,589.459405940594,4,3,2,87,1,0
25626,591.959405940593,4,3,2,87,1,0
26809,611.059405940595,4,3,2,87,1,0
28031,575.259405940593,4,3,2,87,1,0
29181,593.759405940593,4,3,2,87,1,0
31556,601.059405940594,4,3,2,87,1,0
33960,583.959405940594,4,3,2,87,1,0
35127,588.959405940594,4,3,2,87,1,0
36304,613.659405940595,4,3,2,87,1,0
37531,572.259405940594,4,3,2,87,1,0
38675,587.859405940594,4,3,2,87,1,0
39850,590.459405940595,4,3,2,87,1,0
41030,585.659405940594,4,3,2,87,1,0
42201,587.159405940594,4,3,2,87,1,0
43375,600.859405940595,4,3,2,87,1,0
43975,593.859405940593,4,3,2,87,1,0
45756,604.159405940595,4,3,2,87,1,0
46964,597.259405940594,4,3,2,87,1,0
48158,597.659405940594,4,3,2,87,1,0
49353,574.659405940594,4,3,2,87,1,0
50502,630.079405940596,4,3,2,87,1,0
51132,599.259405940594,4,3,2,87,1,0
51731,566.359405940593,4,3,2,87,1,0
52863,608.659405940594,4,3,2,87,1,0
54080,567.359405940593,4,3,2,87,1,0
55214,590.759405940594,4,3,2,87,1,0
55804,592.359405940593,4,3,2,87,1,0
56988,595.459405940593,4,3,2,87,1,0
57583,594.059405940593,4,3,2,87,1,0
58177,594.559405940593,4,3,2,87,1,0
58771,578.659405940594,4,3,2,87,1,0
59928,590.659405940593,4,3,2,87,1,0
60502,371.799999999999,4,3,2,87,1,0
60873,375,4,3,2,87,1,0
61059,614.159405940596,4,3,2,87,1,0
62903,602.059405940595,4,3,2,87,1,0
64107,602.059405940595,4,3,2,87,1,0
65311,597.159405940594,4,3,2,87,1,0
66505,584.759405940594,4,3,2,87,1,0
67089,592.759405940593,4,3,2,87,1,0
67681,583.659405940594,4,3,2,87,1,0
68848,597.159405940594,4,3,2,87,1,0
70042,593.659405940593,4,3,2,87,1,0
71822,597.659405940594,4,3,2,87,1,0
72419,596.959405940594,4,3,2,87,1,0
73015,596.759405940594,4,3,2,87,1,0
73611,597.659405940594,4,3,2,87,1,0
74806,595.859405940594,4,3,2,87,1,0
77189,583.659405940594,4,3,2,87,1,0
78356,593.959405940593,4,3,2,87,1,0
79543,597.659405940594,4,3,2,87,1,0
80738,597.659405940594,4,3,2,87,1,0

[Colours]
Combo1 : 255,0,0
Combo2 : 128,128,128
Combo3 : 255,128,192
Combo4 : 0,255,64

[HitObjects]
119,40,1435,6,0,L|50:36,1,70,2|0,0:0|0:0,0:0:0:0:
194,83,1733,2,0,L|264:88,1,70,2|0,0:0|0:0,0:0:0:0:
119,241,2032,1,8,0:0:0:0:
80,233,2331,6,0,P|84:310|118:240,1,210.000008010865,2|0,0:0|0:0,0:0:0:0:
218,216,2779,2,0,B|256:176|320:256|368:192,1,140,2|0,0:0|0:0,0:0:0:0:
494,149,3227,2,0,B|507:185|507:185|503:216,1,70,8|0,0:0|0:0,0:0:0:0:
424,286,3526,1,0,0:0:0:0:
424,286,3676,1,0,0:0:0:0:
312,201,3825,6,0,L|381:197,1,70,2|0,0:0|0:0,0:0:0:0:
237,244,4123,2,0,L|167:249,1,70,2|0,0:0|0:0,0:0:0:0:
271,65,4422,1,8,0:0:0:0:
256,36,4722,6,0,P|197:83|270:62,1,210.000008010865,2|0,0:0|0:0,0:0:0:0:
355,2,5170,2,0,B|376:32|376:32|376:87|376:87|409:127,1,140,2|0,0:0|0:0,0:0:0:0:
492,253,5618,2,0,B|476:280|476:280|438:292,1,70,8|0,0:0|0:0,0:0:0:0:
340,253,5917,1,0,0:0:0:0:
340,253,6066,1,0,0:0:0:0:
337,139,6216,6,0,L|406:135,1,70,2|0,0:0|0:0,0:0:0:0:
262,182,6507,2,0,L|192:187,1,70,2|0,0:0|0:0,0:0:0:0:
53,351,6799,1,8,0:0:0:0:
84,334,7091,6,0,P|34:277|53:351,1,210.000008010865,2|0,0:0|0:0,0:0:0:0:
169,327,7529,2,0,B|175:299|172:279|164:260|155:241|143:228|130:217|114:207,1,140,2|0,0:0|0:0,0:0:0:0:
0,104,7966,2,0,P|32:74|62:59,1,70,8|0,0:0|0:0,0:0:0:0:
140,121,8258,1,0,0:0:0:0:
140,121,8404,1,0,0:0:0:0:
190,39,8550,5,4,0:2:0:0:
207,27,8697,1,0,0:0:0:0:
225,15,8845,1,2,0:0:0:0:
241,5,8992,1,2,0:0:0:0:
318,36,9140,5,8,0:0:0:0:
343,46,9287,1,0,0:0:0:0:
369,56,9435,1,0,0:0:0:0:
395,66,9582,1,0,0:0:0:0:
344,135,9730,5,2,0:0:0:0:
322,164,9878,1,0,0:0:0:0:
302,191,10025,1,2,0:0:0:0:
282,218,10173,1,2,0:0:0:0:
191,242,10320,5,8,0:0:0:0:
150,251,10463,1,0,0:0:0:0:
109,260,10607,1,8,0:0:0:0:
68,269,10750,1,8,0:0:0:0:
220,345,10894,5,4,0:2:0:0:
429,31,11188,1,4,0:2:0:0:
355,283,11482,1,8,0:0:0:0:
345,310,11776,6,0,P|416:330|360:281,1,210.000008010865,2|0,0:0|0:0,0:0:0:0:
462,226,12218,2,0,B|441:207|423:198|401:196|382:191|365:194|348:199|331:207,1,140,2|0,0:0|0:0,0:0:0:0:
264,360,12659,2,0,B|227:344|227:344|204:317,1,70,8|0,0:0|0:0,0:0:0:0:
191,217,12953,1,0,0:0:0:0:
191,217,13100,1,0,0:0:0:0:
211,78,13247,6,0,L|280:74,1,70,2|0,0:0|0:0,0:0:0:0:
136,121,13542,2,0,L|66:126,1,70,2|0,0:0|0:0,0:0:0:0:
16,352,13836,1,8,0:0:0:0:
46,350,14131,6,0,P|30:277|17:352,1,210.000008010865,2|0,0:0|0:0,0:0:0:0:
155,343,14573,2,0,B|201:328|201:328|247:345|247:345|288:335,1,140,2|0,0:0|0:0,0:0:0:0:
448,351,15014,2,0,B|456:316|456:316|445:275,1,70,8|0,0:0|0:0,0:0:0:0:
383,205,15307,1,0,0:0:0:0:
383,205,15454,1,0,0:0:0:0:
230,182,15601,6,0,L|299:178,1,70,2|0,0:0|0:0,0:0:0:0:
155,225,15895,2,0,L|82:230,1,70,2|0,0:0|0:0,0:0:0:0:
123,38,16188,1,8,0:0:0:0:
108,15,16482,6,0,P|53:66|123:38,1,210.000008010865,2|0,0:0|0:0,0:0:0:0:
211,25,16922,2,0,B|266:16|266:16|345:44,1,140,2|0,0:0|0:0,0:0:0:0:
486,56,17363,2,0,P|474:105|452:140,1,70,8|0,0:0|0:0,0:0:0:0:
370,141,17657,1,0,0:0:0:0:
370,141,17805,1,0,0:0:0:0:
247,116,17952,5,4,0:2:0:0:
230,137,18099,1,0,0:0:0:0:
213,158,18246,1,0,0:0:0:0:
196,180,18394,1,2,0:0:0:0:
282,204,18542,5,8,0:0:0:0:
314,213,18689,1,0,0:0:0:0:
348,223,18837,1,0,0:0:0:0:
381,232,18984,1,0,0:0:0:0:
359,312,19131,5,2,0:0:0:0:
326,303,19278,1,0,0:0:0:0:
292,293,19426,1,2,0:0:0:0:
260,284,19573,1,2,0:0:0:0:
164,254,19721,5,8,0:0:0:0:
152,198,19866,1,0,0:0:0:0:
141,142,20012,1,8,0:0:0:0:
131,86,20158,1,8,0:0:0:0:
231,96,20304,6,0,P|265:91|298:79,1,70,2|0,0:0|0:0,0:0:0:0:
392,22,20596,2,0,P|406:57|407:92,1,70,2|0,0:0|0:0,0:0:0:0:
353,260,20888,1,8,0:0:0:0:
468,211,21034,2,0,P|478:252|473:295,1,70,2|0,0:0|0:0,0:0:0:0:
397,348,21326,2,0,B|351:357|351:357|306:345|306:345|261:362,1,140,2|0,0:0|0:0,0:0:0:0:
168,299,21764,2,0,L|237:272,1,70,2|0,0:0|0:0,0:0:0:0:
397,348,22056,5,8,0:0:0:0:
323,180,22207,1,4,0:0:0:0:
323,180,22662,6,0,L|235:197,1,70,2|0,0:0|0:0,0:0:0:0:
137,97,22966,2,0,L|207:85,1,70,2|0,0:0|0:0,0:0:0:0:
387,52,23269,1,8,0:0:0:0:
429,149,23416,2,0,P|432:183|426:217,1,70,2|0,0:0|0:0,0:0:0:0:
364,312,23711,2,0,P|400:328|433:331,1,70,2|0,0:0|0:0,0:0:0:0:
323,180,24005,2,0,P|287:164|254:161,1,70,8|0,0:0|0:0,0:0:0:0:
174,203,24300,1,2,0:0:0:0:
213,70,24447,1,8,0:0:0:0:
88,190,24595,1,8,0:0:0:0:
257,248,24742,2,0,P|287:265|313:298,1,70
214,351,25037,6,0,L|140:364,1,70,2|0,0:0|0:0,0:0:0:0:
55,294,25332,2,0,L|123:281,1,70,2|0,0:0|0:0,0:0:0:0:
257,248,25626,1,8,0:0:0:0:
88,190,25773,2,0,L|23:161,1,70,2|0,0:0|0:0,0:0:0:0:
181,164,26069,2,0,B|193:247|119:282,1,140,2|0,0:0|0:0,0:0:0:0:
119,103,26513,2,0,B|191:57,1,70,2|0,0:0|0:0,0:0:0:0:
340,137,26809,5,8,0:0:0:0:
181,164,26961,1,4,0:0:0:0:
181,164,27420,6,0,L|249:151,1,70,2|0,0:0|0:0,0:0:0:0:
395,227,27725,2,0,L|327:240,1,70,2|0,0:0|0:0,0:0:0:0:
204,259,28031,1,8,0:0:0:0:
237,80,28174,1,2,0:0:0:0:
237,80,28462,2,0,B|168:93,1,70,2|0,0:0|0:0,0:0:0:0:
34,128,28750,2,0,P|8:207|29:278,1,140,8|0,0:0|0:0,0:0:0:0:
137,206,29181,1,8,0:0:0:0:
68,376,29329,1,8,0:0:0:0:
19,260,29477,1,2,0:0:0:0:
272,196,29774,5,4,0:2:0:0:
236,96,29923,1,0,0:0:0:0:
303,15,30071,1,2,0:0:0:0:
272,196,30368,5,8,0:0:0:0:
317,99,30517,1,2,0:0:0:0:
421,89,30665,1,0,0:0:0:0:
272,196,30962,5,0,0:0:0:0:
372,160,31111,1,0,0:0:0:0:
453,227,31259,1,2,0:0:0:0:
151,213,31556,1,8,0:0:0:0:
258,350,31706,2,0,L|244:280,1,70,4|0,0:0|0:0,0:0:0:0:
244,281,32006,5,0,0:0:0:0:
339,304,32157,1,2,0:0:0:0:
431,271,32307,1,0,0:0:0:0:
475,183,32457,1,2,0:0:0:0:
462,85,32607,1,0,0:0:0:0:
298,81,32758,2,0,L|233:109,1,70,8|2,0:0|0:0,0:0:0:0:
117,153,33058,1,0,0:0:0:0:
117,153,33208,1,2,0:0:0:0:
138,45,33359,1,0,0:0:0:0:
17,129,33509,2,0,P|15:168|29:206,1,70,8|0,0:0|0:0,0:0:0:0:
130,257,33809,2,0,B|104:273|104:273|83:307,1,70,2|8,0:0|0:0,0:0:0:0:
300,216,34105,2,0,B|321:182|321:182|415:122,1,140
460,307,34543,6,0,L|398:254,1,70,2|0,0:0|0:0,0:0:0:0:
405,128,34835,2,0,L|458:173,1,70,2|0,0:0|0:0,0:0:0:0:
288,81,35127,2,0,P|190:143|220:249,1,210,8|0,0:0|0:0,0:0:0:0:
285,295,35715,1,0,0:0:0:0:
187,336,35863,2,0,B|121:290|121:290|93:229,1,140
43,82,36304,5,8,0:0:0:0:
273,171,36457,1,4,0:0:0:0:
273,171,36917,6,0,L|316:103,1,70,2|0,0:0|0:0,0:0:0:0:
393,58,37224,1,2,0:0:0:0:
395,155,37377,1,0,0:0:0:0:
470,285,37531,1,8,0:0:0:0:
377,252,37674,1,2,0:0:0:0:
237,268,37817,2,0,B|245:307|245:307|263:334,1,70,0|2,0:0|0:0,0:0:0:0:
262,331,38103,1,0,0:0:0:0:
114,286,38246,1,8,0:0:0:0:
114,286,38532,5,2,0:0:0:0:
69,157,38675,1,8,0:0:0:0:
192,220,38821,1,8,0:0:0:0:
274,167,38968,2,0,P|306:185|334:223,1,70,2|0,0:0|0:0,0:0:0:0:
465,88,39262,2,0,L|392:77,1,70,2|0,0:0|0:0,0:0:0:0:
209,36,39556,6,0,L|135:47,1,70
77,161,39850,2,0,L|146:150,1,70,8|0,0:0|0:0,0:0:0:0:
236,243,40145,2,0,L|166:253,1,70
65,363,40440,2,0,L|134:352,1,70
287,370,40735,2,0,L|357:360,1,70,2|0,0:0|0:0,0:0:0:0:
483,157,41030,2,0,P|392:116|316:181,1,210,8|0,0:0|0:0,0:0:0:0:
224,342,41615,2,0,B|252:370|302:371,1,70,4|0,0:2|0:0,0:0:0:0:
378,331,41908,5,0,0:0:0:0:
407,223,42054,1,0,0:0:0:0:
275,123,42201,2,0,L|315:180,1,70,8|0,0:0|0:0,0:0:0:0:
175,114,42494,2,0,L|135:56,1,70,0|0,0:0|0:0,0:0:0:0:
190,206,42788,2,0,L|128:238,1,70,2|0,0:0|0:0,0:0:0:0:
316,298,43081,2,0,L|377:330,1,70,2|0,0:0|0:0,0:0:0:0:
156,341,43375,2,0,P|51:311|24:219,1,210,8|0,0:0|0:0,0:0:0:0:
72,57,43975,6,0,P|44:84|32:112,1,70,2|0,0:0|0:0,0:0:0:0:
124,136,44271,2,0,P|158:129|186:109,1,70,2|0,0:0|0:0,0:0:0:0:
326,21,44568,1,8,0:0:0:0:
416,56,44717,1,2,0:0:0:0:
459,143,44865,2,0,P|465:177|462:231,1,70,0|2,0:0|0:0,0:0:0:0:
295,100,45162,2,0,P|325:119|348:168,1,70
293,267,45459,1,2,0:0:0:0:
261,179,45608,1,0,0:0:0:0:
466,213,45756,1,8,0:0:0:0:
293,267,45907,1,4,0:0:0:0:
261,179,46058,2,0,P|299:173|337:185,1,70
385,261,46360,5,2,0:0:0:0:
364,356,46511,1,0,0:0:0:0:
267,360,46662,2,0,P|227:337|201:297,1,70,2|0,0:0|0:0,0:0:0:0:
98,141,46964,2,0,P|136:159|164:204,1,70,8|2,0:0|0:0,0:0:0:0:
199,95,47262,2,0,B|175:61|179:18,2,70,0|2|0,0:0|0:0|0:0,0:0:0:0:
76,225,47710,2,0,P|63:274|70:310,1,70,8|0,0:0|0:0,0:0:0:0:
64,292,48009,1,2,0:0:0:0:
153,179,48158,1,8,0:0:0:0:
225,297,48307,2,0,L|295:294,2,70
387,229,48755,6,0,P|399:177|401:145,1,70,2|0,0:0|0:0,0:0:0:0:
342,17,49054,2,0,P|332:50|328:85,1,70,2|0,0:0|0:0,0:0:0:0:
168,103,49353,2,0,P|40:182|68:314,1,280,8|0,0:0|0:0,0:0:0:0:
109,373,50071,1,0,0:0:0:0:
156,227,50214,6,0,L|242:237,1,70,2|0,0:0|0:0,0:0:0:0:
197,331,50502,1,8,0:0:0:0:
263,144,50659,1,4,0:2:0:0:
263,144,51132,6,0,L|193:135,1,70,4|0,0:2|0:0,0:0:0:0:
62,44,51431,2,0,L|132:53,1,70,2|0,0:0|0:0,0:0:0:0:
57,216,51731,1,8,0:0:0:0:
154,230,51872,2,0,P|142:263|120:290,1,70,2|0,0:0|0:0,0:0:0:0:
123,149,52155,2,0,P|157:141|191:147,1,70,2|0,0:0|0:0,0:0:0:0:
272,262,52438,2,0,P|330:301|416:294,1,140,8|0,0:0|0:0,0:0:0:0:
499,199,52863,5,8,0:0:0:0:
365,183,53015,1,8,0:0:0:0:
419,103,53167,2,0,P|449:82|481:72,1,70,8|0,0:0|0:0,0:0:0:0:
272,262,53471,2,0,P|243:282|210:291,1,70,2|0,0:0|0:0,0:0:0:0:
119,329,53775,6,0,L|107:260,1,70
27,124,54080,2,0,L|38:193,1,70,8|0,0:0|0:0,0:0:0:0:
122,80,54363,2,0,L|171:18,1,70
331,90,54647,2,0,L|404:117,1,70
495,273,54931,2,0,L|429:248,1,70,2|0,0:0|0:0,0:0:0:0:
239,178,55214,2,0,P|224:275|314:281,1,210,8|0,0:0|0:0,0:0:0:0:
134,309,55804,6,0,L|67:331,1,70,4|0,0:2|0:0,0:0:0:0:
106,146,56100,2,0,L|189:97,1,70
345,110,56396,2,0,L|406:146,1,70,8|0,0:0|0:0,0:0:0:0:
445,331,56692,2,0,L|378:309,1,70,2|0,0:0|0:0,0:0:0:0:
258,152,56988,1,2,0:0:0:0:
193,245,57136,2,0,P|258:266|328:242,1,140
47,288,57583,2,0,P|-14:208|48:121,1,210,8|8,0:0|0:0,0:0:0:0:
145,271,58177,6,0,P|145:308|132:342,1,70
258,235,58474,2,0,P|243:203|220:178,1,70,2|0,0:0|0:0,0:0:0:0:
36,125,58771,1,8,0:0:0:0:
212,82,58915,2,0,P|246:85|280:102,1,70,2|0,0:0|0:0,0:0:0:0:
410,209,59204,2,0,P|375:273|384:339,1,140,2|8,0:0|0:0,0:0:0:0:
287,368,59638,2,0,L|203:359,1,70,2|2,0:0|0:0,0:0:0:0:
240,261,59928,1,8,0:0:0:0:
143,180,60075,2,0,B|117:250|117:250|134:323,1,140,2|0,0:0|0:0,0:0:0:0:
5,256,60502,6,0,L|48:196,3,70,8|8|8|2,0:0|0:0|0:0|0:0,0:0:0:0:
46,101,60873,2,0,L|126:87,2,70,8|8|2,0:0|0:0|0:0,0:0:0:0:
329,128,61366,1,4,0:2:0:0:
256,192,61673,12,0,62594,0:0:0:0:
348,18,62903,5,2,0:0:0:0:
115,270,63204,1,2,0:0:0:0:
168,69,63505,6,0,B|211:80|230:108,1,70,8|0,0:0|0:0,0:0:0:0:
291,273,63806,2,0,B|248:262|229:234,1,70
322,130,64107,5,8,0:0:0:0:
413,96,64257,2,0,P|450:97|491:122,1,70,2|0,0:0|0:0,0:0:0:0:
479,251,64558,2,0,P|447:265|412:266,1,70,8|0,0:0|0:0,0:0:0:0:
324,226,64859,1,2,0:0:0:0:
322,130,65010,2,0,P|316:95|325:54,1,70
179,125,65311,5,2,0:0:0:0:
482,28,65609,1,2,0:0:0:0:
179,125,65908,1,8,0:0:0:0:
179,125,66206,1,0,0:0:0:0:
462,41,66505,5,0,0:0:0:0:
485,361,66797,1,2,0:0:0:0:
212,211,67089,2,0,P|130:288|166:377,1,210,8|0,0:0|0:0,0:0:0:0:
16,225,67681,5,2,0:0:0:0:
307,367,67972,1,2,0:0:0:0:
458,168,68264,6,0,L|488:105,1,70,8|0,0:0|0:0,0:0:0:0:
363,99,68556,2,0,L|333:163,1,70
286,28,68848,5,8,0:0:0:0:
189,40,68997,2,0,P|155:50|121:93,1,70,2|0,0:0|0:0,0:0:0:0:
145,215,69295,2,0,P|179:205|213:162,1,70,8|0,0:0|0:0,0:0:0:0:
250,107,69594,1,2,0:0:0:0:
51,120,69743,2,0,P|44:156|57:194,1,70
189,40,70042,5,2,0:0:0:0:
265,332,70338,1,2,0:0:0:0:
491,153,70635,1,8,0:0:0:0:
491,153,70932,1,0,0:0:0:0:
354,78,71229,6,0,B|314:73|314:73|286:106|286:106|237:107|237:107|220:154|220:154|191:168,1,210
125,218,71822,1,8,0:0:0:0:
144,94,71971,2,0,P|108:166|132:226,1,140,2|0,0:0|0:0,0:0:0:0:
302,188,72419,5,4,0:2:0:0:
43,366,72717,1,2,0:0:0:0:
376,348,73015,2,0,P|409:333|456:286,1,70,8|0,0:0|0:0,0:0:0:0:
441,153,73313,2,0,P|428:185|424:220,1,70
357,97,73611,5,8,0:0:0:0:
266,59,73760,2,0,P|235:50|180:61,1,70,2|0,0:0|0:0,0:0:0:0:
134,179,74059,2,0,P|167:188|202:184,1,70,8|0,0:0|0:0,0:0:0:0:
292,162,74358,1,2,0:0:0:0:
357,97,74507,2,0,P|366:60|357:24,1,70
202,184,74806,5,2,0:0:0:0:
473,45,75103,1,2,0:0:0:0:
285,270,75401,1,8,0:0:0:0:
285,270,75699,1,0,0:0:0:0:
285,270,75997,1,0,0:0:0:0:
66,123,76146,6,0,L|-8:47,1,70,2|0,0:0|0:0,0:0:0:0:
210,113,76444,2,0,L|174:43,1,70,2|8,0:0|0:0,0:0:0:0:
343,158,76742,2,0,L|342:73,1,70,2|0,0:0|0:0,0:0:0:0:
342,88,77040,1,0,0:0:0:0:
398,257,77189,5,4,0:2:0:0:
56,184,77480,1,2,0:0:0:0:
5,367,77772,1,8,0:0:0:0:
49,86,78064,2,0,B|90:80|131:115,1,70
207,203,78356,5,8,0:0:0:0:
108,225,78504,2,0,P|80:201|60:165,1,70,2|0,0:0|0:0,0:0:0:0:
184,52,78801,2,0,P|218:53|251:66,1,70,8|0,0:0|0:0,0:0:0:0:
307,147,79098,1,2,0:0:0:0:
346,236,79246,2,0,B|353:267|342:305,1,70
228,202,79543,5,2,0:0:0:0:
484,33,79841,1,2,0:0:0:0:
394,204,80140,5,0,0:0:0:0:
251,69,80439,1,0,0:0:0:0:
438,127,80738,1,0,0:0:0:0:
244,157,81036,1,0,0:0:0:0:
370,7,81335,1,0,0:0:0:0:
