osu file format v14

[General]
AudioFilename: Receptor ft. K.I.R.A - Lullaby (Original Mix).mp3
AudioLeadIn: 2000
PreviewTime: 86051
Countdown: 0
SampleSet: Soft
StackLeniency: 0.6
Mode: 0
LetterboxInBreaks: 0
WidescreenStoryboard: 0

[Editor]
DistanceSpacing: 1
BeatDivisor: 4
GridSize: 4
TimelineZoom: 2

[Metadata]
Title:Lullaby (Original Mix)
TitleUnicode:Lullaby (Original Mix)
Artist:Receptor ft. K.I.R.A
ArtistUnicode:Receptor ft. K.I.R.A
Creator:FCL
Version:Nightmare
Source:
Tags:dnb drum and bass russian marathon kira neurofunk Burning Up
BeatmapID:815846
BeatmapSetID:372505

[Difficulty]
HPDrainRate:6.5
CircleSize:4
OverallDifficulty:8
ApproachRate:9.1
SliderMultiplier:1.4
SliderTickRate:1

[Events]
//Background and Video events
0,0,"boo.jpg",0,0
//Break Periods
//Storyboard Layer 0 (Background)
//Storyboard Layer 1 (Fail)
//Storyboard Layer 2 (Pass)
//Storyboard Layer 3 (Foreground)
//Storyboard Sound Samples

[TimingPoints]
40,346.820809248555,4,2,5,30,1,0
40,-200,4,2,5,30,0,0
20849,-200,4,2,5,35,0,0
21196,-200,4,2,5,40,0,0
21542,-200,4,2,5,45,0,0
21889,-200,4,2,5,50,0,0
22236,-200,4,2,5,45,0,0
68710,-200,4,2,5,40,0,0
69404,-200,4,2,5,35,0,0
70097,-200,4,2,5,30,0,0
70791,-200,4,2,5,25,0,0
71485,-200,4,2,5,20,0,0
72178,-200,4,2,5,15,0,0
72872,-200,4,2,5,10,0,0
77727,-200,4,2,0,25,0,0
79115,-200,4,2,0,30,0,0
80502,-200,4,2,0,35,0,0
81889,-200,4,2,0,40,0,0
82583,-200,4,2,0,45,0,0
83276,-200,4,2,0,50,0,0
83970,-200,4,2,0,55,0,0
84664,-200,4,2,0,60,0,0
85357,-200,4,2,0,65,0,0
86051,-200,4,2,0,70,0,0
88479,-200,4,2,0,5,0,0
88826,-80,4,1,1,70,0,1
97843,-80,4,1,1,70,0,0
99924,-80,4,1,1,70,0,1
108248,-80,4,1,1,70,0,0
110329,-133.333333333333,4,1,1,70,0,0
111022,-80,4,1,1,70,0,1
120040,-80,4,1,1,70,0,0
122120,-80,4,1,1,70,0,1
130444,-80,4,1,1,70,0,0
141889,-80,4,1,1,80,0,0
142149,-80,4,1,1,70,0,0
142583,-80,4,1,1,80,0,0
142843,-80,4,1,1,70,0,0
143276,-80,4,1,1,80,0,0
143537,-80,4,1,1,70,0,0
174837,-142.857142857143,4,2,2,50,0,0
177612,-80,4,1,1,45,0,0
199461,-100,4,1,1,45,0,0
199808,-200,4,2,5,45,0,0
244028,-200,4,2,0,5,0,0
244201,-80,4,1,1,55,0,0
266051,-80,4,1,1,5,0,0
266398,-80,4,1,1,70,0,1
272294,-100,4,1,1,70,0,1
272641,-80,4,1,1,70,0,1
274722,-80,4,1,1,70,0,0
277496,-80,4,1,1,70,0,1
286340,-80,4,1,1,70,0,0
288594,-80,4,1,1,70,0,1
288941,-133.333333333333,4,1,1,70,0,1
289635,-80,4,1,1,70,0,1
294490,-133.333333333333,4,1,1,70,0,1
295184,-80,4,1,1,70,0,1
297612,-80,4,1,1,70,0,0
308363,-80,4,1,1,80,0,0
308623,-80,4,1,1,70,0,0
309057,-80,4,1,1,80,0,0
309317,-80,4,1,1,70,0,0
309750,-80,4,1,1,80,0,0
310011,-80,4,1,1,70,0,0
321889,-133.333333333333,4,1,1,70,0,0
322236,-80,4,1,1,70,0,0
332727,-100,4,1,1,70,0,0
333334,-80,4,1,1,70,0,0
341311,-142.857142857143,4,2,2,50,0,0
343392,-200,4,2,0,5,0,0
344086,-200,4,1,1,70,0,0

[Colours]
Combo1 : 226,228,163
Combo2 : 111,111,111
Combo3 : 253,156,123
Combo4 : 0,128,192

[HitObjects]
40,196,40,5,2,0:0:0:0:
228,100,733,1,2,0:0:0:0:
412,200,1427,2,0,P|396:256|320:272,1,140,2|0,0:0|0:0,0:0:0:0:
412,200,2467,5,2,0:0:0:0:
324,144,2814,2,0,L|248:136,1,70,2|0,0:0|0:0,0:0:0:0:
376,92,3508,2,0,P|396:124|392:168,1,70,2|0,0:0|0:0,0:0:0:0:
348,248,4201,1,2,0:0:0:0:
324,144,4548,1,2,0:0:0:0:
236,88,4895,2,0,L|152:92,1,70
28,164,5589,6,0,L|32:248,1,70,2|0,0:0|0:0,0:0:0:0:
124,288,6282,2,0,L|120:204,1,70,2|0,0:0|0:0,0:0:0:0:
116,112,6976,1,0,0:0:0:0:
204,168,7323,1,0,0:0:0:0:
128,40,7670,2,0,P|88:44|56:68,1,70,2|0,0:0|0:0,0:0:0:0:
12,152,8363,5,2,0:0:0:0:
64,244,8710,1,2,0:0:0:0:
116,152,9057,1,2,0:0:0:0:
8,136,9404,1,2,0:0:0:0:
68,256,9750,1,2,0:0:0:0:
140,144,10097,1,2,0:0:0:0:
192,264,10444,2,0,P|228:268|264:268,1,70
388,195,11138,6,0,P|408:147|388:55,1,140,2|2,0:0|0:0,0:0:0:0:
196,131,12525,2,0,P|176:179|196:271,1,140,2|0,0:0|0:0,0:0:0:0:
244,356,13566,1,2,0:0:0:0:
348,364,13912,6,0,L|432:368,1,70,2|0,0:0|0:0,0:0:0:0:
480,284,14606,2,0,L|396:280,1,70,2|0,0:0|0:0,0:0:0:0:
344,200,15300,1,2,0:0:0:0:
448,196,15646,1,2,0:0:0:0:
484,96,15993,2,0,L|400:92,1,70,2|0,0:0|0:0,0:0:0:0:
448,196,16687,6,0,L|444:268,2,70,2|2|2,0:0|0:0|0:0,0:0:0:0:
428,92,17727,1,0,0:0:0:0:
332,48,18074,2,0,L|262:44,1,70,2|0,0:0|0:0,0:0:0:0:
126,116,18768,2,0,L|196:120,1,70,2|0,0:0|0:0,0:0:0:0:
60,196,19461,5,2,0:0:0:0:
36,298,19808,1,2,0:0:0:0:
138,321,20155,1,2,0:0:0:0:
162,218,20502,1,2,0:0:0:0:
60,196,20849,2,0,L|42:270,1,70,2|2,0:0|0:0,0:0:0:0:
188,352,21542,2,0,L|206:278,1,70
176,80,22236,6,0,P|160:112|160:152,1,70,2|2,0:0|0:0,0:0:0:0:
196,244,22930,2,0,L|280:248,1,70,2|2,0:0|0:0,0:0:0:0:
368,228,23623,2,0,P|404:192|364:116,1,140,2|0,0:0|0:0,0:0:0:0:
268,92,24664,1,2,0:0:0:0:
268,92,25011,6,0,L|184:92,1,70,2|2,0:0|0:0,0:0:0:0:
140,184,25704,2,0,L|224:184,1,70,2|2,0:0|0:0,0:0:0:0:
276,264,26398,2,0,L|204:264,2,70,2|2|0,0:0|0:0|0:0,0:0:0:0:
72,208,27785,5,2,0:0:0:0:
72,208,28132,1,2,0:0:0:0:
156,128,28479,1,2,0:0:0:0:
156,256,28826,1,2,0:0:0:0:
252,192,29172,2,0,L|336:192,1,70,2|2,0:0|0:0,0:0:0:0:
427,192,29866,1,2,0:0:0:0:
472,352,30560,5,2,0:0:0:0:
380,304,30907,1,2,0:0:0:0:
288,352,31253,1,2,0:0:0:0:
196,304,31600,1,2,0:0:0:0:
104,352,31947,1,2,0:0:0:0:
12,304,32294,1,2,0:0:0:0:
196,304,32641,6,0,L|176:356,2,52.5,0|0|0,1:0|1:0|1:0,1:0:0:0:
160,268,33334,6,0,P|144:224|152:188,1,70,2|2,0:0|0:0,0:0:0:0:
285,222,34028,2,0,L|205:222,1,70,2|2,0:0|0:0,0:0:0:0:
324,160,34722,2,0,P|360:224|324:284,1,140,2|0,0:0|0:0,0:0:0:0:
256,340,35762,1,2,0:0:0:0:
152,360,36109,6,0,P|92:364|68:356,1,70,2|2,0:0|0:0,0:0:0:0:
136,268,36803,2,0,P|170:263|204:269,1,70,2|2,0:0|0:0,0:0:0:0:
308,296,37496,1,2,0:0:0:0:
408,268,37843,2,0,L|404:198,1,70,2|0,0:0|0:0,0:0:0:0:
308,100,38883,6,2,L|391:99,1,70
464,192,39577,2,2,L|394:192,1,70
308,284,40271,2,2,L|377:284,2,70
308,284,41658,5,2,0:0:0:0:
203,284,42005,1,2,0:0:0:0:
150,193,42352,1,2,0:0:0:0:
203,102,42698,1,2,0:0:0:0:
308,102,43045,1,2,0:0:0:0:
360,193,43392,1,2,0:0:0:0:
308,284,43739,2,0,L|224:284,1,70,0|0,3:2|0:2,3:2:0:0:
140,240,44433,6,0,L|136:164,1,70,2|2,0:0|0:0,0:0:0:0:
243,106,45126,2,0,L|240:176,1,70,10|2,0:0|0:0,0:0:0:0:
176,40,45820,2,0,B|128:24|88:40|112:48|68:60|28:48,1,140,2|8,0:0|0:0,0:0:0:0:
140,112,46860,1,0,0:0:0:0:
160,216,47207,6,0,P|160:248|180:288,1,70,2|2,0:0|0:0,0:0:0:0:
264,228,47901,2,0,P|272:258|301:292,1,70,10|2,0:0|0:0,0:0:0:0:
396,324,48594,2,0,L|400:240,1,70,2|2,0:0|0:0,0:0:0:0:
399,254,49288,1,8,0:0:0:0:
340,52,49982,6,0,P|304:48|256:56,1,70,2|0,0:0|0:0,0:0:0:0:
192,124,50675,2,0,L|188:48,1,70,10|0,0:0|0:0,0:0:0:0:
68,96,51369,1,2,0:0:0:0:
192,124,51716,1,2,0:0:0:0:
76,176,52063,1,10,0:0:0:0:
280,64,52756,5,2,0:0:0:0:
376,108,53103,1,2,0:0:0:0:
288,168,53450,2,0,L|296:248,1,70,10|2,0:0|0:0,0:0:0:0:
204,292,54144,2,0,L|196:372,1,70,2|2,0:0|0:0,0:0:0:0:
197,361,54837,1,8,0:0:0:0:
84,180,55531,6,0,P|72:152|80:104,1,70,2|2,0:0|0:0,0:0:0:0:
216,136,56224,2,0,L|146:136,1,70,10|2,0:0|0:0,0:0:0:0:
72,220,56918,2,0,P|80:268|152:316,1,140,2|8,0:0|0:0,0:0:0:0:
257,315,57959,1,0,0:0:0:0:
324,236,58305,6,0,L|404:236,1,70,2|2,0:0|0:0,0:0:0:0:
468,161,58999,2,0,L|398:161,1,70,10|2,0:0|0:0,0:0:0:0:
323,86,59693,2,0,L|393:86,1,70,2|2,0:0|0:0,0:0:0:0:
393,86,60386,1,8,0:0:0:0:
180,52,61080,5,2,0:0:0:0:
92,108,61427,1,2,0:0:0:0:
180,157,61774,1,10,0:0:0:0:
272,108,62120,1,2,0:0:0:0:
180,52,62467,2,0,L|180:126,2,70,2|2|10,0:0|0:0|0:0,0:0:0:0:
108,152,63855,5,2,0:0:0:0:
182,226,64201,1,2,0:0:0:0:
256,151,64548,1,10,0:0:0:0:
330,225,64895,1,2,0:0:0:0:
404,148,65242,2,0,L|488:148,1,70,2|2,0:0|0:0,0:0:0:0:
348,196,65935,2,0,P|332:168|336:120,1,70,8|0,0:0|0:0,0:0:0:0:
160,176,66629,6,0,P|152:216|164:252,1,70,6|2,0:3|0:0,0:0:0:0:
256,284,67323,2,0,P|264:244|252:208,1,70,2|2,0:0|0:0,0:0:0:0:
220,116,68016,1,2,0:0:0:0:
300,144,68710,5,2,0:0:0:0:
348,196,69404,5,2,0:0:0:0:
368,248,70097,5,2,0:0:0:0:
364,288,70791,5,2,0:0:0:0:
344,308,71485,5,2,0:0:0:0:
332,312,72178,5,2,0:0:0:0:
324,316,72872,5,2,0:0:0:0:
256,192,72959,12,0,77554,0:0:0:0:
100,156,77727,5,10,0:0:0:0:
112,160,78421,1,10,0:0:0:0:
124,168,79115,1,10,0:0:0:0:
132,180,79808,1,10,0:3:0:0:
412,156,80502,5,10,0:0:0:0:
400,160,81196,1,10,0:0:0:0:
388,168,81890,1,10,0:0:0:0:
380,180,82583,1,10,0:0:0:0:
256,344,83276,5,10,0:0:0:0:
256,332,83623,1,10,0:0:0:0:
256,312,83970,1,10,0:0:0:0:
256,284,84317,1,10,0:0:0:0:
256,248,84664,5,10,0:0:0:0:
256,204,85011,1,10,0:0:0:0:
256,156,85357,1,10,0:0:0:0:
256,92,85704,1,10,0:0:0:0:
256,36,86051,5,10,0:0:0:0:
256,192,87785,12,0,88479,0:0:0:0:
168,104,88826,38,0,P|228:124|324:104,1,131.25,4|0,0:0|0:0,0:0:0:0:
336,108,89172,1,8,0:0:0:0:
476,88,89346,1,0,0:0:0:0:
476,88,89433,2,2,B|464:140|484:172|484:172|444:196|452:268,1,175,2|0,2:0|2:0,2:0:0:0:
412,268,89866,2,0,P|348:252|260:272,1,131.25,10|0,0:0|0:0,0:0:0:0:
240,252,90213,5,0,0:0:0:0:
120,304,90386,1,0,0:0:0:0:
80,324,90473,1,0,0:0:0:0:
40,340,90560,2,0,P|52:308|48:244,1,87.5,10|2,0:2|0:2,0:0:0:0:
20,108,90907,2,2,L|156:104,1,131.25
184,76,91253,1,8,0:0:0:0:
440,60,91600,6,0,P|460:132|436:224,1,131.25,4|0,0:0|0:0,0:0:0:0:
444,228,91947,1,8,0:0:0:0:
404,360,92120,2,0,P|421:341|456:322,1,43.75
332,324,92294,2,0,P|312:256|328:164,1,131.25,4|0,0:2|2:0,0:0:0:0:
328,152,92641,2,0,P|332:100|260:56,1,131.25,10|0,0:0|2:0,0:0:0:0:
232,44,92987,5,0,0:0:0:0:
96,52,93161,1,0,0:0:0:0:
56,64,93248,1,0,0:0:0:0:
23,89,93334,2,0,L|12:148,1,43.75,4|0,0:3|0:0,0:0:0:0:
96,208,93508,2,0,L|87:164,1,43.75,4|0,0:3|0:0,0:0:0:0:
40,264,93681,2,2,P|108:252|204:276,1,131.25
208,280,94028,1,8,0:0:0:0:
320,356,94201,1,0,0:0:0:0:
320,356,94288,1,0,0:0:0:0:
320,356,94375,6,0,L|328:216,1,131.25,4|0,0:0|0:0,0:0:0:0:
352,188,94722,1,8,0:0:0:0:
196,68,94982,1,0,0:0:0:0:
196,68,95068,2,0,P|128:80|44:52,1,131.25,8|0,1:1|0:0,0:0:0:0:
40,100,95415,2,0,L|44:212,1,87.5,10|0,0:0|0:0,0:0:0:0:
136,280,95762,5,0,0:0:0:0:
260,324,95935,1,0,0:0:0:0:
303,323,96021,1,0,0:0:0:0:
346,323,96109,2,0,P|359:296|362:262,1,43.75,4|0,0:3|0:0,0:0:0:0:
428,364,96282,2,0,P|445:339|473:320,1,43.75,4|0,0:3|0:0,0:0:0:0:
426,217,96456,2,2,P|392:168|383:87,1,131.25
412,64,96803,2,0,P|348:48|276:76,1,131.25,8|0,0:0|0:0,0:0:0:0:
272,108,97149,6,0,B|260:152|268:192|272:164|288:216|272:264,1,131.25,4|0,0:0|0:0,0:0:0:0:
276,280,97496,1,8,0:0:0:0:
156,336,97670,1,0,0:0:0:0:
150,292,97756,1,0,0:0:0:0:
145,249,97843,6,2,B|176:188|120:188|160:100,1,131.25,6|0,0:0|0:0,0:0:0:0:
84,60,98190,2,0,P|164:88|248:72,1,131.25,8|0,0:0|0:0,0:0:0:0:
284,32,98537,6,2,P|300:96|268:156,1,131.25,6|0,0:0|0:0,0:0:0:0:
352,180,98883,2,0,L|216:184,1,131.25,8|0,0:0|0:0,0:0:0:0:
132,184,99230,6,2,B|108:128|108:128|96:88|131:34,1,131.25,6|0,0:0|0:0,0:0:0:0:
184,104,99577,1,8,0:0:0:0:
256,212,99750,1,8,0:0:0:0:
356,128,99924,6,0,P|428:108|480:160,1,131.25,4|0,0:0|0:0,0:0:0:0:
410,178,100271,2,0,L|402:271,1,87.5,8|0,0:0|0:0,0:0:0:0:
384,300,100531,1,0,0:0:0:0:
349,327,100618,2,2,P|309:331|277:323,1,43.75,4|4,0:3|0:3,0:2:0:0:
194,278,100791,2,0,P|234:274|266:282,1,43.75,4|4,0:3|0:3,0:2:0:0:
324,252,100964,2,0,L|336:132,1,87.5,10|0,0:0|0:0,0:0:0:0:
356,128,101224,1,0,0:0:0:0:
356,84,101311,5,0,0:0:0:0:
220,32,101485,1,0,0:0:0:0:
220,32,101571,1,0,0:0:0:0:
220,32,101658,2,0,P|148:28|116:44,1,87.5,8|0,0:0|0:0,0:0:0:0:
76,168,102005,2,2,P|156:176|212:156,1,131.25
248,136,102352,2,0,B|228:296,1,131.25,8|0,0:0|0:0,0:0:0:0:
172,308,102698,6,0,P|212:336|288:312,1,131.25,4|0,0:0|0:0,0:0:0:0:
312,280,103045,2,0,P|370:256|412:276,1,87.5,8|0,0:0|0:0,0:0:0:0:
428,284,103305,1,0,0:0:0:0:
470,290,103391,1,2,0:2:0:0:
505,267,103478,1,0,0:0:0:0:
512,226,103565,1,2,0:2:0:0:
496,188,103651,1,0,0:0:0:0:
460,164,103739,2,0,P|403:178|327:158,1,131.25,10|0,0:0|0:0,0:0:0:0:
296,140,104086,5,0,0:0:0:0:
192,60,104259,1,0,0:0:0:0:
192,60,104346,1,0,0:0:0:0:
192,60,104433,2,0,P|188:92|168:132,1,43.75,4|0,0:3|0:0,0:0:0:0:
82,214,104606,2,0,P|84:192|92:171,1,43.75,4|0,0:3|0:0,0:0:0:0:
160,208,104779,2,2,B|200:200|228:208|228:208|264:228|312:220,1,131.25
332,224,105126,2,0,L|344:56,1,131.25,8|0,3:1|0:1,3:1:0:0:
333,46,105473,6,0,P|261:62|181:38,1,131.25,4|0,0:0|0:0,0:0:0:0:
165,38,105820,2,0,P|145:98|149:146,1,87.5,8|0,0:0|0:0,0:0:0:0:
149,166,106080,1,0,0:0:0:0:
160,208,106167,1,2,0:2:0:0:
181,246,106253,1,2,0:2:0:0:
196,287,106340,1,2,0:2:0:0:
196,330,106427,1,2,0:2:0:0:
186,373,106513,2,0,P|120:357|20:373,1,131.25,10|0,0:0|0:0,0:0:0:0:
16,372,106860,6,0,B|32:328|24:284|16:312|8:260|24:220,1,131.25
28,200,107207,2,0,L|40:140,1,43.75,4|0,0:3|0:0,0:0:0:0:
160,84,107381,2,0,L|169:41,1,43.75,4|0,0:3|0:0,0:0:0:0:
104,128,107554,2,2,P|160:156|224:112,1,131.25
244,92,107901,1,8,0:0:0:0:
480,108,108248,6,0,P|492:168|476:264,1,131.25,4|0,0:0|0:0,0:0:0:0:
444,244,108594,2,0,P|396:236|344:252,1,87.5,8|0,0:0|0:0,0:0:0:0:
232,284,108941,2,2,P|184:288|120:224,1,131.25,6|2,0:0|0:0,0:0:0:0:
104,196,109288,1,8,0:0:0:0:
240,64,109461,1,0,0:0:0:0:
240,64,109548,1,0,0:0:0:0:
240,64,109635,6,0,L|388:60,1,131.25
454,153,109982,2,0,L|322:156,1,131.25,8|0,0:0|0:0,0:0:0:0:
256,252,110329,6,2,L|376:248,1,105.000004005432,2|0,0:0|0:0,0:0:0:0:
424,287,110849,1,0,0:0:0:0:
503,147,111022,6,0,P|471:91|387:87,1,131.25,4|0,0:0|0:0,0:0:0:0:
427,155,111369,2,0,L|423:299,1,131.25,8|0,0:0|0:0,0:0:0:0:
104,320,112063,2,0,B|120:280|108:236|104:264|92:224|112:152,1,131.25,10|0,0:0|0:0,0:0:0:0:
116,148,112409,5,0,0:0:0:0:
216,64,112583,1,0,0:0:0:0:
259,60,112669,1,0,0:0:0:0:
303,57,112756,2,0,L|368:68,1,43.75,4|0,0:3|0:0,0:0:0:0:
388,160,112930,2,0,L|431:167,1,43.75,4|0,0:3|0:0,0:0:0:0:
448,88,113103,2,2,L|460:236,1,131.25
464,264,113450,1,8,0:0:0:0:
340,308,113623,1,0,0:0:0:0:
340,308,113710,1,0,0:0:0:0:
340,308,113797,6,0,L|329:177,1,131.25,4|0,0:0|0:0,0:0:0:0:
332,132,114144,1,8,0:0:0:0:
212,48,114317,2,0,P|188:40|160:16,1,43.75
176,120,114490,2,2,B|172:144|160:160|160:160|176:168|176:168|160:212|176:264,1,131.25,2|2,3:2|3:2,3:2:0:0:
168,280,114837,2,0,P|236:292|280:272,1,87.5,10|0,0:0|0:0,0:0:0:0:
380,244,115184,5,0,0:0:0:0:
464,144,115357,1,0,0:0:0:0:
475,102,115443,1,0,0:0:0:0:
467,59,115531,2,0,P|440:68|392:72,1,43.75,4|0,0:3|0:0,0:0:0:0:
316,104,115704,2,0,P|292:88|276:68,1,43.75,4|0,0:3|0:0,0:0:0:0:
348,28,115878,2,2,P|412:24|476:72,1,131.25
475,102,116224,1,8,0:0:0:0:
484,232,116398,1,0,3:0:0:0:
487,275,116484,1,0,3:0:0:0:
477,317,116571,6,0,P|400:340|316:324,1,131.25,4|0,0:0|0:0,0:0:0:0:
308,324,116918,1,8,0:0:0:0:
116,324,117178,1,0,0:0:0:0:
116,324,117265,2,0,B|112:288|112:288|120:252|120:252|112:216|112:216|124:156,1,131.25,2|0,3:2|2:0,0:0:0:0:
160,140,117612,2,0,P|120:124|78:135,1,87.5,10|0,0:0|0:0,0:0:0:0:
4,28,117959,5,0,0:0:0:0:
32,191,118132,1,0,0:0:0:0:
72,207,118218,1,0,0:0:0:0:
116,195,118305,2,0,L|161:175,1,43.75,4|0,0:3|0:0,0:0:0:0:
256,128,118479,2,0,L|300:109,1,43.75,4|0,0:3|0:0,0:0:0:0:
256,200,118652,2,2,L|236:352,1,131.25
238,330,118999,1,8,0:0:0:0:
96,364,119172,1,0,0:0:0:0:
96,364,119259,1,0,0:0:0:0:
96,364,119346,6,0,L|113:233,1,131.25,4|0,0:0|0:0,0:0:0:0:
136,124,119693,2,0,L|196:120,1,43.75,8|0,0:0|0:0,0:0:0:0:
248,32,119866,2,0,L|188:36,1,43.75
88,36,120040,6,0,L|76:184,1,131.25,6|0,0:0|0:0,0:0:0:0:
77,166,120386,1,8,0:0:0:0:
160,280,120560,5,0,0:0:0:0:
203,276,120646,1,0,0:0:0:0:
246,282,120733,1,6,0:0:0:0:
289,288,120820,1,0,0:0:0:0:
333,284,120906,1,0,0:0:0:0:
456,240,121080,2,0,L|460:184,1,43.75,8|0,0:0|0:0,0:0:0:0:
460,152,121254,5,0,0:0:0:0:
417,156,121340,1,0,0:0:0:0:
374,150,121427,1,6,0:0:0:0:
331,144,121514,1,0,0:0:0:0:
287,148,121600,2,0,L|184:144,1,87.5,0|8,0:0|0:0,0:0:0:0:
160,128,121860,1,0,0:0:0:0:
172,344,122120,6,0,P|244:352|320:328,1,131.25,4|0,0:0|0:0,0:0:0:0:
344,324,122467,2,0,L|352:228,1,87.5,8|0,0:0|0:0,0:0:0:0:
356,192,122727,1,0,0:0:0:0:
342,150,122813,1,2,0:2:0:0:
309,122,122900,1,0,0:0:0:0:
267,116,122987,1,2,0:2:0:0:
227,133,123073,1,0,0:0:0:0:
202,168,123161,1,10,0:0:0:0:
180,296,123334,1,0,0:0:0:0:
180,296,123421,1,0,0:0:0:0:
180,296,123508,5,0,0:0:0:0:
72,224,123681,1,0,0:0:0:0:
70,180,123767,1,0,0:0:0:0:
68,136,123855,2,0,P|88:124|120:100,1,43.75,4|0,0:3|0:0,0:0:0:0:
104,32,124028,2,0,P|84:24|60:0,1,43.75,4|0,0:3|0:0,0:0:0:0:
184,68,124201,2,2,P|264:60|336:72,1,131.25,0|2,0:0|0:0,0:0:0:0:
356,76,124548,2,0,L|360:192,1,87.5,8|0,0:0|0:0,0:0:0:0:
344,304,124895,6,0,B|320:316|284:300|284:300|244:288|196:324,1,131.25,4|0,0:0|0:0,0:0:0:0:
180,328,125242,1,8,0:0:0:0:
72,256,125415,1,0,0:0:0:0:
44,220,125502,1,0,0:0:0:0:
35,177,125588,1,2,0:2:0:0:
41,134,125675,1,0,0:0:0:0:
62,95,125762,1,2,0:2:0:0:
100,72,125848,1,0,0:0:0:0:
144,76,125935,2,0,P|204:92|291:76,1,131.25,10|0,0:0|0:0,0:0:0:0:
300,52,126282,6,0,L|288:196,1,131.25
284,228,126629,2,0,P|280:252|260:288,1,43.75,4|0,0:3|0:0,0:0:0:0:
268,352,126803,2,0,P|289:347|307:334,1,43.75,4|0,0:3|0:0,0:0:0:0:
200,304,126976,2,2,B|184:264|192:224|200:252|208:204|192:156,1,131.25
252,128,127323,2,0,P|200:104|128:156,1,131.25,8|0,0:0|0:0,0:0:0:0:
108,172,127670,6,0,L|104:320,1,131.25,4|0,0:0|0:0,0:0:0:0:
116,344,128016,1,8,0:0:0:0:
256,360,128190,1,0,0:0:0:0:
299,364,128276,1,0,0:0:0:0:
342,362,128363,1,2,0:2:0:0:
384,354,128450,1,0,0:0:0:0:
425,337,128536,1,2,0:2:0:0:
463,316,128623,1,0,0:0:0:0:
497,289,128710,2,0,P|416:292|360:256,1,131.25,10|0,0:0|0:0,0:0:0:0:
340,240,129057,6,0,L|336:92,1,131.25
300,84,129404,2,0,L|236:80,1,43.75,12|0,0:3|0:0,0:0:0:0:
180,156,129577,2,0,L|223:159,1,43.75,4|0,0:3|0:0,0:0:0:0:
192,28,129750,2,2,P|176:96|188:184,1,131.25
192,200,130097,2,0,P|208:268|196:356,1,131.25,8|0,0:0|0:0,0:0:0:0:
168,356,130444,6,0,B|136:348|136:348|104:356|104:356|80:340|8:360,1,131.25,4|0,0:0|0:0,0:0:0:0:
40,352,130791,1,8,0:0:0:0:
16,92,131138,6,2,P|88:68|156:89,1,131.25,6|2,0:0|0:0,0:0:0:0:
216,148,131485,2,0,P|168:176|80:160,1,131.25,8|0,0:0|0:0,0:0:0:0:
16,92,131831,6,2,L|19:232,1,131.25,6|2,0:0|0:0,0:0:0:0:
94,291,132178,2,0,P|114:239|94:167,1,131.25
16,92,132525,6,2,L|156:89,1,131.25,6|2,0:0|0:0,0:0:0:0:
172,52,132872,2,0,P|220:52|288:72,1,87.5,8|0,0:0|0:0,0:0:0:0:
428,128,133219,6,0,P|440:176|432:224,1,87.5,4|0,0:0|0:0,0:0:0:0:
356,320,133566,2,0,L|288:328,1,43.75,12|0,0:3|0:0,0:0:0:0:
240,260,133739,2,0,L|308:252,1,43.75,4|0,0:3|0:0,0:0:0:0:
376,240,133912,1,2,0:0:0:0:
390,199,133998,1,0,0:0:0:0:
390,155,134085,1,0,0:0:0:0:
375,114,134172,1,2,0:0:0:0:
347,81,134259,2,0,B|324:72|324:72|300:76|300:76|276:60|276:60|232:60,1,87.5,8|2,0:0|0:0,0:0:0:0:
164,148,134606,6,0,P|172:204|164:248,1,87.5
104,360,134953,2,0,P|72:364|32:360,1,43.75,12|0,0:3|0:0,0:0:0:0:
8,288,135126,2,0,P|40:284|80:288,1,43.75,4|0,0:3|0:0,0:0:0:0:
144,300,135300,1,2,0:0:0:0:
185,312,135386,1,0,0:0:0:0:
229,315,135473,1,0,0:0:0:0:
272,310,135560,1,2,0:0:0:0:
314,296,135646,2,0,L|300:260,6,21.875,8|0|0|0|2|0|0,3:0|3:0|3:0|3:0|3:1|3:0|3:0,3:0:0:0:
384,264,135993,5,4,0:0:0:0:
504,40,136340,1,8,0:0:0:0:
372,20,136513,2,0,P|340:16|296:20,1,43.75,2|0,0:0|0:0,0:0:0:0:
228,92,136687,2,0,P|260:88|304:92,1,43.75
348,88,136860,1,0,0:0:0:0:
216,180,137034,1,10,0:0:0:0:
216,180,137120,2,0,L|216:296,1,87.5,0|0,0:0|2:0,0:0:0:0:
216,344,137381,5,0,0:0:0:0:
356,372,137554,1,0,0:0:0:0:
399,376,137640,1,0,0:0:0:0:
442,369,137727,2,0,P|436:316|448:260,1,87.5,8|0,0:0|0:0,0:0:0:0:
448,240,137987,1,8,0:0:0:0:
460,196,138074,1,0,0:0:0:0:
480,156,138161,1,0,0:0:0:0:
500,116,138248,2,0,L|496:64,1,43.75,8|0,0:0|0:0,0:0:0:0:
408,16,138421,2,8,L|412:68,1,43.75
412,104,138595,1,0,0:0:0:0:
404,148,138681,1,0,0:0:0:0:
384,188,138768,6,0,L|268:192,1,87.5,4|0,0:0|0:0,0:0:0:0:
160,280,139115,2,0,P|132:280|100:264,1,43.75,12|0,0:3|0:0,0:0:0:0:
28,208,139288,2,0,P|28:180|44:148,1,43.75,4|0,0:3|0:0,0:0:0:0:
84,88,139461,1,2,0:0:0:0:
127,82,139547,1,0,0:0:0:0:
170,76,139634,1,0,0:0:0:0:
214,70,139721,1,2,0:0:0:0:
256,64,139808,2,2,P|247:120|265:175,1,87.5,10|2,0:2|0:0,0:2:0:0:
292,276,140155,6,0,L|196:268,1,87.5
88,208,140502,2,0,L|84:140,1,43.75,12|0,0:3|0:0,0:0:0:0:
172,92,140675,2,0,L|176:160,1,43.75,4|0,0:3|0:0,0:0:0:0:
180,233,140849,1,2,0:0:0:0:
204,268,140935,1,0,0:0:0:0:
244,284,141022,1,0,0:0:0:0:
292,276,141109,1,2,0:0:0:0:
320,240,141196,2,0,L|336:256,6,21.875,8|0|0|0|2|0|0,3:0|3:0|3:0|3:0|3:1|3:0|3:0,3:0:0:0:
320,164,141542,6,0,L|324:56,1,87.5,4|0,0:0|0:0,0:0:0:0:
444,36,141889,2,2,B|448:64|448:64|444:84|444:84|448:104|448:104|444:124|444:124|452:148|452:148|448:168|448:168|440:192,1,131.25,10|0,0:0|0:0,0:0:0:0:
440,208,142236,2,0,B|440:228|436:248|436:248|448:248|448:248|436:280|444:332,1,131.25
444,368,142583,2,2,B|416:372|416:372|396:368|396:368|376:372|376:372|356:368|356:368|332:376|332:376|312:372|312:372|288:364,1,131.25,10|0,0:0|0:0,0:0:0:0:
272,368,142930,5,0,0:0:0:0:
229,358,143016,1,0,0:0:0:0:
196,330,143103,1,0,0:0:0:0:
181,290,143190,1,0,0:0:0:0:
180,248,143276,2,2,B|184:228|184:228|176:204|176:204|180:184|180:184|176:164|176:164|180:144|180:144|176:116,1,131.25,10|0,0:0|0:0,0:0:0:0:
116,84,143623,2,0,P|177:50|244:96,1,131.25
257,164,143970,1,8,3:1:0:0:
307,204,144057,1,8,3:0:0:0:
371,206,144143,1,8,3:0:0:0:
424,170,144230,1,8,3:0:0:0:
437,108,144317,6,0,P|393:120|333:104,1,87.5,12|0,3:1|0:0,0:0:0:0:
227,76,144664,2,0,L|143:72,1,43.75,12|0,0:3|0:0,0:0:0:0:
263,201,144837,2,0,L|306:203,1,43.75,4|0,0:3|0:0,0:0:0:0:
212,148,145011,1,2,0:0:0:0:
187,183,145097,1,0,0:0:0:0:
176,225,145184,1,0,0:0:0:0:
181,269,145271,1,2,0:0:0:0:
200,307,145357,2,2,P|160:292|88:308,1,87.5,10|2,0:2|0:0,0:2:0:0:
28,300,145704,6,0,L|32:192,1,87.5
38,36,146051,2,0,L|36:80,1,43.75,12|0,0:3|0:0,0:0:0:0:
116,156,146224,2,0,L|120:88,1,43.75,4|0,0:3|0:0,0:0:0:0:
120,24,146398,1,2,0:0:0:0:
162,16,146484,1,0,0:0:0:0:
206,21,146571,1,0,0:0:0:0:
248,31,146658,1,2,0:0:0:0:
291,26,146745,2,0,L|286:62,6,21.875,8|0|0|0|2|0|0,3:0|3:0|3:0|3:0|3:1|3:0|3:0,3:0:0:0:
368,40,147092,6,0,L|372:152,1,87.5,4|0,0:0|0:0,0:0:0:0:
376,260,147438,1,8,0:0:0:0:
248,308,147612,1,2,0:0:0:0:
209,328,147698,1,0,0:0:0:0:
166,325,147785,1,0,0:0:0:0:
132,299,147872,1,0,0:0:0:0:
116,259,147959,2,0,P|172:264|224:240,1,87.5,2|8,0:0|0:0,0:0:0:0:
208,212,148219,2,0,P|152:216|100:192,1,87.5,2|0,0:0|2:0,0:0:0:0:
60,172,148479,5,8,0:0:0:0:
180,104,148652,1,0,0:0:0:0:
223,99,148738,1,0,0:0:0:0:
267,95,148826,1,8,0:0:0:0:
400,104,148999,1,0,0:0:0:0:
427,137,149085,1,8,0:0:0:0:
426,180,149172,1,0,0:0:0:0:
396,211,149259,1,8,0:0:0:0:
357,231,149345,1,8,0:0:0:0:
332,264,149432,1,0,0:0:0:0:
335,307,149519,1,8,0:0:0:0:
363,340,149606,2,0,P|316:336|244:348,1,87.5,8|0,0:0|0:0,0:0:0:0:
232,348,149866,6,0,L|240:244,1,87.5,4|0,0:0|0:0,0:0:0:0:
248,128,150213,2,0,P|252:100|264:72,1,43.75,12|0,0:3|0:0,0:0:0:0:
348,72,150386,2,0,P|344:100|332:128,1,43.75,4|0,0:3|0:0,0:0:0:0:
295,196,150560,1,2,0:0:0:0:
273,233,150646,1,0,0:0:0:0:
238,260,150733,1,0,0:0:0:0:
197,272,150820,1,2,0:0:0:0:
155,276,150907,2,2,L|165:160,1,87.5,10|2,0:2|0:0,0:2:0:0:
168,60,151253,6,0,P|240:72|272:56,1,87.5
384,84,151600,2,0,L|388:148,1,43.75,12|0,0:3|0:0,0:0:0:0:
476,200,151774,2,0,L|472:136,1,43.75,4|0,0:3|0:0,0:0:0:0:
468,68,151947,1,2,0:0:0:0:
428,49,152033,1,0,0:0:0:0:
385,42,152120,1,0,0:0:0:0:
340,48,152207,1,2,0:0:0:0:
300,60,152294,2,0,L|272:45,6,21.875,8|0|0|0|2|0|0,3:0|3:0|3:0|3:0|3:1|3:0|3:0,3:0:0:0:
280,136,152641,6,0,L|276:300,1,131.25,4|0,0:0|0:0,0:0:0:0:
252,304,152987,1,8,0:0:0:0:
238,344,153073,1,8,0:0:0:0:
201,367,153160,1,0,0:0:0:0:
157,369,153247,1,0,0:0:0:0:
116,348,153334,5,14,0:0:0:0:
77,367,153421,1,8,0:0:0:0:
34,366,153508,2,0,L|32:256,1,87.5,8|8,0:0|0:0,0:0:0:0:
32,236,153768,1,8,0:0:0:0:
136,44,154028,6,0,L|132:176,1,131.25,6|0,0:0|0:0,0:0:0:0:
132,175,154375,1,8,0:0:0:0:
232,88,154548,5,0,0:0:0:0:
252,128,154635,1,8,0:0:0:0:
263,170,154722,1,14,0:0:0:0:
262,213,154808,1,8,0:0:0:0:
248,255,154895,2,0,L|352:252,1,87.5,8|8,0:0|0:0,0:0:0:0:
364,220,155155,1,8,0:0:0:0:
424,44,155329,1,0,0:0:0:0:
400,16,155415,6,0,P|336:28|296:16,1,87.5,4|0,0:0|0:0,0:0:0:0:
352,156,155762,1,10,0:0:0:0:
348,177,155848,1,8,0:0:0:0:
228,232,156022,1,10,0:0:0:0:
236,252,156109,1,8,0:0:0:0:
360,292,156282,1,10,0:0:0:0:
352,312,156369,1,8,0:0:0:0:
224,344,156542,1,10,0:0:0:0:
232,364,156629,1,8,0:0:0:0:
380,360,156803,6,0,P|392:288|380:236,1,87.5,4|0,0:0|0:0,0:0:0:0:
368,144,157149,1,10,0:0:0:0:
336,136,157235,1,2,0:2:0:0:
212,192,157409,1,10,0:0:0:0:
180,184,157496,1,2,0:2:0:0:
144,56,157670,1,10,0:0:0:0:
176,48,157756,1,2,0:2:0:0:
308,64,157930,1,10,0:0:0:0:
340,56,158016,1,2,0:2:0:0:
311,184,158190,6,0,L|170:184,1,131.25,4|0,0:0|0:0,0:0:0:0:
180,184,158537,1,8,0:0:0:0:
84,296,158710,1,2,0:0:0:0:
80,252,158796,1,0,0:0:0:0:
76,208,158883,1,0,0:0:0:0:
73,165,158970,1,0,0:0:0:0:
75,121,159056,1,0,0:0:0:0:
80,78,159143,1,0,0:0:0:0:
86,34,159230,2,0,L|228:32,1,131.25,10|0,0:0|0:0,0:0:0:0:
260,32,159577,5,0,0:0:0:0:
384,136,159750,1,0,0:0:0:0:
400,176,159837,1,0,0:0:0:0:
412,220,159924,2,0,L|404:312,1,87.5,8|0,0:0|0:0,0:0:0:0:
364,320,160184,1,0,0:0:0:0:
322,306,160270,1,0,0:0:0:0:
279,299,160357,1,0,0:0:0:0:
235,298,160444,1,0,0:0:0:0:
192,303,160530,1,0,0:0:0:0:
148,312,160617,1,8,0:0:0:0:
104,320,160704,2,0,P|111:258|99:206,1,87.5
128,196,160964,6,0,B|224:196,1,87.5,4|0,0:0|0:0,0:0:0:0:
356,228,161311,1,10,0:0:0:0:
377,228,161398,1,8,0:0:0:0:
484,152,161571,1,10,0:0:0:0:
462,152,161657,1,8,0:0:0:0:
356,76,161831,1,10,0:0:0:0:
378,76,161918,1,8,0:0:0:0:
496,12,162092,1,10,0:0:0:0:
474,12,162178,1,8,0:0:0:0:
328,16,162352,6,0,B|224:20,1,87.5,4|0,0:0|0:0,0:0:0:0:
120,68,162698,1,8,3:1:0:0:
104,96,162784,1,2,0:1:0:0:
140,224,162959,1,8,3:1:0:0:
168,239,163045,1,2,0:1:0:0:
284,180,163219,1,8,3:1:0:0:
299,152,163305,1,2,0:1:0:0:
268,34,163479,1,8,3:1:0:0:
240,19,163565,1,2,0:1:0:0:
120,68,163739,6,0,L|112:212,1,131.25,4|0,0:0|0:0,0:0:0:0:
112,199,164086,1,8,0:0:0:0:
132,340,164259,1,0,0:0:0:0:
174,349,164345,1,0,0:0:0:0:
217,347,164432,1,0,0:0:0:0:
258,332,164519,1,0,0:0:0:0:
298,313,164605,1,0,0:0:0:0:
340,320,164692,1,0,0:0:0:0:
384,307,164779,2,0,L|392:168,1,131.25,8|0,0:0|0:0,0:0:0:0:
376,132,165126,5,0,0:0:0:0:
331,150,165212,1,0,0:0:0:0:
283,153,165299,1,0,0:0:0:0:
237,141,165386,1,0,0:0:0:0:
197,114,165472,1,8,0:0:0:0:
100,28,165646,1,0,0:0:0:0:
52,49,165732,1,0,0:0:0:0:
18,88,165819,1,0,0:0:0:0:
1,137,165906,1,0,0:0:0:0:
32,176,165992,1,0,0:0:0:0:
51,224,166079,1,0,0:0:0:0:
45,276,166167,2,0,B|103:277|132:264|132:264|152:272|152:272|176:264|176:264|200:272,1,131.25,14|2,0:3|0:3,0:0:0:0:
237,221,166513,6,0,P|252:262|240:304,1,87.5,4|0,0:0|0:0,0:0:0:0:
136,144,166860,2,0,L|152:80,1,43.75,8|10,0:0|0:0,0:0:0:0:
296,0,167120,2,0,L|280:64,1,43.75,8|10,0:0|0:0,0:0:0:0:
116,96,167381,2,0,L|148:38,1,43.75,8|10,0:0|0:1,0:0:0:0:
316,52,167641,2,0,L|284:109,1,43.75,8|10,0:0|0:0,0:0:0:0:
220,189,167901,6,0,P|208:228|208:288,1,87.5,4|0,0:0|0:0,0:0:0:0:
12,64,168248,2,0,L|104:56,1,87.5,6|8,0:3|0:1,0:3:0:0:
220,189,168508,2,0,L|124:200,1,87.5,6|8,0:3|0:1,0:3:0:0:
6,61,168768,2,0,L|106:85,1,87.5,6|8,0:3|0:1,0:3:0:0:
227,192,169028,2,0,L|134:172,1,87.5,6|8,0:3|0:1,0:3:0:0:
0,58,169288,6,0,P|40:82|76:118,1,87.5,4|0,0:0|0:0,0:0:0:0:
152,228,169635,1,8,0:0:0:0:
172,356,169808,1,2,0:0:0:0:
213,369,169894,1,0,0:0:0:0:
257,371,169981,1,0,0:0:0:0:
299,363,170068,1,0,0:0:0:0:
339,345,170154,1,0,0:0:0:0:
387,177,170329,1,10,0:0:0:0:
411,205,170415,2,0,L|420:312,1,87.5
424,336,170675,5,0,0:0:0:0:
299,363,170849,1,0,0:0:0:0:
299,363,170935,1,0,0:0:0:0:
299,363,171022,2,0,P|267:364|211:340,1,87.5,8|0,0:0|0:0,0:0:0:0:
179,319,171282,1,8,0:0:0:0:
132,196,171456,1,8,0:0:0:0:
132,176,171542,1,8,0:2:0:0:
76,56,171716,1,8,0:0:0:0:
76,76,171802,1,8,0:2:0:0:
280,92,172063,6,0,L|272:196,1,87.5,4|0,0:0|0:0,0:0:0:0:
256,328,172409,2,0,L|264:264,1,43.75,8|2,0:0|0:0,0:0:0:0:
112,288,172670,2,0,L|150:236,1,43.75,8|2,0:0|0:0,0:0:0:0:
8,176,172930,2,0,L|67:150,1,43.75,8|2,0:0|0:0,0:0:0:0:
4,16,173190,2,0,L|68:23,1,43.75,8|2,0:0|0:0,0:0:0:0:
196,40,173450,6,0,L|300:48,1,87.5,4|0,0:0|0:0,0:0:0:0:
432,60,173797,2,0,L|388:56,1,43.75,10|2,0:0|0:2,0:0:0:0:
361,191,174057,2,0,L|397:216,1,43.75,10|2,0:0|0:2,0:0:0:0:
274,306,174317,2,0,L|255:266,1,43.75,10|2,0:0|0:2,0:0:0:0:
127,274,174577,2,0,L|125:318,1,43.75,10|2,0:0|0:2,0:0:0:0:
134,150,174837,6,0,B|178:162|198:102|198:102|238:134|230:190|230:190|250:142|324:112|404:152|404:152|352:168|328:204|336:264|392:288|448:260|432:224,1,587.999982055665,4|0,0:0|0:0,0:0:0:0:
88,64,177612,6,0,P|80:112|92:160,1,87.5,2|0,0:0|0:0,0:0:0:0:
148,236,177959,1,8,0:0:0:0:
260,260,178132,1,0,0:0:0:0:
260,260,178219,1,8,0:0:0:0:
260,260,178305,2,0,P|268:212|256:164,1,87.5,10|0,0:0|0:0,0:0:0:0:
224,108,178566,1,8,0:0:0:0:
224,108,178652,2,0,P|181:115|138:107,1,87.5,8|0,0:0|0:0,0:0:0:0:
44,64,178999,6,0,L|40:168,1,87.5,2|0,0:0|0:0,0:0:0:0:
36,256,179346,1,8,0:0:0:0:
132,212,179519,1,0,0:0:0:0:
132,212,179606,1,8,0:0:0:0:
132,212,179693,2,0,L|248:204,1,87.5,8|0,0:0|0:0,0:0:0:0:
220,278,179953,1,8,0:0:0:0:
220,278,180040,2,0,P|268:262|292:202,1,87.5,10|0,0:0|0:0,0:0:0:0:
340,144,180386,6,0,P|392:140|444:144,1,87.5,2|0,0:0|0:0,0:0:0:0:
508,208,180733,1,8,0:0:0:0:
456,300,180907,1,0,0:0:0:0:
456,300,180993,1,8,0:0:0:0:
456,300,181080,2,0,P|404:304|352:300,1,87.5,10|0,0:0|0:0,0:0:0:0:
296,292,181340,1,8,0:0:0:0:
296,292,181427,2,0,P|296:244|312:184,1,87.5,8|0,0:0|0:0,0:0:0:0:
268,108,181774,6,0,L|164:104,1,87.5,2|0,0:0|0:0,0:0:0:0:
76,100,182120,1,10,0:0:0:0:
124,196,182294,1,0,0:0:0:0:
124,196,182381,1,8,0:0:0:0:
124,196,182467,2,0,P|124:248|152:312,1,87.5,8|0,0:0|0:0,0:0:0:0:
168,348,182727,1,8,0:0:0:0:
168,348,182814,2,0,L|280:352,1,87.5,8|0,0:0|0:0,0:0:0:0:
360,348,183161,5,2,0:0:0:0:
424,268,183334,1,0,0:0:0:0:
336,208,183508,2,0,P|284:200|216:204,1,87.5,8|0,0:0|0:0,0:0:0:0:
249,200,183768,1,8,0:0:0:0:
249,200,183855,1,10,0:0:0:0:
144,276,184028,1,0,0:0:0:0:
144,276,184115,1,8,0:0:0:0:
144,276,184201,2,0,P|92:284|24:280,1,87.5,8|0,0:0|0:0,0:0:0:0:
8,192,184548,5,2,0:0:0:0:
57,283,184722,1,0,0:0:0:0:
84,184,184895,2,0,P|72:120|84:64,1,87.5,10|0,0:0|0:0,0:0:0:0:
74,98,185155,1,8,0:0:0:0:
74,98,185242,1,10,0:0:0:0:
192,40,185415,1,0,0:0:0:0:
192,40,185502,1,8,0:0:0:0:
192,40,185589,2,0,P|204:104|192:160,1,87.5,8|0,0:0|0:0,0:0:0:0:
189,267,185935,5,2,0:0:0:0:
28,319,186109,1,0,0:0:0:0:
128,182,186282,1,10,0:0:0:0:
128,352,186456,1,0,0:0:0:0:
128,352,186542,1,8,0:0:0:0:
128,352,186629,1,10,0:0:0:0:
28,214,186803,1,8,0:0:0:0:
28,214,186889,1,8,0:0:0:0:
28,214,186976,1,10,0:0:0:0:
184,208,187149,1,0,0:0:0:0:
80,96,187323,5,2,0:0:0:0:
196,104,187496,1,0,0:0:0:0:
184,208,187670,2,0,P|188:272|216:316,1,87.5,10|8,0:0|0:0,0:0:0:0:
208,312,187930,1,0,0:0:0:0:
220,332,188016,1,8,0:0:0:0:
352,332,188190,1,0,0:0:0:0:
356,312,188276,1,8,0:0:0:0:
360,292,188362,1,8,0:0:0:0:
392,128,188537,1,0,0:0:0:0:
392,128,188710,6,0,L|284:128,1,87.5,2|0,0:0|0:0,0:0:0:0:
199,128,189057,1,8,0:0:0:0:
260,212,189230,1,0,0:0:0:0:
260,212,189317,1,8,0:0:0:0:
260,212,189404,2,0,L|364:212,1,87.5,10|0,0:0|0:0,0:0:0:0:
408,176,189664,1,0,0:0:0:0:
408,176,189750,2,0,P|420:216|396:264,1,87.5,8|0,0:0|0:0,0:0:0:0:
304,288,190097,6,0,L|176:292,1,87.5,2|0,0:0|0:0,0:0:0:0:
112,292,190444,1,8,0:0:0:0:
160,196,190618,1,0,0:0:0:0:
160,196,190704,1,8,0:0:0:0:
160,196,190791,2,0,L|156:68,1,87.5,8|0,0:0|0:0,0:0:0:0:
104,60,191051,1,8,0:0:0:0:
104,60,191138,2,0,P|152:36|204:56,1,87.5,10|0,0:0|0:0,0:0:0:0:
256,116,191485,6,0,P|292:138|334:131,1,87.5,2|0,0:0|0:0,0:0:0:0:
428,80,191831,1,8,0:0:0:0:
428,184,192005,1,0,0:0:0:0:
428,184,192092,1,8,0:0:0:0:
428,184,192178,2,0,L|420:276,1,87.5,10|0,0:0|0:0,0:0:0:0:
404,344,192438,1,8,0:0:0:0:
404,344,192525,2,0,P|360:332|300:344,1,87.5,8|0,0:0|0:0,0:0:0:0:
224,300,192872,6,0,L|220:176,1,87.5,2|0,0:0|0:0,0:0:0:0:
216,80,193219,1,10,0:0:0:0:
332,16,193392,1,0,0:0:0:0:
332,16,193479,1,8,0:0:0:0:
332,16,193566,2,0,L|336:140,1,87.5,8|0,0:0|0:0,0:0:0:0:
344,176,193826,1,8,0:0:0:0:
344,176,193912,2,0,P|384:172|460:180,1,87.5,8|0,0:0|0:0,0:0:0:0:
484,260,194259,5,2,0:0:0:0:
420,332,194433,1,0,0:0:0:0:
372,208,194606,2,0,P|324:204|264:212,1,87.5,8|0,0:0|0:0,0:0:0:0:
212,224,194866,1,8,0:0:0:0:
212,224,194953,1,10,0:0:0:0:
100,292,195126,1,0,0:0:0:0:
104,304,195213,1,8,0:0:0:0:
108,316,195300,2,0,P|60:320|0:312,1,87.5,8|0,0:0|0:0,0:0:0:0:
4,180,195646,5,2,0:0:0:0:
32,80,195820,1,0,0:0:0:0:
112,148,195993,2,0,L|216:156,1,87.5,10|0,0:0|0:0,0:0:0:0:
264,116,196253,1,0,0:0:0:0:
264,116,196340,1,2,0:0:0:0:
324,232,196513,1,0,0:0:0:0:
320,244,196600,1,0,0:0:0:0:
316,256,196687,2,0,P|252:256|228:249,1,87.5,8|0,0:0|0:0,0:0:0:0:
108,200,197034,5,2,0:0:0:0:
8,337,197208,1,0,0:0:0:0:
169,284,197381,1,10,0:0:0:0:
8,232,197554,1,0,0:0:0:0:
8,232,197641,1,0,0:0:0:0:
8,232,197727,1,2,0:0:0:0:
108,369,197901,1,0,0:0:0:0:
108,369,197987,1,8,0:0:0:0:
108,369,198074,2,0,P|176:381|224:365,1,87.5,10|0,0:0|0:0,0:0:0:0:
344,336,198421,5,10,0:0:0:0:
336,204,198594,1,0,0:0:0:0:
332,184,198681,1,0,0:0:0:0:
328,164,198768,1,10,0:0:0:0:
228,80,198941,1,0,0:0:0:0:
336,16,199115,1,8,0:0:0:0:
252,160,199288,1,0,0:0:0:0:
252,160,199375,1,8,0:0:0:0:
252,160,199461,2,0,L|164:164,1,70,8|8,0:0|0:0,0:0:0:0:
72,160,199808,6,0,P|68:204|76:232,1,70,6|2,0:3|0:0,0:0:0:0:
164,280,200502,2,0,P|168:236|160:208,1,70,10|2,0:0|0:0,0:0:0:0:
140,108,201196,2,0,P|200:116|272:84,1,140,2|8,0:0|0:0,0:0:0:0:
268,188,202236,1,2,0:0:0:0:
312,284,202583,6,0,L|396:284,1,70,2|2,0:0|0:0,0:0:0:0:
429,190,203276,2,0,L|345:190,1,70,10|2,0:0|0:0,0:0:0:0:
476,128,203970,2,0,P|500:156|504:204,1,70,2|2,0:0|0:0,0:0:0:0:
476,292,204664,1,8,0:0:0:0:
276,320,205357,5,2,0:0:0:0:
172,312,205704,1,2,0:0:0:0:
276,304,206051,1,10,0:0:0:0:
172,296,206398,1,2,0:0:0:0:
276,280,206745,1,2,0:0:0:0:
160,264,207092,1,2,0:0:0:0:
280,252,207438,1,10,0:0:0:0:
156,100,208132,6,0,L|152:24,2,70,2|2|10,0:0|0:0|0:0,0:0:0:0:
160,204,209172,1,2,0:0:0:0:
164,308,209519,2,0,B|196:316|248:312,1,70,2|2,0:0|0:0,0:0:0:0:
316,248,210213,6,0,L|308:312,2,52.5,0|0|0,1:0|1:0|1:0,1:0:0:0:
324,196,210907,6,0,P|288:176|248:180,1,70,2|2,0:0|0:0,0:0:0:0:
172,236,211600,2,0,P|136:256|96:252,1,70,10|2,0:0|0:0,0:0:0:0:
8,228,212294,2,0,L|0:84,1,140,2|8,0:0|0:0,0:0:0:0:
100,60,213334,1,2,0:0:0:0:
160,148,213681,6,0,P|192:160|232:148,1,70,2|2,0:0|0:0,0:0:0:0:
200,20,214375,2,0,P|188:52|200:92,1,70,10|2,0:0|0:0,0:0:0:0:
240,184,215068,1,2,0:0:0:0:
316,256,215415,1,2,0:0:0:0:
248,344,215762,2,0,L|168:344,1,70,8|0,0:0|0:0,0:0:0:0:
88,292,216456,5,2,0:0:0:0:
140,200,216803,1,2,0:0:0:0:
108,100,217149,2,0,P|148:92|184:104,2,70,10|2|2,0:0|0:0|0:0,0:0:0:0:
140,200,218190,1,2,0:0:0:0:
88,292,218537,1,10,0:0:0:0:
288,364,219230,5,2,0:0:0:0:
348,276,219577,1,2,0:0:0:0:
288,188,219924,1,10,0:0:0:0:
348,100,220271,1,2,0:0:0:0:
280,20,220618,2,0,P|248:32|208:32,1,70,0|2,0:0|0:0,0:0:0:0:
284,118,221311,2,0,L|288:194,1,70,8|0,3:2|3:2,3:2:0:0:
428,188,222005,6,0,P|436:228|432:264,1,70,2|2,0:0|0:0,0:0:0:0:
344,308,222698,2,0,P|336:268|340:232,1,70,10|2,0:0|0:0,0:0:0:0:
364,136,223392,2,0,L|212:140,1,140,2|8,0:0|0:0,0:0:0:0:
120,144,224433,1,2,0:0:0:0:
192,220,224779,6,0,L|188:304,1,70,2|2,0:0|0:0,0:0:0:0:
284,244,225473,2,0,L|288:160,1,70,10|2,0:0|0:0,0:0:0:0:
336,304,226167,2,0,P|304:320|264:320,1,70,2|2,0:0|0:0,0:0:0:0:
168,308,226860,1,8,0:0:0:0:
248,72,227554,5,2,0:0:0:0:
304,160,227901,1,2,0:0:0:0:
200,160,228248,2,0,L|136:124,1,70,10|2,0:0|0:0,0:0:0:0:
52,68,228941,1,2,0:0:0:0:
52,172,229288,1,2,0:0:0:0:
138,125,229635,1,10,0:0:0:0:
340,60,230329,6,0,L|344:136,1,70,2|2,0:0|0:0,0:0:0:0:
268,204,231022,2,0,L|264:128,1,70,10|2,0:0|0:0,0:0:0:0:
180,76,231716,2,0,L|184:152,1,70,2|2,0:0|0:0,0:0:0:0:
183,145,232409,1,8,0:0:0:0:
320,304,233103,6,0,P|364:308|400:300,1,70,2|2,0:0|0:0,0:0:0:0:
468,232,233797,2,0,P|472:188|464:152,1,70,10|2,0:0|0:0,0:0:0:0:
372,208,234490,2,0,L|368:348,1,140,2|8,0:0|0:0,0:0:0:0:
460,296,235531,1,2,0:0:0:0:
436,180,235878,6,0,P|400:144|372:136,1,70,2|2,0:0|0:0,0:0:0:0:
280,108,236571,1,10,0:0:0:0:
356,36,236918,1,2,0:0:0:0:
382,137,237265,2,0,L|378:221,1,70,2|2,0:0|0:0,0:0:0:0:
378,206,237959,1,8,0:0:0:0:
204,324,238652,5,2,0:0:0:0:
204,324,238999,1,2,0:0:0:0:
204,218,239346,1,10,0:0:0:0:
204,218,239693,1,2,0:0:0:0:
168,120,240040,2,0,P|204:116|240:120,2,70,2|2|8,0:0|0:0|0:0,0:0:0:0:
372,172,241427,5,2,0:0:0:0:
297,246,241774,1,2,0:0:0:0:
223,172,242120,1,10,0:0:0:0:
298,97,242467,1,2,0:0:0:0:
372,172,242814,1,2,0:0:0:0:
223,172,243161,1,2,0:0:0:0:
256,192,243248,12,0,244028,0:0:0:0:
104,168,244201,6,0,L|116:332,1,131.25,12|0,0:0|0:0,0:0:0:0:
188,344,244548,2,0,L|176:180,1,131.25,12|0,0:0|0:0,0:0:0:0:
244,156,244895,2,0,L|256:320,1,131.25,12|0,0:0|0:0,0:0:0:0:
328,336,245242,2,0,L|322:249,1,87.5,10|0,0:0|0:0,0:0:0:0:
312,80,245589,6,0,L|144:72,1,131.25,4|0,0:0|0:0,0:0:0:0:
124,160,245935,2,0,L|167:163,1,43.75,4|0,0:3|0:0,0:0:0:0:
108,72,246109,2,0,L|56:72,1,43.75,4|0,0:3|0:0,0:0:0:0:
124,160,246282,2,2,P|120:216|36:252,1,131.25
48,296,246629,2,0,L|144:292,1,87.5,8|0,0:0|0:0,0:0:0:0:
268,184,246976,6,0,L|244:52,1,131.25,12|0,0:0|0:0,0:0:0:0:
164,16,247323,2,0,L|188:148,1,131.25,12|0,0:0|0:0,0:0:0:0:
128,208,247670,2,0,L|104:76,1,131.25,12|0,0:0|0:0,0:0:0:0:
28,40,248016,2,2,L|44:130,1,87.5,10|0,0:0|0:0,0:0:0:0:
88,308,248363,6,0,P|148:344|236:336,1,131.25,4|0,0:0|0:0,0:0:0:0:
252,336,248710,2,0,L|324:336,1,43.75,4|0,0:3|0:0,0:0:0:0:
384,336,248883,2,0,L|427:336,1,43.75,4|0,0:3|0:0,0:0:0:0:
364,268,249057,2,2,P|384:192|360:108,1,131.25
352,104,249404,2,0,L|244:100,1,87.5,8|0,0:0|0:0,0:0:0:0:
132,95,249750,6,0,P|96:148|118:207,1,131.25,12|0,0:0|0:0,0:0:0:0:
280,152,250097,2,0,P|221:126|167:158,1,131.25,12|0,0:0|0:0,0:0:0:0:
172,296,250444,2,0,P|224:261|226:197,1,131.25,12|0,0:0|0:0,0:0:0:0:
104,128,250791,2,0,P|96:164|128:216,1,87.5,10|0,0:0|0:0,0:0:0:0:
188,44,251138,6,0,P|272:56|344:44,1,131.25,4|0,0:0|0:0,0:0:0:0:
360,44,251485,2,0,L|416:40,1,43.75,4|0,0:3|0:0,0:0:0:0:
352,124,251658,2,0,L|395:121,1,43.75,4|0,0:3|0:0,0:0:0:0:
480,116,251831,2,2,L|484:264,1,131.25
484,292,252178,2,0,P|432:276|368:300,1,87.5,8|0,0:0|0:0,0:0:0:0:
272,312,252525,6,0,L|112:316,1,131.25,4|0,0:0|0:0,0:0:0:0:
140,315,252872,1,8,0:0:0:0:
60,212,253045,1,0,0:0:0:0:
74,171,253131,1,0,0:0:0:0:
106,142,253219,6,2,L|237:138,1,131.25,6|0,0:0|0:0,0:0:0:0:
237,138,253566,1,8,0:0:0:0:
316,292,253912,6,2,L|172:300,1,131.25,6|0,0:0|0:0,0:0:0:0:
184,299,254259,1,8,0:0:0:0:
106,142,254606,6,2,L|266:135,1,131.25,6|0,0:0|0:0,0:0:0:0:
280,148,254953,2,0,P|268:196|280:256,1,87.5,8|0,0:0|0:0,0:0:0:0:
308,360,255300,6,0,P|392:348|448:296,1,131.25,12|0,0:0|0:0,0:0:0:0:
432,280,255646,2,0,L|428:148,1,131.25,12|0,0:0|0:0,0:0:0:0:
368,112,255993,2,0,P|448:80|492:120,1,131.25,12|0,0:0|0:0,0:0:0:0:
428,148,256340,2,0,L|420:0,1,131.25,10|0,0:0|0:0,0:0:0:0:
380,28,256687,6,0,P|328:52|240:48,1,131.25,4|0,0:0|0:0,0:0:0:0:
204,108,257034,2,0,P|200:140|204:176,1,43.75,4|0,0:3|0:0,0:0:0:0:
144,48,257207,2,0,P|148:16|144:-20,1,43.75,4|0,0:3|0:0,0:0:0:0:
100,120,257381,2,2,L|92:268,1,131.25
92,251,257727,1,8,0:0:0:0:
264,280,258074,6,0,P|308:248|420:240,1,131.25,12|0,0:0|0:0,0:0:0:0:
472,232,258421,2,0,P|496:168|472:76,1,131.25,12|0,0:0|0:0,0:0:0:0:
444,32,258768,2,0,P|376:40|300:28,1,131.25,12|0,0:0|0:0,0:0:0:0:
228,12,259115,2,0,L|232:108,1,87.5,10|0,0:0|0:0,0:0:0:0:
168,216,259461,6,0,P|220:256|288:228,1,131.25,4|0,0:0|0:0,0:0:0:0:
233,183,259808,2,0,L|245:127,1,43.75,4|0,0:3|0:0,0:0:0:0:
264,52,259982,2,0,L|276:-4,1,43.75,4|0,0:3|0:0,0:0:0:0:
320,100,260155,2,2,P|336:144|336:228,1,131.25
328,272,260502,2,0,L|432:268,1,87.5,8|0,0:0|0:0,0:0:0:0:
480,156,260849,6,0,P|444:80|384:76,1,131.25,12|0,0:0|0:0,0:0:0:0:
409,144,261196,2,0,P|360:168|352:252,1,131.25,12|0,0:0|0:0,0:0:0:0:
416,216,261542,2,0,P|400:284|332:308,1,131.25,12|0,0:0|0:0,0:0:0:0:
296,212,261889,2,0,P|312:144|296:108,1,87.5,10|0,0:0|0:0,0:0:0:0:
248,44,262236,6,0,L|96:48,1,131.25,4|0,0:0|0:0,0:0:0:0:
72,48,262583,2,0,L|12:48,1,43.75,4|0,0:3|0:0,0:0:0:0:
68,156,262756,2,0,L|128:156,1,43.75,4|0,0:3|0:0,0:0:0:0:
0,152,262930,2,2,P|32:188|36:280,1,131.25
32,312,263276,1,8,0:0:0:0:
332,216,263623,5,12,0:0:0:0:
256,192,263710,12,0,266051,0:0:0:0:
48,56,266398,6,0,P|48:140|84:200,1,131.25,4|0,0:0|0:0,0:0:0:0:
88,220,266745,2,0,L|176:224,1,87.5,10|2,0:0|0:0,0:0:0:0:
212,252,267005,1,0,0:0:0:0:
240,284,267092,1,0,0:0:0:0:
344,364,267265,1,0,0:0:0:0:
476,272,267438,2,0,P|492:232|492:168,1,87.5,10|0,0:0|0:0,0:0:0:0:
492,44,267785,5,0,0:0:0:0:
356,40,267959,1,0,0:0:0:0:
312,38,268045,1,0,0:0:0:0:
272,55,268132,2,0,L|268:148,1,87.5,10|2,0:2|0:2,0:0:0:0:
312,284,268479,2,2,P|284:332|216:284,1,131.25
221,311,268826,2,0,L|133:304,1,87.5,8|0,0:0|0:0,0:0:0:0:
12,184,269172,6,0,L|24:24,1,131.25,4|0,0:0|0:0,0:0:0:0:
60,32,269519,2,0,P|120:52|204:24,1,131.25,8|0,0:0|0:0,0:0:0:0:
224,56,269866,1,2,0:2:0:0:
250,90,269953,1,0,0:0:0:0:
288,111,270039,1,2,0:2:0:0:
331,114,270126,1,0,0:0:0:0:
376,108,270213,2,0,L|365:218,1,87.5,10|0,0:0|0:0,0:0:0:0:
260,328,270560,6,0,P|208:336|112:312,1,131.25
100,292,270907,2,0,L|96:220,1,43.75,12|0,0:3|0:0,0:0:0:0:
224,184,271080,2,0,L|226:227,1,43.75,4|0,0:3|0:0,0:0:0:0:
168,136,271253,2,2,B|208:144|236:136|236:136|264:124|328:136,1,131.25
332,164,271600,2,0,P|336:100|344:16,1,131.25,14|0,0:3|0:0,0:0:0:0:
384,16,271947,5,4,0:0:0:0:
456,200,272207,1,0,0:0:0:0:
432,236,272294,2,2,P|344:224|272:236,1,140,10|0,0:2|0:2,0:2:0:0:
252,240,272727,1,0,0:0:0:0:
211,254,272813,1,0,0:0:0:0:
167,254,272900,1,0,0:0:0:0:
126,240,272987,2,0,L|136:72,1,131.25,10|0,0:0|0:0,0:0:0:0:
120,68,273334,5,0,0:0:0:0:
244,28,273508,1,0,0:0:0:0:
287,28,273594,1,0,0:0:0:0:
331,28,273681,2,0,L|348:92,1,43.75,12|0,0:3|0:0,0:0:0:0:
380,200,273855,2,0,L|391:243,1,43.75,4|0,0:3|0:0,0:0:0:0:
296,184,274028,2,2,L|456:188,1,131.25
468,168,274375,1,8,0:0:0:0:
252,304,274722,5,4,0:0:0:0:
136,220,274895,1,0,0:0:0:0:
136,220,274982,1,0,0:0:0:0:
136,220,275068,1,10,0:0:0:0:
124,72,275242,2,0,L|120:28,1,43.75,4|0,0:3|0:0,0:0:0:0:
78,126,275415,2,2,P|126:142|194:74,1,131.25
216,68,275762,2,0,L|224:224,1,131.25,8|0,0:0|0:0,0:0:0:0:
240,240,276109,6,0,P|308:248|408:240,1,131.25,12|0,0:0|0:0,0:0:0:0:
464,152,276456,2,0,P|396:144|296:152,1,131.25,12|0,0:0|0:0,0:0:0:0:
208,188,276803,2,2,P|200:256|208:356,1,131.25,14|2,0:0|0:0,0:0:0:0:
216,360,277149,1,8,0:0:0:0:
128,264,277323,1,0,0:0:0:0:
184,144,277496,6,0,P|232:120|336:112,1,131.25,4|0,0:0|0:0,0:0:0:0:
352,120,277843,2,0,L|344:24,1,87.5,8|0,0:0|0:0,0:0:0:0:
420,148,278103,1,0,0:0:0:0:
420,148,278190,2,2,P|372:192|316:184,1,87.5,2|2,0:3|0:3,0:2:0:0:
212,240,278537,2,0,P|168:288|204:364,1,131.25,10|0,0:0|0:0,0:0:0:0:
224,352,278883,5,0,0:0:0:0:
340,292,279057,1,0,0:0:0:0:
340,292,279144,1,0,0:0:0:0:
340,292,279230,2,0,L|344:220,1,43.75,12|0,0:3|0:0,0:0:0:0:
440,224,279404,2,0,L|440:267,1,43.75,4|0,0:3|0:0,0:0:0:0:
420,148,279577,2,2,P|344:132|264:144,1,131.25
252,152,279924,1,8,0:0:0:0:
132,204,280097,1,0,0:0:0:0:
91,220,280183,1,0,0:0:0:0:
48,217,280271,6,0,L|40:72,1,131.25,4|0,0:0|0:0,0:0:0:0:
64,48,280618,2,0,P|104:56|172:36,1,87.5,8|0,0:0|0:0,0:0:0:0:
296,28,280964,2,2,B|316:32|332:24|332:24|340:40|340:40|376:28|428:40,1,131.25,2|0,3:2|3:3,3:2:0:0:
456,56,281311,2,0,P|444:120|456:212,1,131.25,10|0,0:0|0:0,0:0:0:0:
456,228,281658,5,0,0:0:0:0:
340,312,281831,1,0,0:0:0:0:
296,317,281917,1,0,0:0:0:0:
256,308,282005,2,0,L|248:244,1,43.75,12|0,0:3|0:0,0:0:0:0:
312,144,282178,2,0,L|320:208,1,43.75,4|0,0:3|0:0,0:0:0:0:
256,308,282352,2,2,P|196:320|96:308,1,131.25
84,304,282698,1,8,0:0:0:0:
36,180,282872,1,0,0:0:0:0:
34,136,282958,1,0,0:0:0:0:
32,92,283045,6,0,P|96:104|168:80,1,131.25,4|0,0:0|0:0,0:0:0:0:
184,52,283392,2,0,L|180:172,1,87.5,8|0,0:0|0:0,0:0:0:0:
148,284,283739,2,2,P|156:312|240:300,1,131.25,2|0,3:2|3:2,3:2:0:0:
264,268,284086,2,0,L|420:264,1,131.25,10|0,0:0|0:0,0:0:0:0:
424,232,284433,5,0,0:0:0:0:
392,92,284606,1,0,0:0:0:0:
392,92,284693,1,0,0:0:0:0:
392,92,284779,2,0,L|312:88,1,43.75,12|0,0:3|0:0,0:0:0:0:
240,148,284953,2,0,L|160:144,1,43.75,4|0,0:3|0:0,0:0:0:0:
276,80,285126,2,2,P|316:132|280:212,1,131.25
292,236,285473,1,8,0:0:0:0:
172,292,285646,1,0,0:0:0:0:
130,303,285732,1,0,0:0:0:0:
86,301,285820,6,0,P|96:224|80:164,1,131.25,4|0,0:0|0:0,0:0:0:0:
83,173,286167,1,8,0:0:0:0:
44,40,286340,1,0,0:0:0:0:
44,40,286427,1,0,0:0:0:0:
44,40,286513,6,0,L|176:40,1,131.25,6|0,0:0|0:0,0:0:0:0:
212,16,286860,1,8,0:0:0:0:
332,72,287034,5,0,0:0:0:0:
333,115,287120,1,0,0:0:0:0:
335,159,287207,1,6,0:0:0:0:
337,203,287294,1,0,0:0:0:0:
339,246,287380,1,0,0:0:0:0:
341,290,287467,1,0,0:0:0:0:
343,334,287554,2,0,L|284:336,1,43.75,8|0,0:0|0:0,0:0:0:0:
224,324,287727,5,0,0:0:0:0:
222,280,287813,1,0,0:0:0:0:
220,236,287901,1,6,0:0:0:0:
218,192,287987,1,0,0:0:0:0:
216,149,288073,1,0,0:0:0:0:
214,105,288160,1,0,0:0:0:0:
207,56,288248,2,0,L|128:56,1,43.75,8|0,0:0|0:0,0:0:0:0:
32,160,288594,6,0,P|44:224|28:328,1,131.25,4|0,0:0|0:0,0:0:0:0:
56,332,288941,6,2,L|252:324,1,183.750007009506,8|2,0:0|0:3,0:3:0:0:
280,304,289635,6,0,P|275:238|287:174,1,131.25,10|0,0:0|0:0,0:0:0:0:
272,132,289982,5,0,0:0:0:0:
152,60,290155,1,0,0:0:0:0:
110,46,290241,1,0,0:0:0:0:
67,52,290329,2,0,P|56:92|56:132,1,43.75,12|0,0:3|0:0,0:0:0:0:
52,184,290502,2,0,P|47:205|40:226,1,43.75,4|0,0:3|0:0,0:0:0:0:
124,196,290675,2,2,L|292:200,1,131.25
300,200,291022,2,0,B|280:268|304:352,1,131.25,8|0,0:0|0:0,0:0:0:0:
332,356,291369,5,4,0:0:0:0:
436,188,291629,1,0,0:0:0:0:
436,188,291716,2,0,L|432:72,1,87.5,8|0,0:0|0:0,0:0:0:0:
269,34,292063,2,0,P|241:30|189:42,1,43.75,4|4,0:3|0:3,0:0:0:0:
236,160,292236,2,0,P|240:136|240:100,1,43.75,4|4,0:3|0:3,0:0:0:0:
181,34,292409,2,0,B|137:22|101:30|121:38|85:46|29:30,1,131.25,10|0,0:0|0:0,0:0:0:0:
52,36,292756,5,0,0:0:0:0:
60,168,292930,1,0,0:0:0:0:
60,168,293016,1,0,0:0:0:0:
60,168,293103,2,0,L|64:228,1,43.75,12|0,0:3|0:0,0:0:0:0:
116,292,293276,2,0,L|112:352,1,43.75,4|0,0:3|0:0,0:0:0:0:
176,248,293450,2,2,P|244:256|324:240,1,131.25
348,236,293797,2,0,L|336:336,1,87.5,8|0,0:0|0:0,0:0:0:0:
420,208,294144,6,0,P|380:168|284:192,1,131.25,4|0,0:0|0:0,0:0:0:0:
272,192,294490,6,2,L|288:4,1,183.750007009506,2|2,3:0|3:0,3:0:0:0:
248,28,295184,6,0,P|192:56|116:36,1,131.25,10|0,0:0|0:0,0:0:0:0:
88,20,295531,5,0,0:0:0:0:
40,144,295704,1,0,0:0:0:0:
41,187,295790,1,0,0:0:0:0:
43,231,295878,2,0,L|116:232,1,43.75,12|0,0:3|0:0,0:0:0:0:
116,336,296051,2,0,L|43:335,1,43.75,4|0,0:3|0:0,0:0:0:0:
192,316,296224,2,2,L|200:160,1,131.25
216,144,296571,1,8,0:0:0:0:
480,48,296918,6,0,P|472:132|488:200,1,131.25,4|0,0:0|0:0,0:0:0:0:
460,216,297265,2,0,L|468:324,1,87.5,8|0,0:0|0:0,0:0:0:0:
348,360,297612,6,2,L|336:208,1,131.25,6|2,0:0|0:0,0:0:0:0:
404,288,297959,2,0,P|348:320|268:284,1,131.25,8|0,0:0|0:0,0:0:0:0:
224,240,298305,6,2,L|213:109,1,131.25,6|2,0:0|0:0,0:0:0:0:
148,48,298652,2,0,B|48:40|48:40|72:85,1,131.25,8|0,0:0|0:0,0:0:0:0:
135,164,298999,6,2,P|167:100|131:32,1,131.25,6|2,0:0|0:0,0:0:0:0:
62,67,299346,1,8,0:0:0:0:
256,60,299693,6,0,L|264:184,1,87.5,4|0,0:0|0:0,0:0:0:0:
268,280,300040,2,0,P|300:284|348:280,1,43.75,12|0,0:3|0:0,0:0:0:0:
376,216,300213,2,0,P|344:212|296:216,1,43.75,4|0,0:3|0:0,0:0:0:0:
228,212,300386,1,2,0:0:0:0:
184,215,300472,1,0,0:0:0:0:
142,204,300560,1,0,0:0:0:0:
109,176,300646,1,2,0:0:0:0:
95,135,300733,2,0,P|92:208|72:256,1,87.5,10|2,0:2|0:0,0:0:0:0:
52,348,301080,6,0,L|172:352,1,87.5
263,323,301427,2,0,P|267:291|263:243,1,43.75,12|0,0:3|0:0,0:0:0:0:
228,212,301600,2,0,P|228:190|232:168,1,43.75,4|0,0:3|0:0,0:0:0:0:
244,80,301774,1,2,0:0:0:0:
285,93,301860,1,0,0:0:0:0:
329,93,301947,1,0,0:0:0:0:
370,81,302034,1,2,0:0:0:0:
407,57,302120,2,0,L|428:84,6,21.875,8|0|0|0|2|0|0,3:0|3:0|3:0|3:0|3:1|3:0|3:0,3:0:0:0:
456,4,302467,5,4,0:0:0:0:
376,252,302814,1,8,0:0:0:0:
244,316,302987,2,0,L|168:320,1,43.75,2|0,0:0|0:0,0:0:0:0:
112,248,303161,2,0,L|188:244,1,43.75
236,240,303334,1,0,0:0:0:0:
321,147,303508,2,0,L|149:135,1,131.25,10|0,0:0|0:0,0:0:0:0:
145,135,303855,5,0,0:0:0:0:
103,143,303941,1,0,0:0:0:0:
77,177,304028,1,0,0:0:0:0:
80,219,304115,1,0,0:0:0:0:
112,248,304201,1,8,0:0:0:0:
216,156,304375,1,0,0:0:0:0:
217,112,304461,1,0,0:0:0:0:
194,76,304548,1,0,0:0:0:0:
154,60,304635,1,8,0:0:0:0:
112,70,304721,1,8,0:0:0:0:
12,156,304895,1,8,0:0:0:0:
12,156,304982,2,0,L|12:248,1,87.5,8|0,0:0|0:0,0:0:0:0:
32,284,305242,6,0,P|96:272|152:288,1,87.5,4|0,0:0|0:0,0:0:0:0:
244,312,305589,2,0,L|260:240,1,43.75,12|0,0:3|0:0,0:0:0:0:
284,144,305762,2,0,L|268:216,1,43.75,4|0,0:3|0:0,0:0:0:0:
236,84,305935,1,2,0:0:0:0:
276,68,306021,1,0,0:0:0:0:
318,76,306108,1,0,0:0:0:0:
349,106,306195,1,2,0:0:0:0:
360,148,306282,2,0,P|336:204|284:212,1,87.5,10|2,0:2|0:0,0:0:0:0:
188,252,306629,6,0,P|152:275|142:317,1,87.5
152,188,306976,2,0,L|164:124,1,43.75,12|0,0:3|0:0,0:0:0:0:
256,40,307149,2,0,L|244:104,1,43.75,4|0,0:3|0:0,0:0:0:0:
228,192,307323,1,2,0:0:0:0:
271,196,307409,1,0,0:0:0:0:
314,201,307496,1,0,0:0:0:0:
358,206,307583,1,2,0:0:0:0:
401,211,307670,2,0,L|400:248,6,21.875,8|0|0|0|2|0|0,3:0|3:0|3:0|3:0|3:1|3:0|3:0,3:0:0:0:
476,202,308016,6,0,L|476:54,1,131.25,4|0,0:0|0:0,0:0:0:0:
436,54,308363,2,2,B|412:58|388:50|388:50|384:66|384:66|344:50|292:62,1,131.25,10|0,0:0|0:0,0:0:0:0:
280,78,308710,2,0,P|288:142|256:234,1,131.25,8|0,0:0|0:0,0:0:0:0:
236,234,309057,2,2,B|208:230|208:230|184:238|184:238|148:218|104:242,1,131.25,10|0,0:0|0:0,0:0:0:0:
68,250,309404,5,0,0:0:0:0:
66,206,309490,1,0,0:0:0:0:
64,162,309577,1,0,0:0:0:0:
62,118,309664,1,0,0:0:0:0:
61,75,309750,2,2,B|80:78|96:66|96:66|108:86|108:86|136:62|184:74,1,131.25,10|0,0:0|0:0,0:0:0:0:
208,102,310097,2,0,L|340:90,1,131.25
392,14,310444,1,8,3:1:0:0:
429,61,310530,1,8,3:0:0:0:
429,121,310617,1,8,3:0:0:0:
392,168,310704,1,8,3:0:0:0:
332,182,310791,6,0,P|364:194|408:250,1,87.5,12|0,3:1|0:0,0:0:0:0:
420,371,311138,2,0,L|432:307,1,43.75,12|0,0:3|0:0,0:0:0:0:
498,276,311311,2,0,L|507:233,1,43.75,4|0,0:3|0:0,0:0:0:0:
504,151,311485,1,2,0:0:0:0:
465,131,311571,1,0,0:0:0:0:
423,138,311658,1,0,0:0:0:0:
392,168,311745,1,2,0:0:0:0:
385,210,311831,2,0,P|339:202|279:214,1,87.5,10|2,0:2|0:0,0:0:0:0:
164,236,312178,6,0,L|156:124,1,87.5
284,180,312525,2,0,L|296:104,1,43.75,12|0,0:3|0:0,0:0:0:0:
224,72,312698,2,0,L|217:28,1,43.75,4|0,0:3|0:0,0:0:0:0:
348,60,312872,1,2,0:0:0:0:
354,103,312958,1,0,0:0:0:0:
360,146,313045,1,0,0:0:0:0:
361,190,313132,1,2,0:0:0:0:
368,232,313219,2,0,L|392:231,6,21.875,8|0|0|0|2|0|0,3:0|3:0|3:0|3:0|3:1|3:0|3:0,3:0:0:0:
372,312,313566,6,0,L|256:312,1,87.5,4|0,0:0|0:0,0:0:0:0:
141,312,313912,1,8,0:0:0:0:
48,220,314086,1,2,0:0:0:0:
26,182,314172,1,0,0:0:0:0:
25,139,314259,1,0,0:0:0:0:
45,101,314346,1,0,0:0:0:0:
81,77,314432,1,0,0:0:0:0:
208,108,314606,1,10,0:0:0:0:
181,135,314693,2,0,P|144:156|84:148,1,87.5
116,196,314953,5,0,0:0:0:0:
127,238,315039,1,0,0:0:0:0:
125,281,315126,1,0,0:0:0:0:
110,322,315213,1,0,0:0:0:0:
82,356,315299,1,8,0:0:0:0:
200,296,315473,1,0,0:0:0:0:
242,304,315559,1,8,0:0:0:0:
283,290,315646,1,0,0:0:0:0:
309,256,315733,1,8,0:0:0:0:
321,214,315819,1,8,0:0:0:0:
324,172,315906,1,0,0:0:0:0:
324,128,315993,2,8,L|320:60,1,43.75
476,208,316340,6,0,L|488:108,1,87.5,4|0,0:0|0:0,0:0:0:0:
416,252,316687,2,0,P|440:272|484:284,1,43.75,12|0,0:3|0:0,0:0:0:0:
480,384,316860,2,0,P|456:364|412:352,1,43.75,4|0,0:3|0:0,0:0:0:0:
344,308,317034,1,2,0:0:0:0:
300,308,317120,1,0,0:0:0:0:
256,308,317207,1,0,0:0:0:0:
212,308,317294,1,2,0:0:0:0:
168,308,317381,2,0,P|176:272|128:200,1,87.5,10|2,0:2|0:0,0:0:0:0:
264,180,317727,6,0,L|256:68,1,87.5,4|0,0:0|0:0,0:0:0:0:
372,28,318074,2,0,L|376:80,1,43.75,12|0,0:3|0:0,0:0:0:0:
292,96,318248,2,0,L|288:44,1,43.75,4|0,0:3|0:0,0:0:0:0:
384,20,318421,1,2,0:0:0:0:
387,63,318507,1,0,0:0:0:0:
390,107,318594,1,0,0:0:0:0:
394,150,318681,1,2,0:0:0:0:
397,194,318768,2,0,B|403:212|403:212|400:228|400:228|404:244|404:244|400:272|400:272|404:288,1,87.5,8|2,0:0|0:0,0:0:0:0:
272,300,319115,5,4,0:0:0:0:
44,168,319461,1,8,0:0:0:0:
40,148,319548,1,8,0:0:0:0:
208,92,319722,1,8,0:0:0:0:
196,72,319808,1,6,0:0:0:0:
239,68,319894,1,0,0:0:0:0:
283,64,319981,1,0,0:0:0:0:
326,60,320068,1,0,0:0:0:0:
370,56,320155,2,0,L|436:56,1,43.75,8|0,0:0|0:0,0:0:0:0:
356,328,320502,6,2,L|212:328,1,131.25,6|8,0:0|0:0,0:0:0:0:
224,328,320849,1,8,0:0:0:0:
48,236,321109,1,8,0:0:0:0:
28,248,321196,1,6,0:0:0:0:
24,205,321282,1,0,0:0:0:0:
20,161,321369,1,0,0:0:0:0:
16,118,321456,1,0,0:0:0:0:
12,74,321543,2,0,L|12:8,1,43.75,8|0,0:0|0:0,0:0:0:0:
212,32,321803,1,8,3:0:0:0:
228,48,321889,6,0,L|308:44,1,78.7500030040742,12|0,1:3|0:0,0:0:0:0:
380,44,322236,1,10,0:0:0:0:
385,65,322322,1,0,0:0:0:0:
468,160,322496,1,10,0:0:0:0:
462,181,322582,1,0,0:0:0:0:
356,260,322756,1,10,0:0:0:0:
362,281,322842,1,0,0:0:0:0:
480,344,323016,1,10,0:0:0:0:
474,365,323102,1,0,0:0:0:0:
344,368,323276,6,0,L|192:356,1,131.25,4|0,0:0|0:0,0:0:0:0:
156,316,323623,1,10,0:0:0:0:
147,284,323709,1,2,0:2:0:0:
28,224,323883,1,10,0:0:0:0:
59,215,323969,1,2,0:2:0:0:
88,88,324144,1,10,0:0:0:0:
97,119,324230,1,2,0:2:0:0:
220,168,324404,1,10,0:0:0:0:
189,177,324490,1,2,0:2:0:0:
59,215,324664,6,0,L|48:80,1,131.25,4|0,0:0|0:0,0:0:0:0:
48,84,325011,1,8,0:0:0:0:
192,40,325184,1,0,0:0:0:0:
232,24,325270,1,0,0:0:0:0:
275,29,325357,1,0,0:0:0:0:
309,55,325444,1,0,0:0:0:0:
329,94,325530,1,0,0:0:0:0:
360,64,325617,1,0,0:0:0:0:
402,58,325704,2,0,L|396:220,1,131.25,8|0,0:0|0:0,0:0:0:0:
364,216,326051,6,0,L|202:210,1,131.25
183,164,326398,2,0,P|163:208|187:260,1,87.5,8|0,0:0|0:0,0:0:0:0:
144,280,326658,1,8,0:0:0:0:
40,200,326831,1,8,0:0:0:0:
36,178,326917,1,8,0:0:0:0:
140,92,327092,1,8,0:0:0:0:
143,70,327178,2,0,P|192:88|256:64,1,87.5,8|0,0:0|0:0,0:0:0:0:
256,116,327438,6,0,L|368:120,1,87.5,4|0,0:0|0:0,0:0:0:0:
476,124,327785,1,10,0:0:0:0:
474,145,327871,1,0,0:0:0:0:
396,252,328045,1,10,0:0:0:0:
397,230,328131,1,0,0:0:0:0:
320,124,328305,1,10,0:0:0:0:
319,146,328391,1,0,0:0:0:0:
240,252,328566,1,10,0:0:0:0:
241,230,328652,1,0,0:0:0:0:
152,124,328826,6,0,B|152:236,1,87.5,4|0,0:0|0:0,0:0:0:0:
152,342,329172,1,10,0:0:0:0:
184,336,329259,1,2,0:2:0:0:
274,225,329433,1,10,0:0:0:0:
241,230,329519,1,2,0:2:0:0:
140,328,329693,1,10,0:0:0:0:
172,330,329780,1,2,0:2:0:0:
282,245,329954,1,10,0:0:0:0:
249,241,330041,1,2,0:2:0:0:
112,200,330213,6,0,L|124:28,1,131.25,4|0,0:0|0:0,0:0:0:0:
121,69,330560,1,8,0:0:0:0:
248,40,330733,1,0,0:0:0:0:
291,33,330819,1,0,0:0:0:0:
334,37,330906,1,0,0:0:0:0:
375,53,330993,1,0,0:0:0:0:
417,61,331079,1,0,0:0:0:0:
460,54,331166,1,0,0:0:0:0:
498,33,331253,2,0,L|492:136,1,87.5,8|0,0:0|0:0,0:0:0:0:
500,168,331513,1,0,0:0:0:0:
500,215,331600,5,0,0:0:0:0:
469,250,331686,1,0,0:0:0:0:
423,256,331773,1,0,0:0:0:0:
384,230,331859,1,0,0:0:0:0:
360,188,331947,2,0,L|353:290,1,87.5,8|0,0:0|0:0,0:0:0:0:
304,256,332207,1,0,0:0:0:0:
254,239,332293,1,0,0:0:0:0:
202,231,332380,1,0,0:0:0:0:
150,234,332467,1,0,0:0:0:0:
99,247,332553,1,0,0:0:0:0:
51,268,332641,6,4,L|56:212,1,43.75,4|4,0:3|0:3,0:3:0:0:
8,340,332814,6,2,L|29:140,1,175,2|2,3:2|3:2,3:2:0:0:
84,80,333334,6,0,L|156:72,1,43.75,10|0,0:0|0:0,0:0:0:0:
134,258,333594,2,0,L|62:266,1,43.75,10|0,0:0|0:0,0:0:0:0:
120,88,333855,2,0,L|191:98,1,43.75,10|0,0:0|0:0,0:0:0:0:
94,274,334115,2,0,L|22:263,1,43.75,10|0,0:0|0:0,0:0:0:0:
179,144,334375,6,0,P|185:102|165:64,1,87.5,4|0,0:0|0:0,0:0:0:0:
152,304,334722,2,0,L|56:288,1,87.5,6|8,1:3|1:0,1:3:0:0:
164,232,334982,2,0,L|179:145,1,87.5,6|8,1:3|1:0,1:3:0:0:
241,216,335242,2,0,L|334:235,1,87.5,6|8,1:3|1:0,1:3:0:0:
228,284,335502,2,0,L|211:369,1,87.5,6|8,1:3|1:0,1:3:0:0:
152,304,335762,5,4,0:0:0:0:
112,20,336109,1,8,0:0:0:0:
240,44,336282,1,0,0:0:0:0:
282,55,336368,1,0,0:0:0:0:
325,55,336455,1,0,0:0:0:0:
367,42,336542,1,0,0:0:0:0:
397,66,336629,2,0,L|392:168,1,87.5,0|8,0:0|0:0,0:0:0:0:
356,176,336889,2,0,P|328:144|260:144,1,87.5
160,144,337149,5,8,3:1:0:0:
116,146,337235,1,0,3:0:0:0:
76,163,337323,2,0,L|40:196,1,43.75,0|0,3:0|3:0,3:0:0:0:
200,196,337496,5,8,3:1:0:0:
156,186,337582,1,0,3:0:0:0:
113,192,337670,2,0,L|69:214,1,43.75,0|0,3:0|3:0,3:0:0:0:
228,256,337843,5,8,3:1:0:0:
188,234,337929,1,0,3:0:0:0:
144,229,338017,2,0,L|96:239,1,43.75,0|0,3:0|3:0,3:0:0:0:
248,308,338190,5,8,3:1:0:0:
304,172,338363,1,2,3:2:0:0:
288,120,338449,1,2,3:2:0:0:
248,80,338536,1,2,3:2:0:0:
196,60,338623,1,2,3:2:0:0:
140,56,338709,1,2,3:2:0:0:
84,72,338796,1,2,3:2:0:0:
56,120,338883,6,0,L|81:155,1,43.75,10|0,0:0|0:0,0:0:0:0:
232,160,339144,2,0,L|206:124,1,43.75,10|0,0:0|0:0,0:0:0:0:
180,272,339404,2,0,L|205:307,1,43.75,10|0,0:0|0:0,0:0:0:0:
352,332,339664,2,0,L|326:296,1,43.75,10|0,0:0|0:0,0:0:0:0:
434,343,339924,6,0,B|428:312|440:292|440:292|436:276|436:276|456:236|436:192,1,131.25,4|0,0:0|0:0,0:0:0:0:
412,148,340271,2,0,L|328:160,1,43.75,10|2,0:0|0:2,0:0:0:0:
384,24,340531,2,0,L|305:57,1,43.75,10|2,0:0|0:2,0:0:0:0:
249,208,340791,2,0,L|289:190,1,43.75,10|2,0:0|0:2,0:0:0:0:
220,88,341051,2,0,L|263:81,1,43.75,10|2,0:0|0:2,0:0:0:0:
412,148,341311,6,0,B|392:136|364:72|364:72|362:133|346:173|346:173|320:132|320:132|266:133|222:181|222:181|270:101|250:69|194:57|166:69|178:125|178:125|218:117,1,587.999982055665,4|0,0:0|0:0,0:0:0:0:
256,192,344086,5,4,0:0:0:0:
