osu file format v14

[General]
AudioFilename: audio.mp3
AudioLeadIn: 0
PreviewTime: 63387
Countdown: 0
SampleSet: Normal
StackLeniency: 0.2
Mode: 0
LetterboxInBreaks: 0
WidescreenStoryboard: 0

[Editor]
DistanceSpacing: 0.7
BeatDivisor: 6
GridSize: 32
TimelineZoom: 2.799999

[Metadata]
Title:Redstar
TitleUnicode:Redstar
Artist:Receptor
ArtistUnicode:Receptor
Creator:Raikozen
Version:REALITY ECLIPSE
Source:
Tags:dnb drum & bass and n' neurofunk experimental lynx
BeatmapID:2084661
BeatmapSetID:996649

[Difficulty]
HPDrainRate:5
CircleSize:4.1
OverallDifficulty:8.3
ApproachRate:9.5
SliderMultiplier:3.1
SliderTickRate:1

[Events]
//Background and Video events
0,0,"xxxxxxxxxxxx.jpg",0,0
//Break Periods
2,151924,153958
//Storyboard Layer 0 (Background)
//Storyboard Layer 1 (Fail)
//Storyboard Layer 2 (Pass)
//Storyboard Layer 3 (Foreground)
//Storyboard Sound Samples

[TimingPoints]
19311,344.827586206897,4,2,2,55,1,0
19311,-200,4,2,2,55,0,0
20345,-100,4,2,2,55,0,0
20690,-125,4,2,2,55,0,0
21035,-166.666666666667,4,2,2,55,0,0
21379,-200,4,2,2,55,0,0
22069,-117.647058823529,4,2,2,55,0,0
22759,-181.818181818181,4,2,2,55,0,0
23104,-105.263157894737,4,2,2,55,0,0
23448,-117.647058823529,4,2,2,55,0,0
24397,-117.647058823529,4,2,2,5,0,0
24483,-181.818181818181,4,2,2,55,0,0
24828,-153.846153846153,4,2,2,55,0,0
25862,-117.647058823529,4,2,2,55,0,0
26466,-117.647058823529,4,2,2,5,0,0
26552,-117.647058823529,4,2,2,55,0,0
26897,-181.818181818181,4,2,2,55,0,0
28621,-117.647058823529,4,2,2,55,0,0
28966,-153.846153846153,4,2,2,55,0,0
29655,-399.999999999997,4,2,2,55,0,0
30000,-153.846153846153,4,2,2,55,0,0
30604,-153.846153846153,4,2,2,5,0,0
30690,-153.846153846153,4,2,2,55,0,0
31379,-117.647058823529,4,2,2,55,0,0
31724,-133.333333333333,4,2,2,55,0,0
32414,-153.846153846153,4,2,2,55,0,0
34138,-117.647058823529,4,2,2,55,0,0
34483,-153.846153846153,4,2,2,55,0,0
35000,-133.333333333333,4,2,2,55,0,0
36035,-153.846153846153,4,2,2,55,0,0
36897,-117.647058823529,4,2,2,55,0,0
37931,-153.846153846153,4,2,2,55,0,0
38793,-133.333333333333,4,2,2,55,0,0
39052,-133.333333333333,4,2,2,5,0,0
39138,-133.333333333333,4,2,2,55,0,0
39311,-153.846153846153,4,2,2,55,0,0
39655,-117.647058823529,4,2,2,55,0,0
40431,-117.647058823529,4,2,2,5,0,0
40517,-117.647058823529,4,2,2,55,0,0
40690,-100,4,2,2,55,0,0
40862,-500,4,2,2,55,0,0
41379,-100,4,2,2,55,0,0
42069,-166.666666666667,4,2,2,55,0,0
42414,-125,4,2,2,55,0,0
42759,-100,4,2,2,55,0,0
43017,-100,4,2,2,5,0,0
43104,-100,4,2,2,55,0,0
43793,-181.818181818181,4,2,2,55,0,0
44138,-105.263157894737,4,2,2,55,0,0
44397,-105.263157894737,4,2,2,5,0,0
44483,-153.846153846154,4,2,2,55,0,0
45517,-125,4,2,2,55,0,0
45776,-125,4,2,2,5,0,0
45862,-125,4,2,2,55,0,0
46897,-100,4,2,2,55,0,0
47586,-166.666666666667,4,2,2,55,0,0
47931,-125,4,2,2,55,0,0
48276,-111.111111111111,4,2,2,55,0,0
48535,-111.111111111111,4,2,2,5,0,0
48621,-111.111111111111,4,2,2,55,0,0
49311,-222.222222222222,4,2,2,55,0,0
49655,-83.3333333333333,4,2,2,55,0,0
50345,-125,4,2,2,55,0,0
50690,-111.111111111111,4,2,2,55,0,0
51293,-111.111111111111,4,2,2,5,0,0
51379,-111.111111111111,4,2,2,55,0,0
52069,-222.222222222222,4,2,2,55,0,0
52414,-222.222222222222,4,2,2,55,0,0
52673,-222.222222222222,4,2,2,5,0,0
52759,-222.222222222222,4,2,2,55,0,0
53793,-153.846153846154,4,2,2,55,0,0
54052,-153.846153846154,4,2,2,5,0,0
54138,-153.846153846154,4,2,2,55,0,0
55173,-117.647058823529,4,2,2,55,0,0
55431,-117.647058823529,4,2,2,5,0,0
55517,-117.647058823529,4,2,2,55,0,0
56552,-86.9565217391304,4,2,2,55,0,0
56811,-86.9565217391304,4,2,2,5,0,0
56897,-86.9565217391304,4,2,2,55,0,0
57931,-105.263157894737,4,2,2,55,0,0
58017,-105.263157894737,4,2,2,55,0,0
58621,-95.2380952380952,4,2,2,55,0,0
58707,-95.2380952380952,4,2,2,5,0,0
58793,-95.2380952380952,4,2,2,55,0,0
58879,-95.2380952380952,4,2,2,5,0,0
58966,-95.2380952380952,4,2,2,55,0,0
59828,-117.647058823529,4,2,2,55,0,0
60086,-117.647058823529,4,2,2,5,0,0
60173,-117.647058823529,4,2,2,55,0,0
60259,-117.647058823529,4,2,2,5,0,0
60345,-117.647058823529,4,2,2,55,0,0
60862,-83.3333333333333,4,2,2,55,0,0
61035,-105.263157894737,4,2,2,55,0,0
61207,-153.846153846154,4,2,2,55,0,0
61379,-222.222222222222,4,2,2,55,0,0
61552,-285.714285714286,4,2,2,55,0,0
61724,-400,4,2,2,55,0,0
62759,-100,4,2,2,55,0,0
62931,-76.9230769230769,4,2,2,55,0,0
63104,-100,4,2,11,55,0,0
63276,-100,4,2,10,55,0,0
63448,-66.6666666666667,4,1,1,65,0,1
63793,-50,4,1,1,65,0,1
63966,-333.333333333333,4,1,1,65,0,1
64138,-100,4,1,1,65,0,1
64483,-66.6666666666667,4,1,1,65,0,1
64828,-55.5555555555556,4,1,1,65,0,1
65345,-111.111111111111,4,1,1,65,0,1
65517,-83.3333333333333,4,1,1,65,0,1
65862,-83.3333333333333,4,1,1,65,0,1
66207,-62.5,4,1,1,65,0,1
66552,-45.4545454545455,4,1,1,65,0,1
66897,-166.666666666667,4,1,1,65,0,1
67069,-500.000000000003,4,1,1,65,0,1
67242,-100,4,1,1,65,0,1
67586,-66.6666666666667,4,1,1,65,0,1
69311,-52.6315789473684,4,1,1,65,0,1
69483,-500,4,1,1,65,0,1
69655,-100,4,1,1,65,0,1
70000,-66.6666666666667,4,1,1,65,0,1
70862,-100,4,1,1,65,0,1
71035,-66.6666666666667,4,1,1,65,0,1
71724,-58.8235294117647,4,1,1,65,0,1
72069,-62.5,4,1,1,65,0,1
72414,-100,4,1,1,65,0,1
73448,-66.6666666666667,4,1,1,65,0,1
74828,-50,4,1,1,65,0,1
75000,-500,4,1,1,65,0,1
75173,-100,4,1,1,65,0,1
75517,-66.6666666666667,4,1,1,65,0,1
76379,-100,4,1,1,65,0,1
76552,-66.6666666666667,4,1,1,65,0,1
77931,-100,4,1,1,65,0,1
78276,-100,4,1,1,65,0,1
78966,-66.6666666666667,4,1,1,65,0,1
79311,-500,4,1,1,65,0,1
79483,-66.6666666666667,4,1,1,65,0,1
79655,-83.3333333333333,4,1,1,65,0,1
80000,-55.5555555555556,4,1,1,65,0,1
80345,-43.4782608695652,4,1,1,65,0,1
80517,-500,4,1,1,65,0,1
80690,-100,4,1,1,65,0,1
81035,-66.6666666666667,4,1,1,65,0,1
81379,-55.5555555555556,4,1,1,65,0,1
81897,-76.9230769230769,4,1,1,65,0,1
82069,-500,4,1,1,65,0,1
82759,-58.8235294117647,4,1,1,65,0,1
83104,-66.6666666666667,4,1,1,65,0,1
83448,-500,4,1,1,65,0,1
83793,-66.6666666666667,4,1,1,65,0,1
84828,-100,4,1,1,65,0,1
85173,-151.515151515152,4,1,1,65,0,1
85517,-151.515151515152,4,1,1,55,0,0
85690,-151.515151515152,4,1,1,55,0,0
86552,-94.3396226415096,4,1,1,55,0,0
86897,-76.9230769230769,4,1,1,55,0,0
87242,-62.5,4,1,1,55,0,0
87586,-55.5555555555556,4,1,1,55,0,0
87931,-58.8235294117647,4,1,1,55,0,0
88966,-100,4,1,1,55,0,0
89655,-66.6666666666667,4,1,1,55,0,0
90173,-500,4,1,1,55,0,0
90345,-66.6666666666667,4,1,1,55,0,0
90690,-133.333333333333,4,1,1,55,0,0
91035,-66.6666666666667,4,1,1,55,0,0
92242,-66.6666666666667,4,1,1,55,0,0
92414,-66.6666666666667,4,1,1,55,0,0
93104,-71.4285714285714,4,1,1,55,0,0
93448,-58.8235294117647,4,1,1,55,0,0
94138,-71.4285714285714,4,1,1,55,0,0
94483,-62.5,4,1,1,55,0,0
94828,-76.923076923077,4,1,1,55,0,0
95086,-71.4285714285714,4,1,1,55,0,0
95862,-58.8235294117647,4,1,1,55,0,0
96207,-142.857142857143,4,1,1,55,0,0
96552,-1000,4,1,1,55,0,0
98104,-250,4,1,1,55,0,0
98276,-142.857142857143,4,1,1,55,0,0
98448,-90.9090909090909,4,1,1,55,0,0
98793,-142.857142857143,4,1,1,55,0,0
98966,-83.3333333333333,4,1,1,55,0,0
99483,-100,4,1,1,55,0,0
99655,-55.5555555555556,4,1,1,55,0,0
100000,-100,4,1,1,55,0,0
100345,-200,4,1,1,55,0,0
100690,-100,4,1,1,55,0,0
101035,-66.6666666666667,4,1,1,55,0,0
101379,-52.6315789473684,4,1,1,55,0,0
101724,-166.666666666667,4,1,1,55,0,0
102069,-62.5,4,1,1,55,0,0
102414,-66.6666666666667,4,1,1,55,0,0
102586,-166.666666666667,4,1,1,55,0,0
103104,-111.111111111111,4,1,1,55,0,0
103448,-142.857142857143,4,1,1,55,0,0
103793,-66.6666666666667,4,1,1,55,0,0
104138,-62.5,4,1,1,55,0,0
104483,-83.3333333333333,4,1,1,55,0,0
105345,-100,4,1,1,55,0,0
105517,-250,4,1,1,55,0,0
105862,-66.6666666666667,4,1,1,55,0,0
106207,-100,4,1,1,55,0,0
106552,-58.8235294117647,4,1,1,55,0,0
106897,-222.222222222221,4,1,1,55,0,0
107242,-71.4285714285714,4,1,1,55,0,0
107586,-66.6666666666667,4,1,1,55,0,0
108104,-133.333333333333,4,1,1,55,0,0
108621,-66.6666666666667,4,1,1,55,0,0
109138,-100,4,1,1,47,0,0
109655,-100,4,1,1,40,0,0
110345,-100,4,2,1,30,0,0
110517,-100,4,2,1,33,0,0
110690,-100,4,2,1,36,0,0
110862,-100,4,2,1,39,0,0
111035,-100,4,2,1,41,0,0
111207,-100,4,2,1,43,0,0
111379,-100,4,2,1,46,0,0
111552,-100,4,2,1,50,0,0
111724,-100,4,1,1,55,0,0
112414,-125,4,1,1,55,0,0
113448,-100,4,1,1,55,0,0
114483,-111.111111111111,4,1,1,55,0,0
115173,-142.857142857143,4,1,1,55,0,0
117242,-100,4,1,1,55,0,0
118276,-83.3333333333333,4,1,1,55,0,0
118621,-66.6666666666667,4,1,1,65,0,1
118966,-100,4,1,1,65,0,1
119138,-76.9230769230769,4,1,1,65,0,1
119311,-62.5,4,1,1,65,0,1
119655,-166.666666666667,4,1,1,65,0,1
119828,-66.6666666666667,4,1,1,65,0,1
120000,-66.6666666666667,4,1,1,65,0,1
121035,-66.6666666666667,4,1,1,65,0,1
121207,-55.5555555555556,4,1,1,65,0,1
121379,-100,4,1,1,55,0,0
121552,-200,4,1,1,55,0,0
121897,-500,4,1,1,55,0,0
122069,-90.9090909090909,4,1,1,55,0,0
122414,-125,4,1,1,55,0,0
124311,-500,4,1,1,55,0,0
124483,-100,4,1,1,55,0,0
124828,-83.3333333333333,4,1,1,55,0,0
125517,-125,4,1,1,55,0,0
125862,-181.818181818181,4,1,1,55,0,0
126552,-117.647058823529,4,1,1,55,0,0
127242,-666.666666666658,4,1,1,55,0,0
127586,-66.6666666666667,4,1,1,55,0,0
127931,-666.666666666658,4,1,1,55,0,0
128276,-100,4,1,1,55,0,0
129311,-100,4,1,1,55,0,0
129655,-117.647058823529,4,1,1,55,0,0
131552,-222.222222222221,4,1,1,55,0,0
132328,-222.222222222221,4,1,1,5,0,0
132414,-90.9090909090909,4,1,1,55,0,0
132759,-100,4,1,1,55,0,0
133793,-83.3333333333333,4,1,1,55,0,0
134138,-333.333333333333,4,1,1,55,0,0
134483,-76.9230769230769,4,1,1,55,0,0
135173,-66.6666666666667,4,1,1,55,0,0
135690,-133.333333333333,4,1,1,55,0,0
135862,-66.6666666666667,4,1,1,55,0,0
136207,-333.333333333333,4,1,1,55,0,0
136552,-66.6666666666667,4,1,1,55,0,0
136897,-133.333333333333,4,1,1,55,0,0
137069,-100,4,1,1,55,0,0
137931,-83.3333333333333,4,1,1,55,0,0
138448,-111.111111111111,4,1,1,55,0,0
139311,-71.4285714285714,4,1,1,55,0,0
139655,-250,4,1,1,55,0,0
140000,-100,4,1,1,55,0,0
140173,-71.4285714285714,4,1,1,55,0,0
140690,-62.5,4,1,1,58,0,1
141035,-62.5,4,1,1,58,0,0
141724,-1000,4,1,1,40,0,0
141983,-1000,4,1,1,5,0,0
142069,-55.5555555555556,4,1,1,61,0,1
142414,-55.5555555555556,4,1,1,61,0,0
143104,-1000,4,1,1,61,0,0
143362,-1000,4,1,1,5,0,0
143448,-50,4,1,1,65,0,1
143793,-50,4,1,1,65,0,0
144311,-500,4,1,1,65,0,0
144483,-66.6666666666667,4,1,1,65,0,0
144828,-66.6666666666667,4,1,1,65,0,0
146207,-100,4,1,1,65,0,0
147586,-133.333333333333,4,1,1,55,0,0
147931,-181.818181818181,4,1,1,55,0,0
148276,-285.714285714284,4,1,1,55,0,0
148621,-666.666666666658,4,1,1,55,0,0
148966,-227.272727272727,4,1,1,45,0,0
149311,-227.272727272727,4,1,1,44,0,0
149655,-227.272727272727,4,1,1,43,0,0
150000,-227.272727272727,4,1,1,42,0,0
150345,-227.272727272727,4,1,1,41,0,0
150690,-227.272727272727,4,1,1,40,0,0
151035,-227.272727272727,4,1,1,38,0,0
151379,-227.272727272727,4,1,1,36,0,0
151724,-227.272727272727,4,1,1,35,0,0
154483,-227.272727272727,4,2,1,35,0,0
154569,-227.272727272727,4,2,1,35,0,0
158621,-156.25,4,2,1,35,0,0
159311,-416.666666666665,4,2,1,35,0,0
160000,-156.25,4,2,1,35,0,0
160690,-294.117647058823,4,2,1,35,0,0
162759,-153.846153846153,4,2,1,35,0,0
163104,-153.846153846153,4,2,1,35,0,0
163793,-303.030303030303,4,2,1,35,0,0
164138,-136.986301369863,4,2,1,35,0,0
164828,-232.558139534884,4,2,1,35,0,0
166897,-120.481927710843,4,2,1,35,0,0
168966,-232.558139534884,4,2,1,35,0,0
169655,-158.730158730159,4,2,1,35,0,0
169914,-158.730158730159,4,2,1,5,0,0
170000,-158.730158730159,4,2,1,35,0,0
172069,-120.481927710844,4,2,1,35,0,0
172414,-100,4,2,1,35,0,0
173104,-125,4,2,1,35,0,0
174052,-125,4,2,1,5,0,0
174138,-125,4,2,1,35,0,0
175173,-90.9090909090909,4,2,1,42,0,0
176293,-90.9090909090909,4,2,1,5,0,0
176379,-90.9090909090909,4,2,1,42,0,0
176466,-90.9090909090909,4,2,1,5,0,0
176552,-78.7401574803149,4,2,1,42,0,0
177242,-100,4,2,1,42,0,0
177586,-75.187969924812,4,2,1,42,0,0
177931,-78.7401574803149,4,2,1,42,0,0
178707,-78.7401574803149,4,2,1,5,0,0
178793,-78.7401574803149,4,2,1,42,0,0
178879,-78.7401574803149,4,2,1,5,0,0
178966,-78.7401574803149,4,2,1,42,0,0
180000,-285.714285714284,4,2,1,42,0,0
181379,-285.714285714284,4,2,1,45,0,0
182069,-100,4,2,1,45,0,0
182759,-100,4,2,1,40,0,0
183104,-133.333333333333,4,2,1,35,0,0
183448,-133.333333333333,4,2,1,30,0,0
184138,-133.333333333333,4,2,1,30,0,0
184311,-133.333333333333,4,2,1,35,0,0
184483,-133.333333333333,4,2,1,40,0,0
184655,-133.333333333333,4,2,1,45,0,0
184828,-133.333333333333,4,2,1,50,0,0
185517,-133.333333333333,4,2,1,40,0,0
186207,-105.263157894737,4,2,1,35,0,0
186897,-105.263157894737,4,2,1,35,0,0
187586,-105.263157894737,4,2,1,45,0,0
188276,-1000,4,2,1,45,0,0
188362,-86.9565217391304,4,2,1,45,0,0
189655,-1000,4,2,1,45,0,0
190345,-133.333333333333,4,2,1,45,0,0
191552,-133.333333333333,4,2,1,5,0,0
191724,-399.999999999997,4,2,2,45,0,0
193104,-105.263157894737,4,2,1,45,0,0
194311,-105.263157894737,4,2,2,5,0,0
194483,-312.5,4,2,2,45,0,0
195862,-133.333333333333,4,2,2,45,0,0
200776,-133.333333333333,4,2,2,5,0,0
200862,-133.333333333333,4,2,2,55,0,0
203017,-133.333333333333,4,2,2,5,0,0
203104,-133.333333333333,4,2,2,55,0,0
206293,-133.333333333333,4,2,2,5,0,0
206379,-133.333333333333,4,2,2,55,0,0
206638,-133.333333333333,4,2,2,5,0,0
206724,-133.333333333333,4,2,2,55,0,0
206897,-181.818181818181,4,2,2,55,0,0
207155,-181.818181818181,4,2,2,5,0,0
207242,-181.818181818181,4,2,2,55,0,0
207931,-181.818181818181,4,2,2,55,0,0
208276,-181.818181818181,4,2,2,55,0,0
208535,-181.818181818181,4,2,2,5,0,0
208621,-181.818181818181,4,2,2,55,0,0
209914,-181.818181818181,4,2,2,5,0,0
210000,-181.818181818181,4,2,2,55,0,0
211035,-105.263157894737,4,2,2,55,0,0
211293,-105.263157894737,4,2,2,5,0,0
211379,-105.263157894737,4,2,2,55,0,0
212414,-133.333333333333,4,2,2,55,0,0
213190,-133.333333333333,4,2,2,5,0,0
213276,-133.333333333333,4,2,2,55,0,0
213362,-133.333333333333,4,2,2,5,0,0
213448,-133.333333333333,4,2,2,55,0,0
213793,-86.9565217391303,4,2,2,55,0,0
214138,-117.647058823529,4,2,2,55,0,0
215343,-68.9655172413793,4,2,2,55,0,0
215516,-80,4,2,2,55,0,0
215688,-95.2380952380952,4,2,2,55,0,0
215861,-117.647058823529,4,2,2,55,0,0
216033,-153.846153846154,4,2,2,55,0,0
216205,-222.222222222222,4,2,2,55,0,0
216378,-400,4,2,2,55,0,0
216550,-666.666666666667,4,2,2,55,0,0
217242,-83.3333333333333,4,2,2,55,0,0
217285,-83.3333333333333,4,2,2,55,0,0
217586,-83.3333333333333,4,2,11,55,0,0
217759,-83.3333333333333,4,2,10,55,0,0
217931,-66.6666666666667,4,1,1,65,0,1
218793,-500,4,1,1,65,0,1
219311,-57.1428571428571,4,1,1,65,0,1
220000,-66.6666666666667,4,1,1,65,0,1
221035,-47.6190476190476,4,1,1,65,0,1
221724,-66.6666666666667,4,1,1,65,0,1
222414,-62.5,4,1,1,65,0,1
222759,-66.6666666666667,4,1,1,65,0,1
223104,-100,4,1,1,65,0,1
223448,-50,4,1,1,65,0,1
223793,-58.8235294117647,4,1,1,65,0,1
224311,-500,4,1,1,65,0,1
224828,-58.8235294117647,4,1,1,65,0,1
225345,-100,4,1,1,65,0,1
225517,-58.8235294117647,4,1,1,65,0,1
227586,-83.3333333333333,4,1,1,65,0,1
228104,-62.5,4,1,1,65,0,1
228276,-71.4285714285714,4,1,1,65,0,1
228966,-55.5555555555556,4,1,1,65,0,1
229311,-66.6666666666667,4,1,1,65,0,1
229828,-500,4,1,1,65,0,1
230345,-62.5,4,1,1,65,0,1
230690,-100,4,1,1,65,0,1
230862,-500,4,1,1,65,0,1
231035,-66.6666666666667,4,1,1,65,0,1
234138,-666.666666666658,4,1,1,65,0,1
234483,-66.6666666666667,4,1,1,65,0,1
234785,-66.6666666666667,4,1,1,5,0,1
234828,-66.6666666666667,4,1,1,65,0,1
235259,-500,4,1,1,65,0,1
235517,-66.6666666666667,4,1,1,65,0,1
236379,-100,4,1,1,65,0,1
236552,-66.6666666666667,4,1,1,65,0,1
237586,-250,4,1,1,65,0,1
237931,-66.6666666666667,4,1,1,65,0,1
238621,-117.647058823529,4,1,1,55,0,0
239138,-100,4,1,1,5,0,0
239311,-769.230769230769,4,1,1,55,0,0
239828,-666.666666666667,4,1,1,5,0,0
240000,-666.666666666667,4,1,1,55,0,0
240690,-181.818181818182,4,1,1,55,0,0
240862,-66.6666666666667,4,1,1,55,0,0
241379,-100,4,1,1,55,0,0
243621,-66.6666666666667,4,1,1,55,0,0
243793,-100,4,1,1,55,0,0
244828,-125,4,1,1,55,0,0
245173,-100,4,1,1,55,0,0
246207,-83.3333333333333,4,1,1,55,0,0
246379,-66.6666666666667,4,1,1,55,0,0
246897,-100,4,1,1,55,0,0
248276,-62.5,4,1,1,65,0,1
249655,-55.5555555555556,4,1,1,65,0,1
250517,-76.9230769230769,4,1,1,65,0,1
250690,-52.6315789473684,4,1,1,65,0,1
251035,-52.6315789473684,4,1,1,55,0,0
251207,-200,4,1,1,55,0,0
251379,-500,4,1,1,55,0,0
251724,-250,4,1,1,55,0,0
251897,-100,4,1,1,55,0,0
253448,-133.333333333333,4,1,1,55,0,0
253879,-399.999999999997,4,1,1,55,0,0
254655,-66.6666666666667,4,1,1,55,0,0
255000,-181.818181818181,4,1,1,55,0,0
256207,-133.333333333333,4,1,1,55,0,0
256724,-399.999999999997,4,1,1,55,0,0
257242,-66.6666666666667,4,1,1,55,0,0
257586,-133.333333333333,4,1,1,55,0,0
259311,-100,4,1,1,55,0,0
261552,-66.6666666666667,4,1,1,47,0,0
262069,-66.6666666666667,4,1,1,43,0,0
262242,-333.333333333333,4,2,1,46,0,0
263448,-333.333333333333,4,2,1,50,0,0
263793,-333.333333333333,4,2,1,55,0,0
264311,-333.333333333333,4,2,1,53,0,0
264483,-333.333333333333,4,2,1,57,0,0
264655,-333.333333333333,4,2,1,60,0,0
264828,-66.6666666666667,4,1,1,55,0,0
267069,-125,4,1,1,55,0,0
267586,-66.6666666666667,4,1,1,55,0,0
270000,-133.333333333333,4,1,1,55,0,0
270345,-71.4285714285714,4,1,1,55,0,1
270862,-62.5,4,1,1,55,0,1
271379,-100,4,1,1,55,0,1
271552,-58.8235294117647,4,1,1,55,0,1
271724,-52.6315789473684,4,1,1,55,0,1
272414,-62.5,4,1,1,55,0,1
272759,-500,4,1,1,55,0,1
273448,-52.6315789473684,4,1,1,55,0,1
274138,-55.5555555555556,4,1,1,55,0,1
274483,-55.5555555555556,4,1,1,55,0,0
274655,-500,4,1,1,55,0,0
275517,-100,4,1,1,55,0,0
275862,-50,4,1,1,65,0,1
276035,-333.333333333333,4,1,1,65,0,1
276207,-50,4,1,1,65,0,1
276552,-133.333333333333,4,1,1,65,0,1
276897,-45.4545454545455,4,1,1,65,0,1
277242,-50,4,1,1,65,0,1
277586,-100,4,1,1,65,0,1
277931,-50,4,1,1,55,0,0
278276,-133.333333333333,4,1,1,55,0,0
278621,-66.6666666666667,4,1,1,65,0,1
278793,-50,4,1,1,65,0,1
279138,-66.6666666666667,4,1,1,65,0,1
279311,-500,4,1,1,65,0,1
280000,-66.6666666666667,4,1,1,65,0,1
280173,-50,4,1,1,65,0,1
280345,-45.4545454545455,4,1,1,65,0,1
280690,-500,4,1,1,55,0,0
281035,-133.333333333333,4,1,1,55,0,0
281379,-66.6666666666667,4,1,1,65,0,1
281724,-100,4,1,1,65,0,1
282242,-500,4,1,1,65,0,1
282759,-100,4,1,1,65,0,1
284138,-66.6666666666667,4,1,1,55,0,0
284483,-666.666666666667,4,1,1,55,0,0
284828,-100,4,1,1,55,0,0
285173,-250,4,1,1,55,0,0
286897,-100,4,1,1,55,0,0
290000,-133.333333333333,4,1,1,55,0,0
293448,-100,4,1,1,55,0,0
295173,-133.333333333333,4,1,1,55,0,0
297931,-100,4,1,1,55,0,0
300690,-133.333333333333,4,1,1,55,0,0
303448,-100,4,1,1,55,0,0
306897,-133.333333333333,4,1,1,55,0,0
307242,-100,4,1,1,55,0,0
308621,-333.333333333333,4,1,1,55,0,0
308966,-153.846153846153,4,1,1,55,0,0
311379,-153.846153846153,4,1,1,5,0,0
311724,-153.846153846153,4,1,1,45,0,0
314828,-153.846153846153,4,1,1,45,0,0
315862,-117.647058823529,4,1,1,55,0,0
316121,-117.647058823529,4,1,1,5,0,0
316207,-117.647058823529,4,1,1,55,0,0
318966,-133.333333333333,4,1,1,55,0,0
319311,-133.333333333333,4,1,1,55,0,0
320000,-133.333333333333,4,1,1,55,0,0
321638,-133.333333333333,4,1,1,5,0,0
321724,-133.333333333333,4,1,1,55,0,0
327155,-133.333333333333,4,1,1,5,0,0
327242,-133.333333333333,4,1,1,55,0,0
328621,-133.333333333333,4,1,1,55,0,0
329655,-100,4,1,1,55,0,0
330000,-133.333333333333,4,1,1,55,0,0
331724,-222.222222222221,4,1,1,55,0,0
332414,-125,4,1,1,55,0,0
333448,-500,4,1,1,55,0,0

[Colours]
Combo1 : 197,197,197
Combo2 : 99,48,48
Combo3 : 128,0,0
Combo4 : 133,92,92
Combo5 : 151,91,81
Combo6 : 136,119,119
Combo7 : 229,229,229
Combo8 : 223,208,208

[HitObjects]
0,21,19311,70,0,L|177:-4,1,155,6|0,0:0|0:0,0:0:0:0:
209,56,19828,1,0,0:0:0:0:
209,56,20000,2,0,L|291:67,1,77.5,0|0,0:0|0:0,0:0:0:0:
270,145,20345,86,0,P|232:151|193:182,1,77.5
398,0,20517,2,0,P|366:41|362:80,1,77.5
138,125,20690,22,0,L|-36:94,1,124,2|0,0:0|0:0,0:0:0:0:
116,277,21035,2,0,L|232:260,1,92.9999971618653,0|0,0:0|0:0,0:0:0:0:
318,308,21379,86,0,L|307:384,1,77.5
281,242,21637,1,0,0:0:0:0:
274,232,21724,2,0,L|265:139,1,77.5
390,0,22069,22,0,B|414:66|399:129|399:129|427:69|501:39,1,263.500005025864,2|0,0:0|0:0,0:0:0:0:
374,205,22586,1,0,0:0:0:0:
512,250,22759,2,0,L|420:270,1,85.2500026016236
374,205,23104,86,0,L|283:185,1,73.6249980340005
365,312,23276,2,0,L|353:389,1,73.6249980340005,0|0,0:0|0:0,0:0:0:0:
266,117,23448,22,0,P|307:53|332:-16,1,131.750002512932,2|0,0:0|0:0,0:0:0:0:
35,107,23793,1,0,0:0:0:0:
97,58,23966,1,0,0:0:0:0:
167,93,24138,86,0,P|198:179|210:327,1,197.625003769398
204,301,24483,2,0,L|219:387,1,85.2500026016236,0|0,0:0|0:0,0:0:0:0:
283,180,24828,22,0,B|425:145|339:220|500:171,2,201.499990776062,2|0|0,0:0|0:0|0:0,0:0:0:0:
421,109,25690,1,0,0:0:0:0:
330,249,25862,86,0,L|224:280,1,65.8750012564659
298,70,26035,2,0,L|310:-5,1,65.8750012564659,0|0,0:0|0:0,0:0:0:0:
227,124,26207,22,0,P|158:65|43:100,1,197.625003769398,2|0,0:0|0:0,0:0:0:0:
53,99,26552,1,0,0:0:0:0:
26,9,26724,1,0,0:0:0:0:
21,173,26897,86,0,P|55:228|65:262,1,85.2500026016236
73,384,27242,2,0,P|89:344|113:309,1,85.2500026016236,0|0,0:0|0:0,0:0:0:0:
190,297,27586,21,2,0:0:0:0:
408,295,27759,2,0,B|283:315|380:344|235:350,1,170.500005203247
138,234,28276,2,0,L|163:127,1,85.2500026016236
214,69,28621,86,0,P|240:21|231:-17,1,65.8750012564659
13,173,28793,2,0,P|44:190|76:182,1,65.8750012564659,0|0,0:0|0:0,0:0:0:0:
157,150,28966,21,2,0:0:0:0:
226,203,29138,2,0,B|368:168|241:143|435:102,1,201.499990776062,0|0,0:0|0:0,0:0:0:0:
503,90,29655,86,0,L|515:69,1,19.375
445,42,29828,2,0,L|436:17,1,19.375
377,202,30000,1,0,0:0:0:0:
500,359,30173,1,0,0:0:0:0:
492,363,30259,1,0,0:0:0:0:
483,364,30345,22,0,L|324:330,1,151.124993082047,6|0,0:0|0:0,0:0:0:0:
278,286,30690,2,0,B|229:397,1,100.749995388031
326,99,31035,2,0,L|307:-20,1,100.749995388031,0|0,0:0|0:0,0:0:0:0:
377,202,31379,86,0,L|303:213,1,65.8750012564659
220,72,31552,2,0,L|231:-9,1,65.8750012564659,0|0,0:0|0:0,0:0:0:0:
193,262,31724,22,0,B|96:357|-24:248|87:166|130:256,1,232.500008869171,2|0,0:0|0:0,0:0:0:0:
159,170,32242,1,0,0:0:0:0:
111,115,32415,86,0,L|98:9,1,100.749995388031
220,72,32759,1,0,0:0:0:0:
285,31,32931,1,0,0:0:0:0:
351,75,33104,22,0,B|406:135|498:100|509:6,1,201.499990776062,2|0,0:0|0:0,0:0:0:0:
435,0,33621,1,0,0:0:0:0:
512,151,33793,2,0,P|493:206|479:282,1,100.749995388031,0|0,0:0|0:0,0:0:0:0:
417,188,34138,86,0,L|338:215,1,65.8750012564659
512,388,34311,2,0,L|491:303,1,65.8750012564659,0|0,0:0|0:0,0:0:0:0:
279,173,34483,22,0,B|158:144|211:206|77:173,1,201.499990776062,2|0,0:0|0:0,0:0:0:0:
25,119,35000,2,0,B|54:59|37:0|37:0|63:77|145:92,1,232.500008869171,0|0,0:0|0:0,0:0:0:0:
111,384,35517,2,0,L|81:238,1,116.250004434586
132,203,35862,85,2,0:0:0:0:
132,203,36035,2,0,P|242:237|228:341,1,201.499990776062,0|0,0:0|0:0,0:0:0:0:
299,372,36552,2,0,L|412:353,1,100.749995388031
389,209,36897,22,0,L|364:291,1,65.8750012564659
511,82,37069,2,0,L|440:26,1,65.8750012564659
302,145,37242,86,0,L|441:116,1,131.750002512932,2|0,0:0|0:0,0:0:0:0:
273,8,37586,1,0,0:0:0:0:
226,65,37759,1,0,0:0:0:0:
150,53,37931,22,0,L|39:-8,1,100.749995388031
241,207,38276,2,0,L|256:322,1,100.749995388031
312,362,38621,85,2,0:0:0:0:
512,384,38793,2,0,P|437:370|356:279,1,174.375006651879
374,288,39138,1,0,0:0:0:0:
438,236,39311,2,0,P|454:156|450:105,1,100.749995388031
337,28,39655,22,0,P|305:16|277:-19,1,65.8750012564659
412,72,39828,2,0,P|380:125|382:155,1,65.8750012564659
210,20,40000,1,2,0:0:0:0:
210,20,40173,86,0,L|237:238,1,197.625003769398
226,231,40517,1,0,0:0:0:0:
90,292,40690,6,0,L|193:271,1,77.5
238,340,40862,70,0,L|220:335,1,15.5
61,197,41035,2,0,L|82:205,1,15.5
154,379,41207,5,0,0:0:0:0:
485,336,41379,6,0,B|420:392|310:387|261:262|303:193,1,310,6|0,0:0|0:0,0:0:0:0:
389,278,41897,1,0,0:0:0:0:
238,340,42069,2,0,L|130:320,1,92.9999971618653,2|0,0:0|0:0,0:0:0:0:
3,193,42414,86,0,L|29:272,1,62
98,52,42586,2,0,L|116:-15,1,62
1,78,42759,22,0,B|167:49|57:136|251:82,1,232.5,2|0,0:0|0:0,0:0:0:0:
234,75,43104,1,0,0:0:0:0:
430,122,43276,1,0,0:0:0:0:
395,43,43448,85,0,0:0:0:0:
404,28,43621,1,0,0:0:0:0:
415,37,43793,2,0,P|486:13|498:-22,1,85.2500026016236
254,289,44138,22,0,B|270:149|292:253|318:59,1,220.874994102001,2|0,0:0|0:0,0:0:0:0:
309,66,44483,2,0,L|206:41,1,100.749995388031
211,42,45000,1,0,0:0:0:0:
0,87,45173,86,0,L|51:110,1,50.3749976940156
71,32,45345,2,0,L|130:6,1,50.3749976940156
190,278,45517,22,0,P|164:190|115:67,1,186,2|0,0:0|0:0,0:0:0:0:
119,94,45862,85,0,0:0:0:0:
292,172,46035,1,0,0:0:0:0:
374,154,46207,21,0,0:0:0:0:
350,289,46379,1,0,0:0:0:0:
383,165,46552,1,0,0:0:0:0:
362,282,46724,1,0,0:0:0:0:
509,0,46897,86,0,B|434:88|293:140|207:9|312:-39,1,310,2|0,0:0|0:0,0:0:0:0:
352,0,47414,1,0,0:0:0:0:
181,154,47586,2,0,L|158:244,1,92.9999971618653,2|0,0:0|0:0,0:0:0:0:
198,325,47931,22,0,P|205:376|240:411,1,62
35,250,48104,2,0,P|86:284|110:280,1,62
278,331,48276,86,0,P|381:317|506:294,1,209.249993614197,2|0,0:0|0:0,0:0:0:0:
497,307,48621,1,0,0:0:0:0:
415,108,48793,1,0,0:0:0:0:
499,13,48966,21,0,0:0:0:0:
481,20,49138,1,0,0:0:0:0:
464,10,49311,2,0,P|418:18|392:41,1,69.749997871399
237,172,49655,85,2,0:0:0:0:
512,226,49828,2,0,B|376:289|244:128|325:-2,1,371.999988647461
319,278,50345,2,0,B|168:229,1,124
0,366,50690,22,0,L|71:312,1,69.749997871399
184,82,50862,2,0,L|164:154,1,69.749997871399
159,384,51035,86,0,P|132:295|65:153,1,209.249993614197,2|0,0:0|0:0,0:0:0:0:
73,183,51379,1,0,0:0:0:0:
116,1,51552,1,0,0:0:0:0:
0,74,51724,21,0,0:0:0:0:
10,60,51897,1,0,0:0:0:0:
27,72,52069,2,0,L|15:-18,1,69.749997871399
102,72,52414,86,0,L|217:93,1,104.624996807098,10|0,0:3|0:0,0:0:0:0:
210,103,52759,1,0,0:0:0:0:
278,76,52931,1,0,0:0:0:0:
326,134,53104,21,8,0:3:0:0:
301,6,53276,1,0,0:0:0:0:
334,122,53448,2,0,L|381:133,1,34.8749989356995
315,11,53621,2,0,L|354:-11,1,34.8749989356995
512,0,53793,86,0,P|465:48|441:166,1,151.124993082047,10|0,0:3|0:0,0:0:0:0:
447,132,54138,1,0,0:0:0:0:
499,192,54311,1,0,0:0:0:0:
468,267,54483,21,8,0:3:0:0:
348,284,54655,1,0,0:0:0:0:
398,347,54828,1,0,0:0:0:0:
274,316,55000,1,0,0:0:0:0:
18,379,55173,86,0,B|90:405|166:362|175:267,1,197.625003769398,10|0,0:3|0:0,0:0:0:0:
165,287,55517,1,0,0:0:0:0:
120,219,55690,1,0,0:0:0:0:
136,139,55862,21,8,0:3:0:0:
72,9,56034,1,0,0:0:0:0:
246,0,56206,1,0,0:0:0:0:
246,0,56293,1,0,0:0:0:0:
246,0,56379,1,0,0:0:0:0:
246,0,56466,1,0,0:0:0:0:
246,0,56552,86,0,L|283:297,1,267.375005099774,10|0,0:3|0:0,0:0:0:0:
285,277,56897,1,0,0:0:0:0:
365,310,57069,1,0,0:0:0:0:
434,255,57242,21,8,0:3:0:0:
396,178,57414,1,0,0:0:0:0:
454,117,57586,1,0,0:0:0:0:
512,299,57759,1,0,0:0:0:0:
293,359,57931,86,0,L|128:341,1,147.249996068001,14|0,0:3|0:0,0:0:0:0:
80,384,58276,1,8,0:3:0:0:
80,384,58621,21,8,0:3:0:0:
189,165,58793,1,0,0:0:0:0:
21,151,58966,85,8,0:3:0:0:
33,156,59052,1,0,0:0:0:0:
32,145,59138,1,0,0:0:0:0:
25,162,59224,1,0,0:0:0:0:
68,222,59311,22,0,L|30:-9,1,162.749995033264,10|0,0:3|0:0,0:0:0:0:
104,19,59655,1,8,0:3:0:0:
104,19,60000,85,8,0:3:0:0:
166,80,60173,1,0,0:0:0:0:
256,18,60345,1,8,0:3:0:0:
333,154,60517,1,0,0:0:0:0:
501,88,60690,5,14,0:0:0:0:
336,371,60862,86,0,P|371:322|365:276,1,92.9999971618653,8|0,0:3|0:3,0:3:0:0:
396,317,61035,2,0,P|370:249|343:235,1,73.6249980340005,8|0,0:3|0:3,0:3:0:0:
400,251,61207,2,0,P|357:227|334:229,1,50.3749976940156,8|0,0:3|0:3,0:3:0:0:
365,209,61379,2,0,P|328:198|315:175,1,34.8749989356995,8|0,0:3|0:3,0:3:0:0:
329,215,61552,2,0,P|320:182|325:171,1,27.1249991722107,8|0,0:3|0:3,0:3:0:0:
303,199,61724,2,0,P|307:179|310:176,1,19.375,8|0,0:3|0:3,0:3:0:0:
298,177,61897,2,0,P|307:164|312:162,1,19.375,8|0,0:3|0:3,0:3:0:0:
301,158,62069,69,12,0:3:0:0:
309,146,62155,1,8,0:3:0:0:
325,130,62242,1,8,0:3:0:0:
356,122,62328,1,8,0:3:0:0:
412,136,62414,1,8,0:3:0:0:
465,189,62500,1,8,0:3:0:0:
459,271,62586,1,8,0:3:0:0:
402,329,62673,1,8,0:3:0:0:
319,318,62759,102,0,L|240:296,1,77.5,12|8,0:3|0:3,0:0:0:0:
186,363,62931,2,0,L|80:386,1,100.749995388031,8|8,0:3|0:3,0:3:0:0:
14,331,63104,70,0,L|28:282,2,38.75,2|0|0,3:2|3:0|3:0,3:0:0:0:
374,229,63276,1,2,0:0:0:0:
0,188,63448,6,0,L|371:138,1,348.750013303757,6|0,0:0|0:0,0:0:0:0:
329,129,63793,2,0,L|165:153,1,155,8|0,0:0|0:0,0:0:0:0:
265,55,63966,102,0,L|272:17,1,23.2499992904663
451,384,64138,6,0,L|438:285,2,77.5,2|0|0,0:0|0:0|0:0,0:0:0:0:
442,0,64483,2,0,L|406:229,1,232.500008869171,8|0,0:0|0:0,0:0:0:0:
320,384,64828,102,0,B|216:215|11:255|-3:421|174:462|222:279,1,418.499987228394,2|0,0:0|0:0,0:0:0:0:
171,361,65173,1,8,0:0:0:0:
310,228,65345,2,0,L|381:211,1,69.749997871399
455,178,65517,6,0,P|539:254|429:283,1,278.999991485596,2|0,0:2|0:0,0:0:0:0:
310,65,65862,2,0,P|408:11|386:121,1,278.999991485596,10|0,0:2|0:0,0:0:0:0:
378,212,66207,102,0,L|7:157,1,372,2|0,0:0|0:0,0:0:0:0:
24,179,66552,2,0,L|206:208,1,170.500005203247,8|0,0:0|0:0,0:0:0:0:
241,9,66724,5,0,0:0:0:0:
163,0,66811,1,0,0:0:0:0:
105,47,66897,2,0,P|102:74|118:111,1,46.4999985809327,2|0,0:2|0:0,0:0:0:0:
0,337,67069,1,0,0:0:0:0:
187,75,67242,102,0,B|365:35,1,155,8|0,0:0|0:0,0:0:0:0:
405,1,67586,5,2,0:0:0:0:
491,306,67759,1,0,0:0:0:0:
454,376,67845,1,0,0:0:0:0:
371,384,67931,102,0,B|423:96|436:355|480:4,1,348.750013303757,8|0,0:0|0:0,0:0:0:0:
405,1,68276,1,2,0:2:0:0:
397,14,68362,1,0,0:0:0:0:
401,27,68448,1,0,0:0:0:0:
512,0,68621,6,0,L|267:32,1,232.500008869171,10|0,0:2|0:0,0:0:0:0:
0,294,68966,102,0,P|184:217|412:168,1,348.750013303757,2|0,0:0|0:0,0:0:0:0:
344,190,69311,2,0,P|304:224|339:185,1,147.249996068001,8|0,0:0|0:0,0:0:0:0:
187,327,69483,6,0,L|194:303,1,15.5
147,0,69655,102,0,L|169:90,2,77.5,2|0|0,0:0|0:0|0:0,0:0:0:0:
89,370,70000,2,0,P|116:225|134:57,1,232.500008869171,8|0,0:0|0:0,0:0:0:0:
488,0,70345,6,0,B|493:83|436:125|337:142|207:143|217:3|272:-20,1,348.750013303757,2|0,0:0|0:0,0:0:0:0:
249,31,70690,1,8,0:0:0:0:
406,17,70862,2,0,L|319:34,1,77.5
159,0,71035,102,0,L|115:362,1,348.750013303757,2|0,0:2|0:2,0:2:0:0:
26,384,71379,2,0,L|70:22,1,348.750013303757,10|0,0:2|0:2,0:2:0:0:
246,8,71724,6,0,B|274:288|303:55|347:386,1,395.250007538796,2|0,0:0|0:0,0:0:0:0:
329,362,72069,2,0,L|307:223,1,124,8|0,0:0|0:0,0:0:0:0:
390,2,72242,101,0,0:0:0:0:
446,59,72328,1,0,0:0:0:0:
426,132,72414,2,0,P|371:141|333:91,1,77.5,2|0,0:2|0:0,0:0:0:0:
159,0,72586,1,0,0:0:0:0:
310,240,72759,6,0,L|131:267,1,155,8|0,0:0|0:0,0:0:0:0:
76,217,73104,101,2,0:0:0:0:
454,322,73276,1,0,0:0:0:0:
406,384,73362,1,0,0:0:0:0:
329,362,73448,2,0,P|345:244|457:-10,1,348.750013303757,8|0,0:0|0:0,0:0:0:0:
351,0,73793,5,2,0:2:0:0:
347,10,73879,1,0,0:2:0:0:
349,21,73966,1,0,0:2:0:0:
512,35,74138,2,0,B|374:-11|450:72|230:9,1,232.500008869171,10|0,0:2|0:2,0:2:0:0:
38,0,74483,102,0,L|119:340,1,348.750013303757,6|0,0:0|0:0,0:0:0:0:
100,326,74828,2,0,L|58:148,1,155,8|0,0:0|0:0,0:0:0:0:
162,20,75000,6,0,L|155:48,1,15.5
323,382,75173,102,0,L|303:304,2,77.5,2|0|0,0:0|0:0|0:0,0:0:0:0:
378,40,75517,2,0,B|210:60|322:93|132:115,1,232.500008869171,8|0,0:0|0:0,0:0:0:0:
32,38,75862,6,0,B|18:49|-87:93|-22:321|108:277|151:163|65:140,1,348.750013303757,2|0,0:0|0:0,0:0:0:0:
75,139,76207,1,8,0:0:0:0:
15,298,76379,2,0,L|-3:404,1,77.5
111,0,76552,102,0,P|198:165|244:332,1,348.750013303757,2|0,0:2|0:2,0:2:0:0:
308,380,76897,2,0,P|360:214|377:40,1,348.750013303757,10|0,0:2|0:2,0:2:0:0:
258,0,77242,5,2,0:0:0:0:
75,139,77414,1,0,0:0:0:0:
67,131,77500,1,0,0:0:0:0:
69,120,77586,2,0,L|230:80,1,116.250004434586,8|0,0:0|0:0,0:0:0:0:
510,258,77758,101,0,0:0:0:0:
458,321,77844,1,0,0:0:0:0:
378,314,77931,2,0,P|353:280|352:239,1,77.5,2|0,0:2|0:0,0:0:0:0:
407,0,78103,1,0,0:0:0:0:
261,280,78276,6,0,B|92:324|200:261|26:306,1,232.5,8|0,0:0|0:0,0:0:0:0:
29,321,78621,101,2,0:0:0:0:
154,0,78793,1,0,0:0:0:0:
94,55,78879,1,0,0:0:0:0:
117,130,78966,2,0,L|266:157,1,116.250004434586,8|0,0:0|0:0,0:0:0:0:
492,12,79138,2,0,L|354:45,1,116.250004434586
37,153,79311,6,0,L|41:127,1,15.5,2|0,0:2|0:0,0:0:0:0:
425,199,79483,1,0,0:2:0:0:
429,188,79569,1,0,0:2:0:0:
426,180,79655,2,0,B|233:187|386:237|145:246,1,278.999991485596,10|0,0:2|0:2,0:2:0:0:
71,259,80000,102,0,L|524:304,1,418.499987228394,6|0,0:0|0:0,0:0:0:0:
468,316,80345,2,0,L|273:296,1,178.250003399849,8|0,0:0|0:0,0:0:0:0:
13,201,80517,6,0,L|19:178,1,15.5
201,382,80690,1,2,0:0:0:0:
216,383,80776,1,0,0:0:0:0:
226,377,80862,2,0,L|198:230,1,77.5
196,15,81035,2,0,L|154:285,1,232.5,10|0,0:0|0:0,0:0:0:0:
512,367,81379,102,0,B|501:328|471:166|176:219|244:506|425:420|465:275,1,418.499987228394,2|0,0:0|0:0,0:0:0:0:
417,348,81724,1,8,0:0:0:0:
440,171,81897,6,0,L|413:21,1,100.749995388031
373,13,82069,102,0,L|396:-2,1,15.5
512,228,82242,2,0,L|487:221,1,15.5
336,88,82414,5,8,0:0:0:0:
21,30,82586,1,0,0:0:0:0:
12,14,82673,1,0,0:0:0:0:
20,0,82759,102,0,L|313:29,1,263.500005025864,6|0,0:0|0:0,0:0:0:0:
309,193,83104,6,0,P|327:261|295:322,1,116.250004434586,8|0,0:0|0:0,0:0:0:0:
512,384,83276,2,0,P|431:372|398:305,1,116.250004434586
406,270,83448,102,0,L|429:263,1,15.5
494,243,83621,2,0,L|517:236,1,15.5
35,302,83793,6,0,B|177:334|86:196|325:262,1,232.500008869171,8|0,0:0|0:0,0:0:0:0:
307,289,84052,1,0,0:0:0:0:
312,303,84138,101,6,0:0:0:0:
72,229,84311,1,0,0:0:0:0:
72,229,84397,1,0,0:0:0:0:
72,229,84483,2,0,L|105:-14,1,232.500008869171,8|0,0:0|0:0,0:0:0:0:
309,193,84828,6,0,L|200:221,1,77.5,6|0,0:0|0:0,0:0:0:0:
170,172,85000,1,0,0:0:0:0:
92,194,85173,102,0,L|115:22,1,153.449999531708
103,0,85517,37,6,0:0:0:0:
512,132,85862,6,0,L|403:157,1,102.299999687805,8|0,0:0|0:0,0:0:0:0:
418,140,86121,1,0,0:0:0:0:
421,124,86207,2,0,L|406:56,1,51.1499998439026
491,47,86379,2,0,L|522:-20,1,51.1499998439026
510,264,86552,2,0,B|408:230|462:310|296:240,1,164.300000250702,8|0,0:0|0:0,0:0:0:0:
269,287,86811,1,0,0:0:0:0:
269,287,86897,85,0,0:0:0:0:
210,47,87069,1,0,0:0:0:0:
172,193,87242,102,0,B|284:30|83:-123|54:67|125:108,1,372,10|0,0:2|0:2,0:2:0:0:
96,204,87586,102,0,B|280:228|280:228|286:232|286:232|535:267,1,418.499987228394,2|0,0:2|0:2,0:2:0:0:
498,183,87931,6,0,B|367:224|480:288|411:495|214:403|244:241|421:271,1,395.250007538796,10|0,0:2|0:2,0:2:0:0:
509,263,88276,37,2,0:0:0:0:
0,263,88621,2,0,B|178:207|98:291|276:225,1,263.500005025864,8|0,0:0|0:0,0:0:0:0:
316,157,88879,1,0,0:0:0:0:
316,157,88966,86,0,P|330:82|338:-8,1,155,2|0,0:2|0:0,0:0:0:0:
160,174,89311,22,0,L|81:163,1,77.5,10|0,0:2|0:0,0:0:0:0:
234,114,89483,1,0,0:0:0:0:
512,278,89655,86,0,B|377:271|416:378|287:441|194:344,1,348.750013303757,2|0,0:0|0:0,0:0:0:0:
136,329,90000,22,0,P|208:275|263:322,1,116.250004434586,8|0,0:0|0:0,0:0:0:0:
295,308,90173,2,0,L|301:285,1,15.5
309,7,90345,86,0,P|356:126|380:268,1,232.500008869171,2|0,0:0|0:0,0:0:0:0:
510,136,90604,1,0,0:0:0:0:
512,121,90690,2,0,P|474:178|465:208,2,87.1875033259393,10|2|2,0:0|0:0|0:0,0:0:0:0:
445,54,91035,21,2,0:0:0:0:
0,117,91379,2,0,L|357:72,1,348.750013303757,8|0,0:0|0:0,0:0:0:0:
406,127,91724,1,0,0:0:0:0:
398,138,91811,1,0,0:0:0:0:
399,150,91897,86,0,L|559:182,1,116.250004434586
512,96,92069,1,8,0:0:0:0:
311,141,92242,1,0,0:0:0:0:
221,209,92414,21,0,0:0:0:0:
94,182,92586,1,0,0:0:0:0:
8,201,92759,70,0,B|41:264|7:377|7:377|61:271|152:254,1,348.750013303757,10|0,0:2|0:2,0:2:0:0:
94,182,93104,102,0,B|277:159|277:159|281:163|281:163|463:137,1,325.499990066529,2|0,0:2|0:2,0:2:0:0:
481,187,93448,6,0,B|514:198|596:106|522:-62|329:78|551:212|335:270,1,395.250007538796,10|0,0:2|0:2,0:2:0:0:
294,234,93793,5,2,0:0:0:0:
0,4,94138,2,0,B|75:153|77:13|174:222,1,216.999993377686,8|0,0:0|0:0,0:0:0:0:
171,384,94397,1,0,0:0:0:0:
171,384,94483,22,0,B|206:250|206:250|213:244|213:244|241:129,1,248,2|0,0:2|0:0,0:0:0:0:
179,0,94828,2,0,B|122:22|122:22|147:198,1,201.499990776062,10|0,0:0|0:0,0:0:0:0:
290,321,95173,38,0,B|466:280|340:371|573:296,1,216.999993377686,2|0,0:0|0:0,0:0:0:0:
44,0,95517,2,0,L|87:310,1,216.999993377686,10|0,0:0|0:0,0:0:0:0:
505,81,95862,85,2,0:0:0:0:
443,36,95948,1,0,0:0:0:0:
365,56,96035,1,0,0:0:0:0:
368,63,96121,1,0,0:0:0:0:
298,99,96207,2,0,B|229:102|214:44|214:44|227:73|265:82,1,162.749995033264,10|0,0:0|0:0,0:0:0:0:
293,13,96552,22,0,L|300:0,1,15.5,6|0,0:0|0:0,0:0:0:0:
505,187,96897,70,0,L|512:174,1,15.5,6|0,0:0|0:0,0:0:0:0:
202,224,97242,6,0,L|209:211,1,15.5,6|0,0:0|0:0,0:0:0:0:
0,23,97586,22,0,L|7:10,1,15.5,6|0,0:0|0:0,0:0:0:0:
505,81,97931,53,6,0:0:0:0:
458,12,98104,6,0,L|423:19,1,31
404,191,98276,2,0,L|337:175,1,54.2499983444214,8|0,0:0|0:0,0:0:0:0:
266,135,98448,2,0,L|288:234,1,85.2500026016236
67,267,98620,69,2,0:2:0:0:
67,256,98707,1,0,0:0:0:0:
77,265,98793,2,0,L|97:192,1,54.2499983444214
0,384,98966,2,0,L|295:341,1,278.999991485596,10|0,0:2|0:2,0:2:0:0:
343,376,99311,37,2,0:0:0:0:
512,266,99483,2,0,L|438:246,1,77.5
351,0,99655,2,0,B|228:89|210:282|486:309|381:109|285:75,1,418.499987228394,10|0,0:0|0:0,0:0:0:0:
218,41,100000,86,0,L|109:67,1,77.5,2|0,0:0|0:0,0:0:0:0:
121,303,100173,2,0,L|32:280,1,77.5
59,198,100345,22,0,L|11:214,1,38.75,10|0,0:0|0:0,0:0:0:0:
0,384,100517,1,0,0:0:0:0:
199,364,100690,86,0,B|300:342|231:422|400:350,1,155,2|0,0:0|0:0,0:0:0:0:
508,91,101035,2,0,B|252:166|252:166|285:277,1,348.750013303757,10|0,0:0|0:0,0:0:0:0:
347,289,101379,1,2,0:0:0:0:
361,295,101466,1,0,0:0:0:0:
373,291,101552,2,0,L|402:132,1,147.249996068001
219,2,101724,21,10,0:0:0:0:
301,20,101897,1,0,0:0:0:0:
0,0,102069,86,0,P|146:88|99:213,1,248,6|0,0:0|0:0,0:0:0:0:
380,0,102414,1,10,0:0:0:0:
421,77,102586,1,0,0:0:0:0:
421,77,102673,1,0,0:0:0:0:
421,77,102759,2,0,P|479:93|547:98,1,92.9999971618653,2|0,0:0|0:0,0:0:0:0:
342,152,103017,1,0,0:0:0:0:
342,152,103104,2,0,P|329:94|284:-12,1,139.499995742798,10|0,0:0|0:0,0:0:0:0:
209,55,103448,22,0,L|221:-10,1,54.2499983444214,2|0,0:0|0:0,0:0:0:0:
307,266,103621,2,0,L|218:287,1,54.2499983444214
12,217,103793,70,0,B|152:366|275:233|155:82|74:277,1,348.750013303757,10|0,0:2|0:2,0:2:0:0:
84,354,104138,102,0,L|499:388,1,372,2|0,0:2|0:2,0:2:0:0:
440,372,104483,6,0,L|142:347,1,278.999991485596,10|0,0:2|0:2,0:2:0:0:
9,333,104828,37,2,0:0:0:0:
512,280,105173,1,10,0:0:0:0:
300,91,105345,1,0,0:0:0:0:
308,102,105431,1,0,0:0:0:0:
317,112,105517,86,0,L|369:101,1,31,2|0,0:0|0:0,0:0:0:0:
359,30,105690,2,0,L|367:-23,1,31
291,181,105862,22,0,B|409:304|586:157|486:73|421:118,1,348.750013303757,10|0,0:0|0:0,0:0:0:0:
221,78,106207,86,0,B|205:42|234:3|234:3|213:39|119:29,1,155,2|0,0:0|0:0,0:0:0:0:
0,242,106552,2,0,B|70:283|84:369|84:369|79:293|129:218,1,263.500005025864,10|0,0:0|0:0,0:0:0:0:
169,224,106811,1,0,0:0:0:0:
177,228,106897,22,0,L|157:193,1,34.8749989356995,2|0,0:0|0:0,0:0:0:0:
89,3,107069,2,0,L|63:35,1,34.8749989356995
224,157,107242,2,0,B|127:137|127:137|122:131|122:131|1:108,1,216.999993377686,10|0,0:0|0:0,0:0:0:0:
391,66,107586,85,6,0:0:0:0:
451,122,107759,1,0,0:0:0:0:
410,192,107931,1,8,0:0:0:0:
465,47,108104,22,0,L|478:-26,1,58.1250022172929
354,251,108276,2,0,L|282:264,1,58.1250022172929
415,312,108448,2,0,L|483:337,1,58.1250022172929
238,203,108621,86,0,B|68:265|149:481|283:378|231:294,1,348.750013303757,8|0,0:0|0:0,0:0:0:0:
226,299,108966,21,6,0:0:0:0:
281,129,109138,2,0,L|391:113,1,77.5
296,261,109311,85,8,0:0:0:0:
229,0,109483,2,0,L|213:111,1,77.5
329,343,109655,1,6,0:0:0:0:
344,343,109742,1,0,0:0:0:0:
356,333,109828,1,0,0:0:0:0:
365,320,109914,1,0,0:0:0:0:
378,313,110000,2,0,P|447:319|495:391,1,155
388,61,110345,37,2,0:2:0:0:
383,46,110517,1,2,0:2:0:0:
324,0,110690,1,2,0:2:0:0:
229,22,110862,1,2,0:2:0:0:
198,141,111035,21,2,0:2:0:0:
301,114,111207,1,2,0:2:0:0:
135,46,111379,1,2,0:2:0:0:
165,243,111552,1,2,0:2:0:0:
363,194,111724,70,0,B|455:180|414:227|532:192,1,155,6|0,0:0|0:0,0:0:0:0:
301,114,112069,2,0,L|257:359,1,232.5,8|2,0:0|0:0,0:0:0:0:
259,342,112414,102,0,P|200:326|120:326,1,124,2|0,0:0|0:0,0:0:0:0:
0,384,112759,2,0,P|46:324|78:257,1,124,8|0,0:0|0:0,0:0:0:0:
107,127,113104,6,0,L|139:271,1,124,2|0,0:0|0:0,0:0:0:0:
114,289,113362,1,0,0:0:0:0:
114,289,113448,1,8,0:0:0:0:
36,85,113621,1,0,0:0:0:0:
70,54,113707,1,0,0:2:0:0:
116,48,113793,1,2,0:0:0:0:
160,60,113879,1,0,0:2:0:0:
187,97,113966,1,0,0:0:0:0:
231,111,114052,1,0,0:0:0:0:
276,99,114138,1,8,0:0:0:0:
300,8,114311,1,0,0:0:0:0:
510,104,114483,102,0,L|364:73,1,139.499995742798
163,231,114828,2,0,P|274:211|355:133,1,209.249993614197,8|2,0:0|0:0,0:0:0:0:
344,149,115173,2,0,L|324:271,1,108.499996688843,2|0,0:0|0:0,0:0:0:0:
276,99,115517,1,8,0:0:0:0:
16,65,115776,5,2,0:0:0:0:
9,76,115862,2,0,B|36:101|120:132|163:20,1,162.749995033264,2|0,0:0|0:0,0:0:0:0:
213,7,116207,1,8,0:0:0:0:
222,4,116293,1,0,0:2:0:0:
254,7,116379,1,0,0:0:0:0:
299,49,116466,1,0,0:2:0:0:
289,115,116552,1,2,0:0:0:0:
338,170,116638,1,0,0:2:0:0:
408,145,116724,2,0,L|422:84,1,54.2499983444214
512,252,116897,2,0,L|383:218,1,108.499996688843,8|0,0:0|0:0,0:0:0:0:
0,365,117242,102,0,P|130:366|167:273,1,232.5,2|0,0:0|0:0,0:0:0:0:
155,278,117586,1,8,0:0:0:0:
32,221,117759,1,0,0:0:0:0:
31,208,117845,1,0,0:0:0:0:
18,198,117931,1,2,0:0:0:0:
0,164,118018,1,0,0:0:0:0:
4,116,118104,1,0,0:0:0:0:
44,85,118190,1,0,0:0:0:0:
100,93,118276,2,0,L|297:118,1,185.999994323731,8|0,0:0|0:0,0:0:0:0:
124,180,118621,86,0,L|507:116,1,348.750013303757,6|0,0:0|0:0,0:0:0:0:
468,123,118966,2,0,P|490:110|471:113,1,77.5,10|0,0:0|0:0,0:0:0:0:
185,92,119138,2,0,L|140:-3,1,100.749995388031
184,384,119311,102,0,L|278:67,1,248,6|0,0:0|0:0,0:0:0:0:
276,72,119569,1,0,0:0:0:0:
276,72,119655,1,10,0:0:0:0:
10,200,119828,2,0,L|162:174,1,116.250004434586
466,384,120000,6,0,L|318:155,1,232.500008869171,6|0,0:0|0:0,0:0:0:0:
408,0,120259,1,0,0:0:0:0:
408,0,120345,2,0,L|375:148,1,116.250004434586,10|0,0:0|0:0,0:0:0:0:
271,384,120517,101,0,0:0:0:0:
268,370,120604,1,8,0:1:0:0:
495,99,120776,1,0,0:2:0:0:
489,109,120862,1,10,0:1:0:0:
320,303,121035,6,0,L|340:184,1,116.250004434586,10|0,0:0|0:0,0:0:0:0:
247,0,121207,2,0,L|276:155,1,139.499995742798,10|0,0:0|0:0,0:0:0:0:
366,368,121379,37,4,0:0:0:0:
233,209,121552,102,0,L|181:182,1,38.75,2|0,0:0|0:0,0:0:0:0:
104,264,121724,2,0,L|119:228,1,38.75,10|0,0:0|0:0,0:0:0:0:
272,137,121897,6,0,L|296:142,1,15.5,2|0,0:0|0:0,0:0:0:0:
72,337,122069,2,0,B|145:423|281:290|184:226|156:341,1,255.750007804871,2|0,0:0|0:0,0:0:0:0:
104,264,122414,2,0,L|85:104,1,124,8|0,0:0|0:0,0:0:0:0:
70,8,122759,101,0,0:0:0:0:
272,137,122931,1,2,0:0:0:0:
174,126,123104,2,0,L|322:99,1,124,10|0,0:0|0:0,0:0:0:0:
341,43,123362,1,0,0:0:0:0:
333,35,123448,1,0,0:0:0:0:
414,4,123621,1,2,0:0:0:0:
414,4,123793,2,0,P|441:91|439:158,1,124,10|0,0:0|0:0,0:0:0:0:
444,238,124138,5,2,0:0:0:0:
464,314,124311,2,0,L|457:335,1,15.5,2|0,0:0|0:0,0:0:0:0:
383,293,124483,102,0,L|299:320,1,77.5,10|0,0:0|0:0,0:0:0:0:
295,240,124655,2,0,L|220:219,1,77.5,2|0,0:0|0:0,0:0:0:0:
0,383,124828,6,0,B|135:417|274:244|87:175|65:340,1,371.999988647461,2|8,0:0|0:0,0:0:0:0:
2,230,125345,1,2,0:0:0:0:
10,227,125431,1,2,0:0:0:0:
11,217,125517,102,0,B|25:122|46:196|63:55,1,124,2|0,0:0|0:0,0:0:0:0:
0,0,125862,2,0,L|90:26,1,85.2500026016236,8|0,0:0|0:0,0:0:0:0:
93,17,126121,1,0,0:0:0:0:
104,7,126207,1,2,0:0:0:0:
174,32,126293,1,0,0:0:0:0:
244,57,126379,1,0,0:0:0:0:
254,68,126466,1,0,0:0:0:0:
260,79,126552,2,0,L|220:218,1,131.750002512932,10|0,0:0|0:0,0:0:0:0:
252,384,126897,53,2,0:0:0:0:
376,36,127242,2,0,L|369:4,1,23.2499992904663,10|0,0:2|0:0,0:0:0:0:
445,76,127586,102,0,B|405:164|417:246|417:246|397:166|326:96,1,348.750013303757,2|0,0:2|0:0,0:0:0:0:
260,79,127931,2,0,L|228:85,1,23.2499992904663,8|0,0:0|0:0,0:0:0:0:
230,158,128276,86,0,L|-32:124,1,232.5,2|0,0:0|0:0,0:0:0:0:
0,128,128621,102,0,P|-5:102|3:126,1,77.5,8|0,0:0|0:0,0:0:0:0:
32,39,128793,2,0,P|55:25|38:43,1,77.5
127,10,128966,2,0,P|140:22|128:14,2,77.5,2|0|0,0:0|0:0|0:0,0:0:0:0:
260,79,129311,6,0,B|363:46|321:102|433:57,1,155,8|0,0:0|0:0,0:0:0:0:
471,21,129569,1,0,0:0:0:0:
475,10,129655,101,2,0:0:0:0:
509,182,129828,1,0,0:0:0:0:
438,153,130000,1,8,0:0:0:0:
374,193,130173,1,0,0:0:0:0:
364,202,130259,1,0,0:0:0:0:
352,208,130345,1,2,0:0:0:0:
339,212,130431,1,0,0:0:0:0:
325,212,130517,1,0,0:0:0:0:
293,179,130604,1,0,0:0:0:0:
249,169,130690,1,8,0:0:0:0:
212,241,130862,1,0,0:0:0:0:
132,226,131035,101,6,0:0:0:0:
87,48,131207,1,0,0:0:0:0:
267,0,131379,1,8,0:0:0:0:
69,290,131552,6,0,L|51:335,2,34.8749989356995,0|0|6,0:0|0:0|0:0,0:0:0:0:
177,13,131897,1,0,0:0:0:0:
0,179,132069,6,0,L|133:147,1,104.624996807098
62,73,132414,86,0,B|244:94|79:147|343:158,1,255.750007804871,6|0,0:0|0:0,0:0:0:0:
309,146,132759,1,8,0:0:0:0:
311,0,132931,6,0,L|265:126,1,77.5
221,259,133104,102,0,L|323:236,1,77.5
426,209,133276,1,0,0:0:0:0:
489,257,133448,6,0,B|563:331|485:419|372:360|427:227,1,232.5,8|0,0:0|0:0,0:0:0:0:
512,171,133793,102,0,B|363:129|406:294|211:188,1,278.999991485596,2|0,0:0|0:0,0:0:0:0:
205,153,134138,2,0,L|198:120,1,23.2499992904663,8|0,0:0|0:0,0:0:0:0:
325,22,134311,2,0,L|318:-11,1,23.2499992904663
214,274,134483,6,0,L|106:304,1,100.749995388031
0,188,134655,2,0,L|105:236,1,100.749995388031
58,384,134828,102,0,L|108:97,1,201.499990776062,8|0,0:0|0:0,0:0:0:0:
0,16,135173,6,0,B|141:17|55:137|215:193|279:77,1,348.750013303757,2|0,0:0|0:0,0:0:0:0:
325,22,135517,2,0,P|252:7|212:59,1,116.250004434586,8|0,0:0|0:0,0:0:0:0:
223,352,135690,1,0,0:0:0:0:
227,363,135776,1,0,0:0:0:0:
234,372,135862,102,0,L|273:228,1,116.250004434586
278,77,136035,2,0,L|304:205,1,116.250004434586
327,342,136207,5,8,0:0:0:0:
211,145,136379,1,0,0:0:0:0:
512,262,136552,102,0,B|312:236|312:236|304:238|304:238|97:209,1,348.750013303757,2|0,0:0|0:0,0:0:0:0:
90,222,136897,2,0,P|122:284|201:285,1,116.250004434586,8|0,0:0|0:0,0:0:0:0:
136,381,137242,2,0,P|233:342|248:281,1,155,0|2,0:0|0:0,0:0:0:0:
238,280,137500,1,0,0:0:0:0:
238,280,137586,5,10,0:0:0:0:
56,152,137759,2,0,P|14:208|46:267,1,77.5,2|0,0:0|0:0,0:0:0:0:
334,384,137931,102,0,B|296:223|395:299|343:98,1,278.999991485596,6|0,0:0|0:0,0:0:0:0:
332,108,138276,1,8,0:0:0:0:
508,102,138448,2,0,P|441:151|435:183,1,69.749997871399
253,0,138621,6,0,L|268:93,1,69.749997871399
178,22,138793,2,0,L|193:115,1,69.749997871399
0,125,138966,102,0,P|74:138|143:166,1,139.499995742798,8|0,0:0|0:0,0:0:0:0:
0,363,139311,6,0,B|211:344|51:204|358:202,1,325.499990066529,2|0,0:0|0:0,0:0:0:0:
330,259,139655,102,0,L|318:304,1,31,8|0,0:0|0:0,0:0:0:0:
253,0,139828,2,0,L|261:48,1,31
461,188,140000,6,0,L|365:207,1,77.5
156,111,140173,2,0,L|281:137,1,108.499996688843
471,266,140345,102,0,P|505:146|519:-2,1,216.999993377686,8|0,0:0|0:0,0:0:0:0:
64,347,140690,6,0,B|310:333|154:203|386:204,1,372,6|0,0:0|0:0,0:0:0:0:
425,378,141035,70,0,P|395:333|309:285,1,124,8|0,0:0|0:0,0:0:0:0:
302,9,141207,2,0,P|222:124|217:164,1,124
155,248,141379,2,0,L|107:-26,1,248
50,68,141638,1,0,0:0:0:0:
42,72,141724,54,0,L|18:66,1,23.25,8|0,0:0|0:0,0:0:0:0:
0,148,142069,86,0,B|250:221|130:-9|385:48,1,418.499987228394,6|0,0:0|0:0,0:0:0:0:
512,288,142414,86,0,P|417:201|330:191,1,139.499995742798,8|0,0:0|0:0,0:0:0:0:
511,2,142586,2,0,P|437:117|415:212,1,139.499995742798
510,376,142759,2,0,L|171:302,1,278.999991485596
0,384,143104,54,0,L|17:361,1,23.25,8|0,0:0|0:0,0:0:0:0:
0,282,143448,54,0,B|292:212|66:430|461:343,1,465,6|0,0:0|0:0,0:0:0:0:
423,265,143793,2,0,P|494:158|557:107,1,155,8|0,0:0|0:0,0:0:0:0:
241,9,143966,1,0,0:0:0:0:
228,2,144052,1,0,0:0:0:0:
219,11,144138,2,0,P|272:180|267:260,1,155
315,317,144311,6,0,L|323:295,1,15.5
404,1,144483,2,0,L|337:250,1,232.500008869171,8|0,0:0|0:0,0:0:0:0:
0,181,144828,102,4,B|164:144|83:277|274:190,1,232.500008869171,2|0,0:0|0:0,0:0:0:0:
269,156,145086,1,0,0:0:0:0:
260,144,145173,1,8,0:0:0:0:
263,126,145259,1,0,0:0:0:0:
343,141,145345,21,0,0:0:0:0:
421,161,145431,1,0,0:0:0:0:
499,181,145517,2,0,P|417:192|352:215,1,116.250004434586
150,0,145690,2,0,P|170:54|182:111,1,116.250004434586
222,354,145862,2,0,L|270:85,1,232.500008869171,8|0,0:0|0:0,0:0:0:0:
512,0,146207,6,0,B|389:12|473:64|307:51,1,155,6|0,0:0|0:0,0:0:0:0:
303,24,146466,1,0,0:0:0:0:
298,13,146552,1,8,0:0:0:0:
150,0,146724,1,0,0:0:0:0:
3,191,146897,101,0,0:0:0:0:
77,221,147069,1,0,0:0:0:0:
142,178,147242,2,0,L|177:18,1,155,8|0,0:0|0:0,0:0:0:0:
501,94,147586,6,0,P|435:49|385:48,1,116.250004434586,6|0,0:0|0:0,0:0:0:0:
326,81,147931,2,0,P|332:1|347:-18,1,85.2500026016236,0|0,0:2|0:2,0:2:0:0:
199,259,148276,6,0,P|159:279|147:298,1,54.2499983444214,6|0,0:0|0:2,0:2:0:0:
158,384,148621,2,0,L|150:352,1,23.2499992904663,0|0,0:2|0:2,0:2:0:0:
152,57,148966,6,0,B|-110:39|-16:336|205:182|240:54|240:54|375:73|498:170|466:450|168:341|305:137,1,1091.20003330078,6|2,0:0|2:2,0:0:0:0:
0,150,154483,5,2,0:2:0:0:
51,201,154828,1,2,0:0:0:0:
137,215,155173,1,2,0:0:0:0:
227,161,155517,1,2,0:0:0:0:
240,46,155862,6,0,B|204:30|191:-3|191:-3|205:39|180:80,1,136.400004162598,2|2,0:0|0:0,0:0:0:0:
263,260,156552,2,0,B|230:276|214:308|214:308|227:269|212:238,1,136.400004162598,2|2,0:0|0:0,0:0:0:0:
273,175,157242,85,2,0:0:0:0:
507,124,157586,1,2,0:0:0:0:
512,138,157759,1,2,0:0:0:0:
504,166,157931,1,2,0:0:0:0:
435,197,158103,1,2,0:0:0:0:
388,131,158276,2,0,L|404:63,1,68.2000020812989,2|0,0:0|0:0,0:0:0:0:
347,0,158621,6,0,B|172:12|314:150|79:147,1,297.6,2|0,0:1|0:1,0:1:0:0:
47,108,159311,6,0,L|35:61,1,37.2000009082032,0|0,0:1|0:1,0:1:0:0:
103,35,159655,2,0,L|114:-2,1,37.2000009082032,0|0,0:1|0:1,0:1:0:0:
12,252,160000,86,0,B|-8:434|218:348|70:216,1,297.6,2|0,0:1|0:1,0:1:0:0:
86,231,160690,2,0,P|123:251|145:253,1,52.7000003216553,2|0,0:1|0:1,0:1:0:0:
187,53,161035,2,0,P|224:33|246:31,1,52.7000003216553,2|0,0:1|0:1,0:1:0:0:
297,77,161379,5,2,0:1:0:0:
512,216,161724,1,2,0:1:0:0:
501,220,161896,1,2,0:1:0:0:
440,175,162069,1,2,0:1:0:0:
368,208,162241,1,2,0:1:0:0:
375,287,162414,2,0,L|391:353,1,52.7000003216553,2|0,0:1|0:1,0:1:0:0:
324,384,162759,6,0,L|92:353,1,201.499990776062,2|0,0:1|0:1,0:1:0:0:
101,144,163448,85,2,0:3:0:0:
222,165,163621,1,2,0:3:0:0:
245,51,163793,2,0,L|259:-23,1,51.1499998439026,2|0,0:3|0:3,0:3:0:0:
511,223,164138,6,0,B|434:279|336:229|389:132|292:86|190:190,1,339.450009323273,2|0,0:1|0:1,0:1:0:0:
221,164,164828,6,0,P|206:227|215:252,1,66.6500010169983,2|0,0:1|0:1,0:1:0:0:
41,59,165173,2,0,P|29:28|6:5,1,66.6500010169983,2|0,0:1|0:1,0:1:0:0:
0,155,165517,86,0,L|80:133,1,66.6500010169983,2|0,0:1|0:1,0:1:0:0:
131,177,165862,1,2,0:1:0:0:
198,139,166035,1,2,0:1:0:0:
236,28,166207,5,2,0:2:0:0:
366,0,166379,1,2,0:2:0:0:
465,106,166552,2,0,L|440:179,1,66.6500010169983,2|2,0:2|0:2,0:2:0:0:
512,365,166897,6,0,B|397:422|185:358|327:123|420:307,1,385.950005594673,2|0,0:1|0:1,0:1:0:0:
457,309,167586,85,2,0:1:0:0:
512,243,167759,1,2,0:1:0:0:
494,138,167931,1,2,0:1:0:0:
360,35,168104,1,2,0:1:0:0:
144,111,168276,6,0,B|208:159|239:275|239:275|221:159|297:60,1,385.950005594673,2|0,0:1|0:1,0:1:0:0:
195,0,168966,2,0,P|195:43|219:77,1,66.6500010169983,2|0,0:1|0:1,0:1:0:0:
381,176,169311,2,0,P|344:196|303:200,1,66.6500010169983,2|0,0:1|0:1,0:1:0:0:
0,308,169655,6,0,B|95:304|26:378|155:374,1,146.474995529938,2|0,0:1|0:1,0:1:0:0:
134,368,170000,69,2,0:1:0:0:
195,316,170173,1,2,0:1:0:0:
151,251,170345,1,2,0:1:0:0:
315,127,170517,1,2,0:1:0:0:
470,244,170689,2,0,L|445:358,1,97.6499970199586,2|0,0:1|0:1,0:1:0:0:
512,89,171035,6,0,B|451:116|361:116|413:-14|241:57,1,292.949991059876,2|0,0:1|0:1,0:1:0:0:
24,3,171724,5,2,0:1:0:0:
0,73,171897,1,0,0:1:0:0:
24,3,172069,2,0,P|63:38|53:125,1,128.650001864891,0|0,0:1|0:1,0:1:0:0:
38,272,172414,6,0,B|-37:293|-32:387|46:410|141:354|98:180|263:157|313:407|83:372,1,465,2|0,0:1|0:1,0:1:0:0:
94,212,173104,2,0,P|52:154|-6:97,1,124,2|0,0:1|0:1,0:1:0:0:
303,2,173448,2,0,P|264:80|240:157,1,124,2|0,0:1|0:1,0:1:0:0:
266,372,173793,86,0,B|377:390|411:286|383:226,1,186,2|0,0:1|0:1,0:1:0:0:
381,262,174138,5,2,0:1:0:0:
460,315,174311,1,2,0:1:0:0:
512,124,174483,1,2,0:1:0:0:
360,80,174655,1,2,0:1:0:0:
316,232,174828,2,0,P|234:246|182:275,1,124,2|0,0:1|0:1,0:1:0:0:
125,102,175173,6,0,B|46:129|-9:38|-9:38|53:-6|171:-20|282:50|239:233,1,511.500015609742,2|0,0:1|0:1,0:1:0:0:
422,122,175862,85,2,0:1:0:0:
370,295,176035,1,2,0:1:0:0:
512,384,176207,2,0,P|472:361|372:357,1,85.2500026016236,2|2,0:1|0:1,0:1:0:0:
336,176,176379,2,0,P|304:193|241:202,1,85.2500026016236,2|0,0:1|0:1,0:1:0:0:
5,289,176552,6,0,B|-60:332|-21:411|96:413|94:292|71:247|71:247|138:150|287:188|298:266|210:359|147:308|107:218|107:218,1,590.549995494461,2|0,0:1|0:1,0:1:0:0:
21,187,177242,6,0,B|34:163|10:114|10:114|51:154|108:146,1,155,2|0,0:1|0:1,0:1:0:0:
275,113,177586,2,0,B|267:80|296:19|296:19|246:69|174:58,1,206.149991506882,2|0,0:1|0:1,0:1:0:0:
512,384,177931,86,0,B|333:349|492:234|307:176,1,295.274997747231,2|0,0:1|0:1,0:1:0:0:
321,195,178276,1,2,0:1:0:0:
85,384,178448,1,2,0:1:0:0:
314,287,178621,6,0,L|190:315,1,98.4249992490768,2|0,0:1|0:1,0:1:0:0:
14,152,178793,2,0,L|134:186,1,98.4249992490768,2|0,0:1|0:1,0:1:0:0:
145,258,178966,2,0,B|277:168|276:60|153:29|159:157,1,295.274997747231,2|0,0:1|0:1,0:1:0:0:
144,337,179311,53,6,0:1:0:0:
505,157,180000,37,2,0:1:0:0:
461,217,180173,1,2,0:1:0:0:
401,174,180345,2,0,L|414:116,1,54.2499983444214,2|2,0:1|0:1,0:1:0:0:
339,378,180690,6,0,L|326:252,1,108.499996688843,2|0,0:1|0:1,0:1:0:0:
505,157,181379,5,2,0:1:0:0:
265,105,181552,1,2,0:1:0:0:
222,167,181724,1,2,0:1:0:0:
0,125,181897,1,2,0:1:0:0:
19,373,182069,6,0,B|59:325|35:219|35:219|75:318|173:332,1,310,6|0,0:1|0:0,0:0:0:0:
491,364,182759,85,0,0:1:0:0:
497,285,182931,1,0,0:1:0:0:
373,236,183104,1,0,0:1:0:0:
258,310,183276,1,0,0:1:0:0:
291,381,183448,1,0,0:1:0:0:
508,109,184138,5,2,0:2:0:0:
489,95,184311,1,2,0:2:0:0:
466,91,184483,1,2,0:2:0:0:
443,97,184656,1,2,0:2:0:0:
423,108,184828,6,0,L|167:58,1,232.500008869171,6|0,0:1|0:0,0:0:0:0:
3,232,185517,53,2,0:1:0:0:
68,269,185689,1,2,0:1:0:0:
138,237,185862,1,2,0:1:0:0:
151,227,186034,1,2,0:1:0:0:
166,231,186207,86,0,B|288:256|288:256|289:261|289:261|457:296,1,294.499992136002,6|0,0:1|0:0,0:0:0:0:
510,4,186897,53,2,0:0:0:0:
448,120,187069,1,2,0:0:0:0:
325,65,187242,1,2,0:0:0:0:
272,114,187415,1,2,0:0:0:0:
198,94,187587,54,0,B|289:184|255:343|-52:386|41:158|159:198,1,441.749988204003,6|0,0:1|0:0,0:0:0:0:
242,221,188276,22,0,L|287:205,1,46.5,6|0,0:1|0:0,0:0:0:0:
512,100,188966,86,0,B|426:69|358:186|358:186|429:89|465:-107|205:-7|270:94|394:130,1,534.750010199547,6|0,0:1|0:0,0:0:0:0:
370,261,189655,22,0,L|381:307,1,46.5,6|0,0:1|0:0,0:0:0:0:
72,114,190345,54,0,B|24:150|-6:125|-6:125|27:61|-3:8|-3:8|82:39|82:39|88:36|88:36|91:43|91:43|212:86|212:86|106:145|123:234|123:234|116:242|116:242|228:249|253:148,1,813.7500310421,6|0,0:1|0:0,0:0:0:0:
241,12,191724,22,0,L|348:-4,1,58.1250022172929
366,37,192069,1,0,0:0:0:0:
365,40,192155,1,0,0:0:0:0:
364,43,192242,1,0,0:0:0:0:
363,46,192328,1,0,0:0:0:0:
342,117,192414,21,10,0:0:0:0:
405,214,193104,54,0,B|532:242|532:242|490:169|490:169|481:169|481:169|448:115|448:115|351:146|351:146|342:139|342:139|340:149|340:149|283:170|283:170|356:258|297:331|297:331|220:355|220:355|214:351|214:351|153:371|153:371|90:355|100:249|100:249|91:325|162:342,1,1030.74997247601,2|0,0:1|0:0,0:0:0:0:
173,265,194483,22,0,L|270:269,1,74.4
299,327,194828,1,0,0:0:0:0:
303,326,194914,1,0,0:0:0:0:
307,325,195000,1,0,0:0:0:0:
311,324,195086,1,0,0:0:0:0:
373,280,195173,21,10,0:0:0:0:
512,119,195862,86,0,B|366:83|445:207|250:140,1,232.500008869171,6|0,0:0|0:0,0:0:0:0:
348,81,196379,1,0,0:0:0:0:
249,256,196552,2,0,P|214:194|166:148,1,116.250004434586,2|0,0:0|0:0,0:0:0:0:
298,0,196897,86,0,P|283:25|266:48,1,58.1250022172929
385,273,197069,2,0,P|370:249|359:217,1,58.1250022172929
348,81,197242,21,2,0:0:0:0:
4,279,197586,85,0,0:0:0:0:
75,246,197759,1,0,0:0:0:0:
137,293,197931,1,0,0:0:0:0:
137,293,198104,1,0,0:0:0:0:
137,293,198276,1,0,0:0:0:0:
137,293,198448,1,0,0:0:0:0:
179,384,198621,22,0,B|163:266|163:266|166:260|166:260|146:113,1,232.500008869171,2|0,0:0|0:0,0:0:0:0:
83,201,199138,1,0,0:0:0:0:
0,61,199311,2,0,L|134:93,1,116.250004434586
350,16,199655,85,0,0:0:0:0:
303,20,199742,1,0,0:0:0:0:
266,48,199828,1,0,0:0:0:0:
247,90,199914,1,0,0:0:0:0:
251,136,200000,1,2,0:0:0:0:
494,375,200345,21,0,0:0:0:0:
437,313,200517,1,0,0:0:0:0:
512,306,200690,86,0,B|485:291|485:291|449:290,1,58.1250022172929
324,256,200862,1,0,0:0:0:0:
248,384,201035,21,0,0:0:0:0:
182,331,201207,1,0,0:0:0:0:
0,384,201379,86,0,B|141:359|43:277|215:226,1,232.500008869171,2|0,0:0|0:0,0:0:0:0:
129,176,201897,1,0,0:0:0:0:
177,114,202069,2,0,L|196:-10,1,116.250004434586,2|0,0:0|0:0,0:0:0:0:
268,28,202414,22,0,L|345:6,1,58.1250022172929
512,140,202586,2,0,L|446:118,1,58.1250022172929
413,64,202759,86,0,B|437:189|377:110|411:287,1,174.375006651879,2|0,0:0|0:0,0:0:0:0:
414,243,203104,1,0,0:0:0:0:
365,312,203276,1,0,0:0:0:0:
285,289,203448,21,0,0:0:0:0:
285,289,203621,1,0,0:0:0:0:
78,384,203793,1,0,0:0:0:0:
78,384,203966,1,0,0:0:0:0:
126,322,204138,86,0,B|100:284|100:284|128:93,1,232.500008869171,2|0,0:0|0:0,0:0:0:0:
54,0,204655,1,0,0:0:0:0:
0,58,204828,2,0,L|23:189,1,116.250004434586
181,259,205173,21,0,0:0:0:0:
223,276,205259,1,0,0:0:0:0:
269,272,205345,1,0,0:0:0:0:
306,244,205431,1,0,0:0:0:0:
320,200,205517,1,2,0:0:0:0:
509,2,205862,85,0,0:0:0:0:
439,35,206035,1,0,0:0:0:0:
430,113,206207,22,0,B|397:114|397:114|352:84,1,58.1250022172929
230,36,206379,1,0,0:0:0:0:
84,146,206552,86,0,B|54:146|54:146|24:162,1,58.1250022172929
20,151,206724,1,0,0:0:0:0:
0,54,206897,22,0,L|153:77,1,127.875003902435,14|0,0:3|0:0,0:0:0:0:
138,67,207242,1,0,0:0:0:0:
192,123,207414,1,0,0:0:0:0:
263,9,207586,85,8,0:3:0:0:
212,201,207759,1,0,0:0:0:0:
281,152,207931,2,0,L|301:99,1,42.6250013008118
356,183,208104,2,0,L|377:129,1,42.6250013008118
512,0,208276,22,0,P|457:24|433:106,1,127.875003902435,10|0,0:3|0:0,0:0:0:0:
439,93,208621,1,0,0:0:0:0:
466,171,208793,1,0,0:0:0:0:
412,233,208966,85,8,0:3:0:0:
497,383,209138,1,0,0:0:0:0:
367,297,209310,1,0,0:0:0:0:
395,371,209483,1,0,0:0:0:0:
297,270,209655,22,0,B|206:277|273:302|159:309,1,127.875003902435,10|0,0:3|0:0,0:0:0:0:
164,302,210000,1,0,0:0:0:0:
0,276,210173,1,0,0:0:0:0:
68,384,210345,85,8,0:3:0:0:
109,156,210517,1,0,0:0:0:0:
17,62,210690,1,0,0:0:0:0:
17,62,210776,1,0,0:0:0:0:
17,62,210862,1,0,0:0:0:0:
17,62,210948,1,0,0:0:0:0:
17,62,211035,22,0,B|132:45|132:45|136:41|136:41|156:41|156:41|300:19,1,220.874994102001,10|0,0:3|0:0,0:0:0:0:
246,40,211379,85,0,0:0:0:0:
501,108,211552,1,0,0:0:0:0:
340,6,211724,21,8,0:3:0:0:
357,83,211897,1,0,0:0:0:0:
512,190,212069,1,0,0:0:0:0:
495,267,212242,1,0,0:0:0:0:
293,345,212414,86,0,L|141:319,1,116.250004434586,10|0,0:3|0:0,0:0:0:0:
113,372,212759,1,8,0:3:0:0:
113,372,213104,21,8,0:3:0:0:
185,107,213276,1,0,0:0:0:0:
75,125,213448,85,8,0:3:0:0:
93,131,213535,1,0,0:0:0:0:
90,118,213621,1,0,0:0:0:0:
81,135,213707,1,0,0:0:0:0:
92,205,213793,22,0,L|126:18,1,178.250003399849,10|0,0:3|0:0,0:0:0:0:
197,3,214138,1,8,0:3:0:0:
197,3,214483,85,8,0:3:0:0:
255,160,214655,1,0,0:0:0:0:
375,11,214828,1,8,0:3:0:0:
309,251,215000,1,0,0:0:0:0:
457,0,215173,5,14,0:3:0:0:
134,6,215345,86,0,P|64:73|70:132,1,112.375003429413,8|0,0:3|0:3,0:3:0:0:
38,61,215518,2,0,P|57:123|132:151,1,96.875,8|0,0:3|0:3,0:3:0:0:
51,149,215690,2,0,P|112:169|157:147,1,81.3749975166322,8|0,0:3|0:3,0:3:0:0:
113,189,215863,2,0,P|166:160|178:123,1,65.8750012564659,8|0,0:3|0:3,0:3:0:0:
176,180,216035,2,0,P|192:152|189:117,1,50.3749976940156,8|0,0:3|0:3,0:3:0:0:
205,147,216207,2,0,P|212:122|224:104,1,34.8749989356995,8|0,0:3|0:3,0:3:0:0:
229,117,216380,2,0,P|242:96|248:91,1,19.375,8|0,0:3|0:3,0:3:0:0:
242,111,216552,69,12,0:3:0:0:
260,108,216638,1,8,0:3:0:0:
287,109,216724,1,8,0:3:0:0:
318,132,216811,1,8,0:3:0:0:
357,168,216897,1,8,0:3:0:0:
434,173,216983,1,8,0:3:0:0:
494,114,217069,1,8,0:3:0:0:
473,31,217155,1,8,0:3:0:0:
384,0,217242,102,8,L|401:91,1,92.9999971618653,12|10,0:3|0:3,0:3:0:0:
509,265,217414,2,8,L|490:356,1,92.9999971618653,10|10,0:3|0:3,0:0:0:0:
370,375,217586,102,0,L|318:386,2,46.4999985809327,2|0|0,0:0|0:0|0:0,0:0:0:0:
494,114,217759,1,2,0:0:0:0:
242,0,217931,86,0,B|225:133|225:133|230:144|230:144|223:151|223:151|191:362,1,348.750013303757,6|0,0:0|0:0,0:0:0:0:
188,301,218276,2,0,L|210:159,1,116.250004434586,8|0,0:0|0:0,0:0:0:0:
10,39,218448,5,0,0:0:0:0:
0,48,218535,1,0,0:0:0:0:
3,65,218621,1,2,0:0:0:0:
80,52,218707,37,0,0:0:0:0:
157,39,218793,2,0,L|154:12,1,15.5,8|0,0:0|0:0,0:0:0:0:
494,114,218966,53,0,0:0:0:0:
499,82,219052,1,0,0:0:0:0:
472,94,219138,1,0,0:0:0:0:
77,201,219311,6,0,B|-12:147|-12:147|154:181|154:181|159:176|159:176|168:183|168:183|296:209,1,406.875003880262,2|0,0:0|0:0,0:0:0:0:
292,193,219655,1,8,0:0:0:0:
432,22,219828,2,0,P|386:80|444:171,1,135.625001293421
419,367,220000,102,0,P|497:299|337:288,1,348.750013303757,2|0,0:2|0:2,0:2:0:0:
232,384,220345,2,0,B|256:213|256:213|253:205|253:205|281:-4,1,348.750013303757,10|0,0:2|0:2,0:2:0:0:
512,0,220690,6,0,B|511:84|435:107|435:107|421:103|421:103|422:115|422:115|319:140|350:328,1,348.750013303757,2|0,0:0|0:0,0:0:0:0:
353,337,221035,2,0,B|396:334|425:365|425:365|401:339|427:230,1,162.749995033264,8|0,0:0|0:0,0:0:0:0:
307,97,221207,101,0,0:0:0:0:
294,94,221293,1,0,0:0:0:0:
304,86,221379,1,2,0:2:0:0:
299,104,221466,1,0,0:0:0:0:
317,12,221552,5,0,0:0:0:0:
242,32,221638,1,0,0:0:0:0:
218,108,221724,2,0,L|260:351,1,232.500008869171,8|0,0:0|0:0,0:0:0:0:
162,384,222069,101,2,0:0:0:0:
512,302,222242,1,0,0:0:0:0:
465,242,222328,1,0,0:0:0:0:
393,269,222414,6,0,B|154:205|308:358|10:242,1,372,8|0,0:0|0:0,0:0:0:0:
0,181,222759,1,2,0:2:0:0:
1,162,222845,1,0,0:0:0:0:
11,150,222931,1,0,0:0:0:0:
0,384,223104,102,0,L|202:349,1,155,10|0,0:2|0:2,0:2:0:0:
512,0,223448,6,0,P|351:45|105:243,1,465,2|0,0:0|0:0,0:0:0:0:
118,225,223793,2,0,P|136:208|124:215,1,131.750002512932,8|0,0:0|0:0,0:0:0:0:
27,22,223966,101,0,0:0:0:0:
15,13,224052,1,0,0:0:0:0:
0,24,224138,1,2,0:0:0:0:
15,102,224224,53,0,0:0:0:0:
32,181,224311,2,0,L|56:179,1,15.5,8|0,0:0|0:0,0:0:0:0:
273,20,224483,53,0,0:0:0:0:
245,0,224569,1,0,0:0:0:0:
239,33,224655,1,0,0:0:0:0:
422,288,224828,6,0,B|497:302|499:373|499:373|507:377|507:377|325:410|282:178,1,395.250007538796,2|0,0:0|0:0,0:0:0:0:
310,251,225173,1,8,0:0:0:0:
360,134,225345,2,0,L|385:252,1,77.5
235,348,225517,102,0,P|258:125|398:-47,1,395.250007538796,2|0,0:2|0:2,0:2:0:0:
128,384,225862,2,0,P|54:252|40:-14,1,395.250007538796,10|0,0:2|0:2,0:2:0:0:
109,34,226207,6,0,B|261:-29|365:65|365:65|364:136|439:165,1,395.250007538796,2|0,0:0|0:0,0:0:0:0:
444,80,226552,2,0,B|494:39|485:0|485:0|443:39|473:93,1,131.750002512932,8|0,0:0|0:0,0:0:0:0:
152,328,226724,1,0,0:0:0:0:
145,318,226811,1,0,0:0:0:0:
133,322,226897,102,0,B|122:340|122:340|200:363|269:213,1,131.750002512932,2|0,0:2|0:2,0:2:0:0:
363,67,227069,2,0,P|304:97|337:175,1,131.750002512932
457,371,227242,2,0,B|440:258|343:155|200:190|200:190|273:303,1,395.250007538796,8|0,0:2|0:0,0:0:0:0:
287,268,227586,5,2,0:0:0:0:
496,45,227759,1,0,0:0:0:0:
501,58,227845,1,0,0:0:0:0:
500,74,227931,102,0,P|431:115|390:77,1,92.9999971618653,8|0,0:0|0:0,0:0:0:0:
282,0,228104,2,0,P|368:23|344:133,1,124
291,384,228276,6,0,P|416:208|523:183,1,325.499990066529,2|0,0:2|0:2,0:2:0:0:
512,183,228621,102,0,P|483:289|365:325,1,216.999993377686,10|0,0:2|0:2,0:2:0:0:
0,114,228966,6,0,B|290:185|74:55|428:132,1,418.499987228394,6|0,0:0|0:0,0:0:0:0:
384,139,229311,2,0,L|251:116,1,116.250004434586,8|0,0:0|0:0,0:0:0:0:
10,11,229483,101,0,0:0:0:0:
0,24,229569,1,0,0:0:0:0:
7,42,229655,1,2,0:1:0:0:
87,34,229742,53,0,0:0:0:0:
167,26,229828,2,0,L|161:48,1,15.5,8|0,0:0|0:0,0:0:0:0:
114,353,230000,53,0,0:0:0:0:
130,338,230086,1,0,0:0:0:0:
110,335,230173,1,0,0:0:0:0:
512,201,230345,6,0,B|466:36|287:103|287:103|360:127|359:198,1,372,2|0,0:0|0:0,0:0:0:0:
260,255,230690,102,0,L|288:151,1,77.5,8|0,0:0|0:0,0:0:0:0:
263,14,230862,2,0,L|265:30,1,15.5
270,345,231035,6,0,B|248:389|248:389|462:352|415:92,1,348.750013303757,2|0,0:2|0:2,0:2:0:0:
481,111,231379,2,0,B|526:71|496:0|377:-4|307:123|317:169|356:257,1,348.750013303757,10|0,0:2|0:2,0:2:0:0:
427,384,231724,101,2,0:0:0:0:
179,265,231897,5,0,0:0:0:0:
186,275,231983,1,0,0:0:0:0:
181,283,232069,1,8,0:0:0:0:
104,298,232155,1,0,0:0:0:0:
26,318,232242,2,0,P|70:266|61:190,1,116.250004434586
42,94,232414,101,2,0:2:0:0:
35,47,232501,1,0,0:0:0:0:
0,79,232587,1,0,0:0:0:0:
30,71,232673,5,0,0:0:0:0:
30,71,232759,2,0,B|200:30|55:130|305:58,1,232.500008869171,10|0,0:2|0:0,0:0:0:0:
512,0,233104,101,2,0:0:0:0:
234,188,233276,5,0,0:0:0:0:
218,210,233362,1,0,0:0:0:0:
223,236,233448,1,8,0:0:0:0:
301,221,233535,1,0,0:0:0:0:
378,207,233621,2,0,P|432:123|363:58,1,116.250004434586
338,0,233793,101,2,0:2:0:0:
349,51,233879,1,0,0:2:0:0:
386,16,233966,1,0,0:2:0:0:
360,27,234052,5,0,0:2:0:0:
360,27,234138,2,0,L|363:54,1,23.2499992904663,10|0,0:2|0:2,0:2:0:0:
347,308,234483,102,0,B|141:361|280:217|-27:308,1,348.750013303757,6|0,0:0|0:0,0:0:0:0:
25,311,234828,2,0,B|209:276,1,116.250004434586,8|0,0:0|0:0,0:0:0:0:
146,58,235000,1,0,0:0:0:0:
157,54,235086,1,0,0:0:0:0:
164,64,235173,6,0,L|134:226,1,116.250004434586,2|0,0:0|0:0,0:0:0:0:
15,17,235345,2,0,L|13:-3,1,15.5
208,230,235517,102,0,B|303:346|502:264|429:39|257:191|290:255,1,348.750013303757,10|0,0:0|0:0,0:0:0:0:
307,199,235862,5,2,0:0:0:0:
507,81,236035,1,0,0:0:0:0:
511,93,236121,1,0,0:0:0:0:
502,102,236207,101,8,0:0:0:0:
429,84,236293,1,0,0:0:0:0:
353,64,236379,2,0,B|355:22|355:22|436:-35,1,77.5
491,293,236552,5,0,0:0:0:0:
452,277,236638,1,0,0:0:0:0:
487,248,236724,1,0,0:0:0:0:
477,272,236811,101,0,0:0:0:0:
477,272,236897,2,0,B|343:244|428:374|186:261,1,232.500008869171,8|0,0:0|0:0,0:0:0:0:
91,0,237242,6,0,L|161:364,1,348.750013303757,6|0,0:0|0:0,0:0:0:0:
83,383,237586,102,0,L|52:379,1,31,8|0,0:0|0:0,0:0:0:0:
64,304,237759,2,0,L|54:265,1,31
217,265,237931,6,0,P|292:276|363:216,1,116.250004434586
410,0,238104,2,0,P|431:52|419:108,1,116.250004434586
512,265,238276,102,0,B|302:270|442:118|250:59|177:138,1,348.750013303757,8|0,0:0|0:0,0:0:0:0:
4,244,238621,86,0,B|54:182|4:19|4:19|70:193|194:186,1,461.125008795262,2|0,0:0|0:0,0:0:0:0:
109,266,239311,6,0,P|107:282|105:262,1,70.5249995695496,2|0,0:0|0:0,0:0:0:0:
74,362,240000,69,6,0:0:0:0:
503,300,240345,101,8,0:0:0:0:
452,283,240431,1,0,0:0:0:0:
462,335,240517,1,2,0:0:0:0:
473,310,240604,101,0,0:0:0:0:
473,310,240690,2,0,L|402:293,1,42.6250013008118,2|0,0:0|0:0,0:0:0:0:
338,384,240862,2,0,L|363:246,1,116.250004434586,8|0,0:0|0:0,0:0:0:0:
392,3,241035,85,2,0:0:0:0:
406,107,241121,1,0,0:0:0:0:
421,212,241207,1,0,0:0:0:0:
0,115,241379,22,0,B|159:129|35:192|241:192,1,232.5,2|0,0:0|0:0,0:0:0:0:
219,181,241724,1,8,0:0:0:0:
499,1,241983,5,2,0:0:0:0:
512,0,242069,2,0,P|486:81|460:196,1,155,2|0,0:0|0:0,0:0:0:0:
512,222,242328,1,0,0:0:0:0:
512,222,242414,2,0,P|416:162|344:142,1,155,8|0,0:0|0:0,0:0:0:0:
304,201,242759,5,2,0:0:0:0:
2,372,243104,101,8,0:0:0:0:
49,352,243190,1,0,0:0:0:0:
7,323,243276,1,0,0:0:0:0:
19,349,243362,5,0,0:0:0:0:
19,349,243448,2,0,P|76:314|116:321,1,77.5,2|0,0:0|0:0,0:0:0:0:
95,238,243621,2,0,P|155:287|153:357,1,116.250004434586,8|0,0:0|0:0,0:0:0:0:
250,175,243793,85,0,0:0:0:0:
236,279,243879,1,0,0:0:0:0:
221,384,243965,1,0,0:0:0:0:
512,384,244138,22,0,P|425:347|408:254,1,155
506,64,244483,2,0,L|264:113,1,232.5,8|2,0:0|0:0,0:0:0:0:
278,110,244828,102,0,P|294:26|294:-16,1,124,2|0,0:0|0:0,0:0:0:0:
403,295,245173,2,0,B|408:380|323:407|264:328|335:266,1,232.5,8|2,0:0|0:0,0:0:0:0:
390,217,245517,5,2,0:0:0:0:
2,43,245862,101,8,0:0:0:0:
45,35,245948,1,0,0:0:0:0:
14,0,246035,1,0,0:0:0:0:
22,24,246121,5,0,0:0:0:0:
22,24,246207,2,0,B|-5:86|36:54|-2:139,1,92.9999971618653,2|0,0:0|0:0,0:0:0:0:
0,194,246379,2,0,L|183:151,1,116.250004434586,8|0,0:0|0:0,0:0:0:0:
231,0,246552,85,0,0:0:0:0:
217,104,246638,1,0,0:0:0:0:
202,209,246724,1,0,0:0:0:0:
508,317,246897,22,0,B|381:357|419:266|280:301,1,232.500008869171,2|0,0:0|0:0,0:0:0:0:
272,313,247242,1,8,0:0:0:0:
29,351,247414,1,0,0:0:0:0:
39,346,247500,1,0,0:2:0:0:
45,326,247586,1,2,0:0:0:0:
37,294,247673,1,0,0:0:0:0:
13,253,247759,1,0,0:2:0:0:
31,197,247845,1,0,0:0:0:0:
93,163,247931,2,0,L|281:199,1,155,8|0,0:0|0:0,0:0:0:0:
512,0,248276,54,0,B|404:134|404:134|403:144|403:144|246:330,1,372,6|0,0:0|0:0,0:0:0:0:
281,289,248621,2,0,P|319:309|285:282,1,124,8|0,0:0|0:0,0:0:0:0:
208,115,248793,2,0,L|161:0,1,124
255,384,248966,6,0,L|286:138,1,248,6|0,0:0|0:0,0:0:0:0:
297,61,249224,1,0,0:0:0:0:
297,61,249311,1,8,0:0:0:0:
512,316,249483,2,0,L|329:248,1,124
0,384,249655,102,0,L|283:122,1,278.999991485596,6|0,0:0|0:0,0:0:0:0:
161,0,249914,1,0,0:0:0:0:
161,0,250000,2,0,L|127:166,1,139.499995742798,8|0,0:0|0:0,0:0:0:0:
180,342,250173,5,0,0:0:0:0:
224,357,250259,1,8,0:3:0:0:
215,310,250345,1,6,0:0:0:0:
210,338,250431,101,0,0:0:0:0:
211,338,250517,2,0,L|337:312,1,100.749995388031,10|0,0:1|0:1,0:1:0:0:
362,382,250690,38,0,P|425:288|484:236,1,147.249996068001,10|0,0:1|0:0,0:0:0:0:
360,0,250862,2,0,P|397:63|446:117,1,147.249996068001,10|0,0:3|0:0,0:0:0:0:
512,195,251035,85,4,0:0:0:0:
213,80,251207,22,0,L|180:125,1,38.75,2|0,0:0|0:0,0:0:0:0:
72,184,251379,1,10,0:0:0:0:
120,200,251466,1,0,0:0:0:0:
108,151,251552,1,2,0:0:0:0:
101,177,251638,5,0,0:0:0:0:
101,177,251724,2,0,L|145:170,1,31,2|0,0:0|0:0,0:0:0:0:
282,0,251897,2,0,L|298:75,1,77.5,8|0,0:0|0:0,0:0:0:0:
1,256,252069,85,0,0:0:0:0:
110,276,252155,1,0,0:0:0:0:
219,296,252242,1,0,0:0:0:0:
501,88,252414,21,0,0:0:0:0:
349,229,252586,1,2,0:0:0:0:
512,174,252759,2,0,B|396:188|490:228|303:217,1,155,10|0,0:0|0:0,0:0:0:0:
322,161,253017,1,0,0:0:0:0:
327,149,253104,1,0,0:0:0:0:
267,99,253276,1,2,0:0:0:0:
267,99,253448,2,0,L|124:121,1,116.250004434586,10|0,0:0|0:0,0:0:0:0:
94,328,253793,101,2,0:0:0:0:
152,272,253966,2,0,L|181:269,1,19.375,2|0,0:0|0:0,0:0:0:0:
398,360,254138,5,10,0:0:0:0:
445,345,254225,1,0,0:0:0:0:
408,309,254311,1,2,0:0:0:0:
421,339,254397,85,0,0:0:0:0:
421,339,254483,2,0,L|439:315,1,19.375,2|0,0:0|0:0,0:0:0:0:
512,207,254655,2,0,L|292:258,1,116.250004434586,8|0,0:0|0:0,0:0:0:0:
382,0,254828,85,0,0:0:0:0:
355,108,254914,1,0,0:0:0:0:
328,216,255000,2,0,L|313:272,2,42.6250013008118,2|2|2,0:0|0:0|0:0,0:0:0:0:
493,133,255345,21,0,0:0:0:0:
476,55,255517,1,8,0:0:0:0:
284,229,255690,85,0,0:0:0:0:
272,240,255776,1,0,0:0:0:0:
244,255,255862,1,2,0:0:0:0:
201,257,255948,1,0,0:0:0:0:
148,224,256035,1,0,0:0:0:0:
137,160,256121,1,0,0:0:0:0:
82,114,256207,2,0,P|23:131|20:234,1,116.250004434586,10|0,0:0|0:0,0:0:0:0:
262,0,256552,21,2,0:0:0:0:
219,180,256724,1,0,0:0:0:0:
219,180,256811,1,0,0:0:0:0:
219,180,256897,6,0,L|231:133,1,38.75,10|0,0:2|0:0,0:0:0:0:
144,214,257242,6,0,B|191:301|179:383|179:383|199:303|274:241,1,348.750013303757,2|0,0:2|0:0,0:0:0:0:
332,288,257586,6,0,L|457:315,1,116.250004434586,8|0,0:0|0:0,0:0:0:0:
510,253,257931,37,2,0:0:0:0:
417,142,258104,1,0,0:0:0:0:
479,94,258276,1,8,0:0:0:0:
346,111,258448,37,0,0:0:0:0:
333,121,258535,1,0,0:0:0:0:
314,126,258621,1,2,0:0:0:0:
283,98,258707,1,0,0:0:0:0:
243,89,258793,1,0,0:0:0:0:
203,97,258879,1,0,0:0:0:0:
174,125,258966,2,0,L|46:109,1,116.250004434586,8|0,0:0|0:0,0:0:0:0:
0,320,259311,102,0,B|128:277|96:383|245:321,1,232.5,2|0,0:0|0:0,0:0:0:0:
231,318,259655,1,8,0:0:0:0:
203,241,259828,37,0,0:0:0:0:
216,230,259914,1,0,0:0:0:0:
247,228,260000,1,0,0:0:0:0:
285,243,260086,1,0,0:0:0:0:
309,297,260173,1,0,0:0:0:0:
376,332,260259,1,0,0:0:0:0:
451,313,260345,2,0,L|477:135,1,155,8|0,0:0|0:0,0:0:0:0:
502,6,260690,69,6,0:0:0:0:
339,110,260862,1,0,0:0:0:0:
331,156,260948,1,0,0:0:0:0:
374,141,261035,1,8,0:0:0:0:
239,125,261207,86,0,L|145:149,1,77.5
4,189,261379,1,6,0:0:0:0:
259,43,261552,85,8,0:0:0:0:
55,286,261724,1,0,0:0:0:0:
52,335,261811,1,0,0:0:0:0:
95,313,261897,1,0,0:0:0:0:
124,0,262069,53,6,0:0:0:0:
22,56,262242,2,0,L|76:46,2,46.4999985809327
191,34,262759,5,0,0:0:0:0:
265,66,262931,1,0,0:0:0:0:
322,9,263104,1,0,0:0:0:0:
287,141,263276,1,0,0:0:0:0:
346,82,263448,5,0,0:0:0:0:
346,241,263621,1,0,0:0:0:0:
483,162,263793,1,0,0:0:0:0:
392,161,263966,21,0,0:0:0:0:
131,335,264138,69,0,0:0:0:0:
442,228,264311,1,0,0:0:0:0:
194,12,264483,1,8,0:1:0:0:
253,193,264655,85,0,0:0:0:0:
0,110,264828,22,0,B|158:71|81:167|243:109,1,232.500008869171,6|2,0:0|0:0,0:0:0:0:
450,52,265173,1,10,0:0:0:0:
304,15,265345,1,2,0:0:0:0:
346,161,265517,1,2,0:0:0:0:
369,76,265690,1,10,0:0:0:0:
387,381,265862,102,0,L|432:139,2,232.500008869171,2|2|10,0:0|0:0|0:0,0:0:0:0:
450,52,266379,1,2,0:0:0:0:
490,330,266552,1,2,0:0:0:0:
332,229,266724,1,10,0:0:0:0:
270,285,266897,53,2,0:0:0:0:
270,285,267069,2,0,L|175:308,1,62,2|0,0:0|0:0,0:0:0:0:
174,384,267242,2,0,B|140:327|44:322,1,124,2|2,0:0|0:0,0:0:0:0:
0,251,267586,54,0,P|132:198|188:59,1,232.500008869171,2|2,0:0|0:0,0:0:0:0:
194,2,267931,1,10,0:0:0:0:
332,229,268104,2,0,L|287:-32,2,232.500008869171,2|2|10,0:0|0:0|0:0,0:0:0:0:
502,3,268621,85,2,0:0:0:0:
410,335,268793,1,2,0:0:0:0:
394,112,268966,1,10,0:0:0:0:
508,353,269138,21,2,0:0:0:0:
332,229,269311,1,2,0:0:0:0:
151,373,269483,1,10,0:0:0:0:
17,287,269655,5,2,0:0:0:0:
79,240,269828,1,2,0:0:0:0:
79,240,269914,1,0,0:0:0:0:
79,240,270000,2,0,P|84:143|61:98,1,116.250004434586,10|2,0:0|0:0,0:0:0:0:
3,88,270345,70,0,L|248:131,1,216.999993377686,6|2,0:0|0:0,0:0:0:0:
272,180,270604,1,0,0:0:0:0:
286,185,270690,6,0,P|336:168|356:90,1,108.499996688843,10|0,0:0|0:0,0:0:0:0:
439,111,270862,2,0,P|367:40|298:64,1,124,2|0,0:0|0:0,0:0:0:0:
256,288,271035,2,0,B|268:264|268:264|132:243|68:423,1,248,2|0,0:0|0:0,0:0:0:0:
0,205,271293,1,0,0:0:0:0:
11,193,271379,6,0,P|75:198|104:230,1,77.5,10|0,0:0|0:0,0:0:0:0:
220,6,271552,2,0,P|216:126|149:150,1,131.750002512932,2|0,0:0|0:0,0:0:0:0:
142,149,271724,6,0,L|105:-18,1,147.249996068001,6|0,0:0|0:0,0:0:0:0:
478,232,271897,2,0,L|442:384,1,147.249996068001,2|0,0:0|0:0,0:0:0:0:
249,378,272069,2,0,B|284:151|338:368|392:14,1,294.499992136002,10|0,0:0|0:0,0:0:0:0:
2,46,272414,6,0,L|143:5,1,124,2|0,0:0|0:0,0:0:0:0:
274,170,272586,2,0,L|138:119,1,124,2|0,0:0|0:0,0:0:0:0:
56,118,272759,6,0,L|60:138,1,15.5,10|0,0:0|0:0,0:0:0:0:
317,30,272931,2,0,L|327:7,1,15.5,2|0,0:0|0:0,0:0:0:0:
6,228,273104,69,6,0:0:0:0:
400,85,273276,1,2,0:0:0:0:
400,85,273362,1,0,0:0:0:0:
400,85,273448,2,0,B|461:282|349:179|416:375,1,294.499992136002,10|0,0:0|0:0,0:0:0:0:
506,40,273793,6,0,B|486:13|486:13|352:-9,1,147.249996068001,6|0,0:0|0:0,0:0:0:0:
231,286,273966,2,0,P|322:205|358:131,1,147.249996068001,2|0,0:0|0:0,0:0:0:0:
14,117,274138,70,0,L|41:282,1,139.499995742798,10|0,0:0|0:0,0:0:0:0:
110,241,274311,2,0,L|85:86,1,139.499995742798,2|0,0:0|0:0,0:0:0:0:
38,42,274483,53,6,0:0:0:0:
188,122,274655,2,0,L|168:124,1,15.5,2|0,0:0|0:0,0:0:0:0:
268,6,274828,5,6,0:0:0:0:
254,80,275000,1,0,0:0:0:0:
512,384,275173,5,6,0:0:0:0:
482,62,275345,1,0,0:0:0:0:
212,209,275517,2,0,B|375:165|283:263|474:194,1,232.5,6|0,0:0|0:0,0:0:0:0:
502,242,275862,22,0,P|355:317|354:363,1,155,6|0,0:0|0:0,0:0:0:0:
382,371,276035,2,0,L|349:360,1,23.2499992904663,2|0,0:0|0:0,0:0:0:0:
408,108,276207,6,0,L|225:45,1,155,10|0,0:0|0:0,0:0:0:0:
10,168,276379,2,0,L|231:117,1,155,2|0,0:0|0:0,0:0:0:0:
188,0,276552,102,0,L|167:79,1,58.1250022172929,2|0,0:0|0:0,0:0:0:0:
288,199,276724,2,0,L|273:142,1,58.1250022172929,10|0,0:0|0:0,0:0:0:0:
512,0,276897,6,0,P|481:84|467:192,1,170.500005203247,2|0,0:0|0:0,0:0:0:0:
472,384,277069,2,0,P|454:295|423:219,1,170.500005203247,2|0,0:0|0:0,0:0:0:0:
365,270,277242,6,0,L|192:317,1,155,10|0,0:0|0:0,0:0:0:0:
0,75,277414,2,0,L|155:118,1,155,2|0,0:0|0:0,0:0:0:0:
147,351,277586,86,0,L|115:222,1,77.5,2|0,0:0|0:0,0:0:0:0:
218,154,277759,2,0,L|184:280,1,77.5,10|0,0:0|0:0,0:0:0:0:
70,190,277931,53,2,0:0:0:0:
49,112,278104,1,2,0:0:0:0:
70,190,278276,2,0,P|126:136|112:70,1,116.250004434586,2|2,0:0|0:0,0:0:0:0:
453,0,278621,54,0,P|450:92|363:130,1,116.250004434586,2|0,0:0|0:0,0:0:0:0:
381,41,278793,2,0,P|292:54|259:-41,1,155,2|0,0:0|0:0,0:0:0:0:
121,264,278966,6,0,P|244:192|316:233,1,155,10|0,0:0|0:0,0:0:0:0:
214,281,279138,2,0,P|281:316|277:380,1,116.250004434586,2|0,0:0|0:0,0:0:0:0:
0,131,279311,102,0,L|27:136,1,15.5,2|0,0:0|0:0,0:0:0:0:
91,149,279483,2,0,L|118:154,1,15.5,10|0,0:0|0:0,0:0:0:0:
512,240,279655,6,0,L|485:245,1,15.5,2|0,0:0|0:0,0:0:0:0:
421,258,279827,2,0,L|394:263,1,15.5,2|0,0:0|0:0,0:0:0:0:
323,286,280000,102,0,P|336:209|432:188,1,116.250004434586,10|0,0:0|0:0,0:0:0:0:
328,111,280173,2,0,P|425:131|431:231,1,155,2|0,0:0|0:0,0:0:0:0:
213,384,280345,6,0,L|250:183,1,170.500005203247,2|0,0:0|0:0,0:0:0:0:
151,0,280517,2,0,L|187:186,1,170.500005203247,10|0,0:0|0:0,0:0:0:0:
296,372,280690,22,0,L|320:367,1,15.5,2|0,0:0|0:0,0:0:0:0:
84,47,280862,2,0,L|60:42,1,15.5
382,338,281035,54,0,P|456:340|502:242,1,174.375006651879,2|2,0:0|0:0,0:0:0:0:
457,200,281379,6,0,P|411:119|432:49,1,116.250004434586,2|0,0:0|0:0,0:0:0:0:
512,0,281552,2,0,P|489:120|461:139,1,116.250004434586,2|0,0:0|0:0,0:0:0:0:
332,177,281724,6,0,L|240:158,1,77.5,10|0,0:0|0:0,0:0:0:0:
160,312,281897,2,0,L|56:335,1,77.5,2|0,0:0|0:0,0:0:0:0:
20,275,282069,5,2,0:0:0:0:
243,345,282242,2,0,L|238:321,1,15.5,10|0,0:0|0:0,0:0:0:0:
301,282,282414,5,2,0:0:0:0:
399,384,282586,1,2,0:0:0:0:
464,341,282759,6,0,L|493:169,1,155,10|2,0:0|0:0,0:0:0:0:
364,118,283104,2,0,L|397:298,1,155,10|2,0:0|0:0,0:0:0:0:
421,59,283448,5,2,0:0:0:0:
271,221,283621,6,0,L|287:125,1,77.5,10|0,0:0|0:0,0:0:0:0:
306,0,283793,1,2,0:0:0:0:
306,0,283966,1,0,0:0:0:0:
41,103,284138,22,0,B|113:151|141:245|141:245|122:137|180:25,1,348.750013303757,6|0,0:2|0:0,0:0:0:0:
88,42,284483,70,0,L|77:0,1,23.2499992904663,2|0,0:0|0:0,0:0:0:0:
23,277,284828,54,0,B|11:348|11:348|220:383,1,232.5,6|0,0:2|0:0,0:0:0:0:
240,350,285173,70,0,L|219:250,1,93,2|0,0:0|0:0,0:0:0:0:
229,248,285517,5,6,0:0:0:0:
294,206,285690,1,0,0:0:0:0:
355,258,285862,1,2,0:0:0:0:
323,324,286035,1,0,0:0:0:0:
377,382,286207,69,6,0:0:0:0:
395,384,286293,1,0,0:3:0:0:
439,375,286379,1,0,0:0:0:0:
483,311,286465,1,0,0:3:0:0:
486,209,286552,2,0,L|470:136,1,62,10|0,0:0|0:0,0:0:0:0:
512,0,286897,101,4,0:0:0:0:
381,146,287069,1,2,0:0:0:0:
119,67,287242,1,10,0:0:0:0:
220,328,287414,1,0,0:0:0:0:
174,357,287500,1,0,0:0:0:0:
120,364,287586,1,0,0:0:0:0:
70,340,287673,1,0,0:0:0:0:
47,290,287759,1,2,0:0:0:0:
195,0,287931,2,0,B|211:115|240:26|250:190,1,155,10|0,0:0|0:0,0:0:0:0:
175,249,288276,101,0,0:0:0:0:
372,0,288448,1,2,0:0:0:0:
343,144,288621,1,10,0:0:0:0:
499,66,288793,1,0,0:0:0:0:
476,72,288879,1,0,0:0:0:0:
453,79,288966,1,0,0:0:0:0:
430,85,289052,1,0,0:0:0:0:
407,92,289138,1,2,0:0:0:0:
311,226,289311,2,0,L|288:384,1,155,10|0,0:0|0:0,0:0:0:0:
0,237,289655,5,2,0:0:0:0:
0,237,290000,6,0,L|147:211,1,116.250004434586,10|2,0:3|0:3,0:3:0:0:
114,216,290259,1,0,0:3:0:0:
114,216,290345,1,2,0:3:0:0:
86,27,290517,1,2,0:3:0:0:
285,0,290690,2,0,B|251:47|215:124,1,116.250004434586,10|2,0:3|0:3,0:3:0:0:
246,322,291035,37,2,0:3:0:0:
452,232,291207,1,2,0:3:0:0:
353,115,291379,69,10,0:3:0:0:
434,143,291552,1,2,0:3:0:0:
477,124,291638,1,2,0:3:0:0:
492,80,291724,37,2,0:3:0:0:
318,368,291897,1,2,0:3:0:0:
34,301,292069,2,0,L|10:235,2,58.1250022172929,10|0|0,0:3|0:3|0:3,0:3:0:0:
0,384,292414,53,4,0:0:0:0:
167,315,292586,1,2,0:0:0:0:
55,78,292759,1,10,0:0:0:0:
370,9,292931,1,0,0:0:0:0:
352,58,293017,1,0,0:0:0:0:
310,90,293104,1,0,0:0:0:0:
259,101,293190,1,0,0:0:0:0:
212,78,293276,1,2,0:0:0:0:
512,231,293448,2,0,P|410:138|362:134,1,155,10|0,0:0|0:0,0:0:0:0:
59,262,293793,101,0,0:0:0:0:
213,201,293966,1,2,0:0:0:0:
188,378,294138,1,8,0:0:0:0:
61,111,294311,1,0,0:0:0:0:
67,88,294397,1,0,0:0:0:0:
74,65,294483,1,0,0:0:0:0:
81,42,294569,1,0,0:0:0:0:
88,19,294655,1,2,0:0:0:0:
288,235,294828,2,0,B|383:214|356:287|471:234,1,155,10|0,0:0|0:0,0:0:0:0:
512,69,295173,5,2,0:0:0:0:
512,69,295517,6,0,L|483:197,1,116.250004434586,10|2,0:3|0:3,0:3:0:0:
486,182,295776,1,0,0:3:0:0:
486,182,295862,1,2,0:3:0:0:
345,117,296034,1,2,0:3:0:0:
426,13,296207,2,0,L|296:38,1,116.250004434586,10|2,0:3|0:3,0:3:0:0:
0,89,296552,37,2,0:3:0:0:
145,122,296724,1,2,0:3:0:0:
242,0,296897,1,10,0:3:0:0:
83,78,297069,1,2,0:3:0:0:
69,116,297155,1,0,0:3:0:0:
78,156,297242,1,2,0:3:0:0:
102,188,297328,1,0,0:3:0:0:
109,227,297414,1,2,0:3:0:0:
102,267,297500,1,0,0:3:0:0:
73,295,297586,2,0,P|134:259|192:249,1,116.250004434586,10|0,0:3|0:3,0:3:0:0:
460,384,297931,37,4,0:0:0:0:
264,325,298104,1,2,0:0:0:0:
345,53,298276,1,10,0:0:0:0:
207,1,298448,1,0,0:0:0:0:
162,32,298535,1,0,0:0:0:0:
144,83,298621,1,0,0:0:0:0:
158,135,298707,1,0,0:0:0:0:
201,167,298793,1,2,0:0:0:0:
511,11,298966,2,0,L|339:41,1,155,10|0,0:0|0:0,0:0:0:0:
92,224,299311,5,0,0:0:0:0:
215,260,299483,1,2,0:0:0:0:
287,2,299655,1,10,0:0:0:0:
127,318,299828,1,0,0:0:0:0:
150,325,299914,1,0,0:0:0:0:
173,332,300000,1,0,0:0:0:0:
196,339,300086,1,0,0:0:0:0:
219,345,300172,1,2,0:0:0:0:
131,36,300345,2,0,L|170:214,1,155,10|0,0:0|0:0,0:0:0:0:
364,373,300690,101,2,0:0:0:0:
364,373,301035,22,0,P|451:329|489:327,1,116.250004434586,10|2,0:3|0:3,0:3:0:0:
468,327,301293,1,0,0:3:0:0:
468,327,301379,1,2,0:3:0:0:
370,203,301552,1,2,0:3:0:0:
512,133,301724,2,0,L|491:270,1,116.250004434586,10|2,0:3|0:3,0:3:0:0:
243,20,302069,37,2,0:3:0:0:
418,119,302242,1,2,0:3:0:0:
307,259,302414,1,10,0:3:0:0:
469,328,302586,1,2,0:3:0:0:
454,365,302673,1,0,0:3:0:0:
419,384,302759,69,2,0:3:0:0:
332,98,302931,1,2,0:3:0:0:
18,21,303104,2,0,L|-6:91,2,58.1250022172929,10|0|0,0:3|0:3|0:3,0:3:0:0:
104,0,303448,85,4,0:0:0:0:
272,154,303621,1,2,0:0:0:0:
134,375,303793,1,10,0:0:0:0:
5,204,303966,1,0,0:0:0:0:
53,179,304052,1,0,0:0:0:0:
107,179,304138,1,0,0:0:0:0:
156,201,304224,1,0,0:0:0:0:
175,251,304311,1,2,0:0:0:0:
360,384,304483,2,0,L|549:349,1,155,10|0,0:0|0:0,0:0:0:0:
506,11,304828,5,0,0:0:0:0:
457,184,305000,1,2,0:0:0:0:
194,108,305173,1,10,0:0:0:0:
126,369,305345,1,0,0:0:0:0:
143,317,305431,1,0,0:0:0:0:
184,282,305517,1,0,0:0:0:0:
235,262,305604,1,0,0:0:0:0:
288,271,305690,1,2,0:0:0:0:
386,0,305862,2,0,B|355:111|402:49|363:180,1,155,10|0,0:0|0:0,0:0:0:0:
317,380,306207,101,2,0:0:0:0:
317,380,306552,21,10,0:2:0:0:
501,240,306724,1,2,0:2:0:0:
501,240,306811,1,0,0:2:0:0:
501,240,306897,2,0,L|522:166,2,58.1250022172929,2|0|2,0:2|0:2|0:2,0:2:0:0:
261,329,307242,2,0,B|160:301|201:376|69:328,1,155,10|2,0:2|0:2,0:2:0:0:
0,69,307586,37,2,0:2:0:0:
59,16,307759,1,2,0:2:0:0:
138,29,307931,1,2,0:2:0:0:
175,99,308104,1,2,0:2:0:0:
248,0,308276,101,2,0:2:0:0:
185,272,308448,1,2,0:2:0:0:
310,53,308621,102,0,L|368:40,1,46.4999985809327,2|2,0:2|0:2,0:2:0:0:
428,79,308966,1,6,0:2:0:0:
256,192,309138,12,0,311379,0:2:0:0:
52,127,311724,6,0,B|199:89|123:180|279:129,1,201.499990776062,6|10,0:0|0:2,0:0:0:0:
355,7,312242,1,0,0:0:0:0:
383,27,312328,1,0,0:0:0:0:
396,59,312414,1,2,0:2:0:0:
399,94,312500,1,0,0:2:0:0:
387,127,312586,1,0,0:2:0:0:
325,179,312759,2,0,L|347:302,1,100.749995388031,10|0,0:2|0:2,0:2:0:0:
512,384,313104,6,0,B|426:369|426:369|423:374|423:374|274:349,1,201.499990776062,2|8,0:0|0:0,0:0:0:0:
115,220,313621,1,0,0:0:0:0:
115,220,313707,1,0,0:0:0:0:
115,220,313793,2,0,P|138:151|138:100,1,100.749995388031,2|0,0:0|0:0,0:0:0:0:
261,284,314138,2,0,L|150:309,1,100.749995388031,10|0,0:0|0:0,0:0:0:0:
38,384,314483,102,0,L|10:206,1,151.124993082047,2|0,0:0|0:0,0:0:0:0:
22,225,314828,1,10,0:0:0:0:
74,15,315000,1,2,0:0:0:0:
67,163,315173,1,2,0:0:0:0:
28,84,315345,1,2,0:0:0:0:
151,0,315517,2,0,L|263:20,1,100.749995388031,10|2,0:0|0:0,0:0:0:0:
512,68,315862,6,0,B|455:171|316:97|377:16|436:75,1,197.625003769398,2|0,0:0|0:0,0:0:0:0:
406,53,316207,1,10,0:2:0:0:
465,6,316379,1,2,0:2:0:0:
274,92,316552,1,2,0:2:0:0:
339,280,316724,1,2,0:2:0:0:
512,216,316897,2,0,B|428:184|459:241|358:194,1,131.750002512932,10|0,0:2|0:2,0:2:0:0:
192,95,317242,102,0,L|221:305,1,197.625003769398
219,290,317586,70,8,P|156:245|90:232,1,131.750002512932,10|0,0:0|0:0,0:0:0:0:
0,384,317931,2,0,P|69:352|114:302,1,131.750002512932,2|0,0:0|0:0,0:0:0:0:
28,147,318276,2,0,P|20:223|41:286,1,131.750002512932,10|0,0:0|0:0,0:0:0:0:
83,275,318535,1,0,0:0:0:0:
83,275,318621,37,2,0:0:0:0:
152,212,318793,1,0,0:0:0:0:
189,368,318966,70,0,L|321:387,1,116.250004434586,10|0,0:0|0:0,0:0:0:0:
512,318,319311,2,0,L|380:337,1,116.250004434586,2|0,0:0|0:0,0:0:0:0:
322,310,319655,2,0,L|353:108,1,174.375006651879,10|0,0:0|0:0,0:0:0:0:
359,124,320000,53,0,0:0:0:0:
0,148,320345,101,10,0:3:0:0:
64,202,320517,1,2,0:3:0:0:
135,157,320690,2,0,P|188:176|236:244,1,116.250004434586,2|2,0:3|0:3,0:3:0:0:
291,0,321035,2,0,P|281:65|249:114,1,116.250004434586,10|2,0:3|0:3,0:3:0:0:
119,321,321379,6,0,P|231:308|283:373,1,174.375006651879,2|0,0:3|0:3,0:3:0:0:
270,357,321724,1,10,0:2:0:0:
292,373,321897,1,2,0:2:0:0:
372,377,322069,1,2,0:2:0:0:
442,316,322242,1,2,0:2:0:0:
433,223,322414,2,0,L|456:96,1,116.250004434586,10|2,0:2|0:2,0:2:0:0:
499,34,322759,102,0,B|374:-6|403:106|262:44,1,232.500008869171,2|10,0:0|0:2,0:0:0:0:
210,2,323276,1,0,0:2:0:0:
210,2,323362,1,0,0:2:0:0:
210,2,323448,1,2,0:2:0:0:
169,192,323621,1,0,0:2:0:0:
112,135,323793,2,0,L|-24:164,1,116.250004434586,10|0,0:2|0:2,0:2:0:0:
32,361,324138,6,0,P|150:367|238:244,1,232.500008869171,2|8,0:0|0:0,0:0:0:0:
300,247,324655,1,0,0:0:0:0:
300,247,324742,1,0,0:0:0:0:
300,247,324828,2,0,P|363:279|436:331,1,116.250004434586,2|0,0:0|0:0,0:0:0:0:
294,0,325173,2,0,P|256:59|220:142,1,116.250004434586,10|0,0:0|0:0,0:0:0:0:
232,182,325517,102,0,L|22:153,1,174.375006651879,2|0,0:0|0:0,0:0:0:0:
52,148,325862,5,10,0:0:0:0:
97,86,326035,1,2,0:0:0:0:
52,23,326207,1,2,0:0:0:0:
130,17,326379,1,2,0:0:0:0:
0,207,326552,2,0,L|16:327,1,116.250004434586,10|2,0:0|0:0,0:0:0:0:
138,384,326897,102,0,P|220:360|245:248,1,174.375006651879,2|0,0:0|0:0,0:0:0:0:
243,271,327242,1,10,0:2:0:0:
272,192,327414,1,2,0:2:0:0:
505,211,327586,1,2,0:2:0:0:
338,313,327759,1,2,0:2:0:0:
223,129,327931,2,0,L|248:10,1,116.250004434586,10|0,0:2|0:2,0:2:0:0:
0,220,328276,6,0,B|105:193|69:272|195:234,1,174.375006651879
167,241,328621,54,0,L|128:390,1,116.250004434586,10|0,0:0|0:0,0:0:0:0:
270,270,328966,2,0,L|296:418,1,116.250004434586,2|0,0:0|0:0,0:0:0:0:
359,210,329311,2,0,L|439:328,1,116.250004434586,10|0,0:0|0:0,0:0:0:0:
508,11,329655,54,0,P|435:92|310:65,1,232.5
322,76,330000,70,0,L|193:111,1,116.250004434586,10|0,0:0|0:0,0:0:0:0:
119,275,330345,2,0,L|152:145,1,116.250004434586,2|0,0:0|0:0,0:0:0:0:
48,0,330690,2,0,L|143:93,1,116.250004434586,10|0,0:0|0:0,0:0:0:0:
161,122,330948,1,0,0:0:0:0:
161,122,331035,37,0,0:0:0:0:
342,294,331379,1,10,0:3:0:0:
299,231,331552,1,2,0:3:0:0:
423,189,331724,2,0,L|338:178,1,69.749997871399,2|2,0:3|0:3,0:3:0:0:
259,384,332069,2,0,L|270:299,1,69.749997871399,10|2,0:3|0:3,0:3:0:0:
341,103,332414,70,0,P|390:53|510:12,1,186
512,19,332759,37,10,0:2:0:0:
329,0,332931,1,2,0:2:0:0:
265,78,333104,101,2,0:2:0:0:
188,93,333276,1,2,0:2:0:0:
121,56,333448,2,0,L|87:66,1,31,2|2,0:2|0:2,0:2:0:0:
49,0,333793,101,6,0:2:0:0:
