osu file format v14

[General]
AudioFilename: audio.mp3
AudioLeadIn: 0
PreviewTime: 79022
Countdown: 0
SampleSet: Normal
StackLeniency: 0.7
Mode: 1
LetterboxInBreaks: 0
WidescreenStoryboard: 1

[Editor]
Bookmarks: 22596,33890,45184,52243,56478,67772,79066,90360,98831,101655,112949,124243,135537,146831,158125,169419,180713,203302,214596,225890,248478,271066,282360,293655
DistanceSpacing: 1
BeatDivisor: 6
GridSize: 32
TimelineZoom: 1.9

[Metadata]
Title:Ass
TitleUnicode:Ass
Artist:Receptor
ArtistUnicode:Receptor
Creator:Jaltzu
Version:Clapped Oni
Source:osu!
Tags:instrumental electronic dance music edm drum and & bass dnb girls ep beta recordings featured artist fa mappers' guild mg mpg
BeatmapID:2555818
BeatmapSetID:1226040

[Difficulty]
HPDrainRate:4
CircleSize:2
OverallDifficulty:6
ApproachRate:10
SliderMultiplier:1.4
SliderTickRate:1

[Events]
//Background and Video events
0,0,"assedit.jpg",0,-40
//Break Periods
//Storyboard Layer 0 (Background)
//Storyboard Layer 1 (Fail)
//Storyboard Layer 2 (Pass)
//Storyboard Layer 3 (Foreground)
//Storyboard Layer 4 (Overlay)
//Storyboard Sound Samples

[TimingPoints]
8,352.941176470588,4,1,0,60,1,0
8,-125,4,1,0,60,0,0
338,-117.647058823529,4,1,0,60,0,0
515,-114.285714285714,4,1,0,60,0,0
691,-111.111111111111,4,1,0,60,0,0
1044,-105.263157894737,4,1,0,60,0,0
1221,-102.564102564103,4,1,0,60,0,0
1397,-100,4,1,0,60,0,0
1750,-101.691950675336,4,1,0,60,0,0
1927,-102.559579423677,4,1,0,60,0,0
2103,-103.442140673036,4,1,0,60,0,0
2280,-104.339914399534,4,1,0,60,0,0
2456,-105.25351888827,4,1,0,60,0,0
2633,-106.18326381869,4,1,0,60,0,0
2809,-107.12958072696,4,1,0,60,0,0
3162,-109.073734935554,4,1,0,60,0,0
3338,-110.072515773392,4,1,0,60,0,0
3515,-111.089757191118,4,1,0,60,0,0
3868,-113.181579471578,4,1,0,60,0,0
4044,-114.257378455857,4,1,0,60,0,0
4221,-115.353824786768,4,1,0,60,0,0
4574,-117.611083668525,4,1,0,60,0,0
4750,-118.77316819112,4,1,0,60,0,0
4927,-119.958446394169,4,1,0,60,0,0
5103,-121.167619649995,4,1,0,60,0,0
5280,-122.401417898025,4,1,0,60,0,0
5456,-123.660448194928,4,1,0,60,0,0
5633,-125,4,1,0,60,0,0
5985,-117.647058823529,4,1,0,60,0,0
6162,-114.285714285714,4,1,0,60,0,0
6338,-111.111111111111,4,1,0,60,0,0
6691,-105.263157894737,4,1,0,60,0,0
6868,-102.564102564103,4,1,0,60,0,0
7044,-100,4,1,0,60,0,0
7397,-101.691950675336,4,1,0,60,0,0
7574,-102.559579423677,4,1,0,60,0,0
7750,-103.442140673036,4,1,0,60,0,0
7927,-104.339914399534,4,1,0,60,0,0
8103,-105.25351888827,4,1,0,60,0,0
8280,-106.18326381869,4,1,0,60,0,0
8456,-107.12958072696,4,1,0,60,0,0
8809,-109.073734935554,4,1,0,60,0,0
8985,-110.072515773392,4,1,0,60,0,0
9162,-111.089757191118,4,1,0,60,0,0
9515,-113.181579471578,4,1,0,60,0,0
9691,-114.257378455857,4,1,0,60,0,0
9868,-115.353824786768,4,1,0,60,0,0
10221,-117.611083668525,4,1,0,60,0,0
10397,-118.77316819112,4,1,0,60,0,0
10574,-119.958446394169,4,1,0,60,0,0
10750,-121.167619649995,4,1,0,60,0,0
10927,-122.401417898025,4,1,0,60,0,0
11103,-123.660448194928,4,1,0,60,0,0
11280,-125,4,1,0,60,0,0
11633,-117.647058823529,4,1,0,60,0,0
11809,-114.285714285714,4,1,0,60,0,0
11985,-111.111111111111,4,1,0,60,0,0
12338,-105.263157894737,4,1,0,60,0,0
12515,-102.564102564103,4,1,0,60,0,0
12691,-100,4,1,0,60,0,0
13044,-101.691950675336,4,1,0,60,0,0
13221,-102.559579423677,4,1,0,60,0,0
13397,-103.442140673036,4,1,0,60,0,0
13574,-104.339914399534,4,1,0,60,0,0
13750,-105.25351888827,4,1,0,60,0,0
13927,-106.18326381869,4,1,0,60,0,0
14103,-107.12958072696,4,1,0,60,0,0
14456,-109.073734935554,4,1,0,60,0,0
14633,-110.072515773392,4,1,0,60,0,0
14809,-111.089757191118,4,1,0,60,0,0
15162,-113.181579471578,4,1,0,60,0,0
15338,-114.257378455857,4,1,0,60,0,0
15515,-115.353824786768,4,1,0,60,0,0
15868,-117.611083668525,4,1,0,60,0,0
16044,-118.77316819112,4,1,0,60,0,0
16221,-119.958446394169,4,1,0,60,0,0
16397,-121.167619649995,4,1,0,60,0,0
16574,-122.401417898025,4,1,0,60,0,0
16750,-123.660448194928,4,1,0,60,0,0
16927,-125,4,1,0,60,0,0
17280,-117.647058823529,4,1,0,60,0,0
17456,-114.285714285714,4,1,0,60,0,0
17633,-111.111111111111,4,1,0,60,0,0
17985,-105.263157894737,4,1,0,60,0,0
18162,-102.564102564103,4,1,0,60,0,0
18338,-100,4,1,0,60,0,0
18691,-101.691950675336,4,1,0,60,0,0
18868,-102.559579423677,4,1,0,60,0,0
19044,-103.442140673036,4,1,0,60,0,0
19221,-104.339914399534,4,1,0,60,0,0
19397,-105.25351888827,4,1,0,60,0,0
19574,-106.18326381869,4,1,0,60,0,0
19750,-107.12958072696,4,1,0,60,0,0
20103,-109.073734935554,4,1,0,60,0,0
20280,-110.072515773392,4,1,0,60,0,0
20456,-111.089757191118,4,1,0,60,0,0
20809,-113.181579471578,4,1,0,60,0,0
20985,-114.257378455857,4,1,0,60,0,0
21162,-115.353824786768,4,1,0,60,0,0
21515,-117.611083668525,4,1,0,60,0,0
21691,-118.77316819112,4,1,0,60,0,0
21868,-119.958446394169,4,1,0,60,0,0
22044,-121.167619649995,4,1,0,60,0,0
22221,-122.401417898025,4,1,0,60,0,0
22397,-123.660448194928,4,1,0,60,0,0
22552,-125,4,1,0,70,0,0
22750,-117.647058823529,4,1,0,70,0,0
22838,-114.285714285714,4,1,0,70,0,0
22927,-111.111111111111,4,1,0,70,0,0
23103,-105.263157894737,4,1,0,70,0,0
23280,-100,4,1,0,70,0,0
23633,-90.9090909090909,4,1,0,70,0,0
23809,-86.9565217391304,4,1,0,70,0,0
23985,-83.3333333333333,4,1,0,70,0,0
24338,-85.7100736763793,4,1,0,70,0,0
24515,-86.9499437868613,4,1,0,70,0,0
24691,-88.226289846301,4,1,0,70,0,0
24868,-89.5406653408679,4,1,0,70,0,0
25044,-90.8947956366862,4,1,0,70,0,0
25221,-92.2904268985987,4,1,0,70,0,0
25397,-93.7296723773032,4,1,0,70,0,0
25485,-94.4662609025873,4,1,0,70,0,0
25574,-95.2145183097519,4,1,0,70,0,0
25750,-96.7471667592215,4,1,0,70,0,0
25927,-98.3299638932372,4,1,0,70,0,0
26103,-99.9653120367232,4,1,0,70,0,0
26456,-103.405024036498,4,1,0,70,0,0
26633,-105.215201913233,4,1,0,70,0,0
26809,-107.089885895727,4,1,0,70,0,0
27162,-111.046950650735,4,1,0,70,0,0
27338,-113.137273980011,4,1,0,70,0,0
27515,-115.30780264839,4,1,0,70,0,0
27691,-117.563104935652,4,1,0,70,0,0
27868,-119.90853377044,4,1,0,70,0,0
28044,-122.349452057979,4,1,0,70,0,0
28221,-124.89181246745,4,1,0,70,0,0
28397,-117.647058823529,4,1,0,70,0,0
28485,-114.285714285714,4,1,0,70,0,0
28574,-111.111111111111,4,1,0,70,0,0
28750,-105.263157894737,4,1,0,70,0,0
28927,-100,4,1,0,70,0,0
29280,-90.9090909090909,4,1,0,70,0,0
29456,-86.9565217391304,4,1,0,70,0,0
29632,-83.3333333333333,4,1,0,70,0,0
29985,-85.7100736763793,4,1,0,70,0,0
30162,-86.9499437868613,4,1,0,70,0,0
30338,-88.226289846301,4,1,0,70,0,0
30515,-89.5406653408679,4,1,0,70,0,0
30691,-90.8947956366862,4,1,0,70,0,0
30868,-92.2904268985987,4,1,0,70,0,0
31044,-93.7296723773032,4,1,0,70,0,0
31132,-94.4662609025873,4,1,0,70,0,0
31221,-95.2145183097519,4,1,0,70,0,0
31397,-96.7471667592215,4,1,0,70,0,0
31574,-98.3299638932372,4,1,0,70,0,0
31750,-99.9653120367232,4,1,0,70,0,0
32103,-103.405024036498,4,1,0,70,0,0
32280,-105.215201913233,4,1,0,70,0,0
32456,-107.089885895727,4,1,0,70,0,0
32809,-111.046950650735,4,1,0,70,0,0
32985,-113.137273980011,4,1,0,70,0,0
33162,-115.30780264839,4,1,0,70,0,0
33338,-117.563104935652,4,1,0,70,0,0
33515,-119.90853377044,4,1,0,70,0,0
33691,-122.349452057979,4,1,0,70,0,0
33868,-124.89181246745,4,1,0,70,0,0
33956,-121.212121212121,4,1,0,70,0,0
34044,-117.647058823529,4,1,0,70,0,0
34132,-114.285714285714,4,1,0,70,0,0
34221,-111.111111111111,4,1,0,70,0,0
34397,-105.263157894737,4,1,0,70,0,0
34574,-100,4,1,0,70,0,0
34927,-90.9090909090909,4,1,0,70,0,0
35103,-86.9565217391304,4,1,0,70,0,0
35279,-83.3333333333333,4,1,0,70,0,0
35632,-85.7100736763793,4,1,0,70,0,0
35809,-86.9499437868613,4,1,0,70,0,0
35985,-88.226289846301,4,1,0,70,0,0
36162,-89.5406653408679,4,1,0,70,0,0
36338,-90.8947956366862,4,1,0,70,0,0
36515,-92.2904268985987,4,1,0,70,0,0
36691,-93.7296723773032,4,1,0,70,0,0
36779,-94.4662609025873,4,1,0,70,0,0
36868,-95.2145183097519,4,1,0,70,0,0
36956,-95.9508731529457,4,1,0,70,0,0
37044,-96.7471667592215,4,1,0,70,0,0
37221,-98.3299638932372,4,1,0,70,0,0
37397,-99.9653120367232,4,1,0,70,0,0
37750,-103.405024036498,4,1,0,70,0,0
37927,-105.215201913233,4,1,0,70,0,0
38103,-107.089885895727,4,1,0,70,0,0
38456,-111.046950650735,4,1,0,70,0,0
38632,-113.137273980011,4,1,0,70,0,0
38809,-115.30780264839,4,1,0,70,0,0
38985,-117.563104935652,4,1,0,70,0,0
39162,-119.90853377044,4,1,0,70,0,0
39338,-122.349452057979,4,1,0,70,0,0
39515,-125,4,1,0,70,0,0
39603,-121.212121212121,4,1,0,70,0,0
39691,-117.647058823529,4,1,0,70,0,0
39780,-114.285714285714,4,1,0,70,0,0
39868,-111.111111111111,4,1,0,70,0,0
40044,-105.263157894737,4,1,0,70,0,0
40221,-100,4,1,0,70,0,0
40574,-103.448240190262,4,1,0,70,0,0
40750,-105.263157894737,4,1,0,70,0,0
40927,-107.142895408177,4,1,0,70,0,0
41280,-111.111111111111,4,1,0,70,0,0
41456,-113.207589889657,4,1,0,70,0,0
41633,-115.384571005934,4,1,0,70,0,0
41809,-117.647058823529,4,1,0,70,0,0
41985,-120.000048000019,4,1,0,70,0,0
42162,-122.448929612682,4,1,0,70,0,0
42338,-125,4,1,0,70,0,0
42427,-121.212121212121,4,1,0,70,0,0
42515,-117.647058823529,4,1,0,70,0,0
42603,-114.285714285714,4,1,0,70,0,0
42691,-111.111111111111,4,1,0,70,0,0
42868,-105.263157894737,4,1,0,70,0,0
43044,-100,4,1,0,70,0,0
43397,-103.43593488501,4,1,0,70,0,0
43574,-105.243992409803,4,1,0,70,0,0
43750,-107.116384093645,4,1,0,70,0,0
44103,-111.068411477365,4,1,0,70,0,0
44280,-113.155837087278,4,1,0,70,0,0
44456,-115.323227943279,4,1,0,70,0,0
44633,-117.575268747671,4,1,0,70,0,0
44809,-119.917017423943,4,1,0,70,0,0
44985,-122.353943039345,4,1,0,70,0,0
45162,-124.891968447293,4,1,0,70,0,0
45250,-121.212121212121,4,1,0,70,0,0
45338,-117.647058823529,4,1,0,70,0,0
45427,-114.285714285714,4,1,0,70,0,0
45493,-111.111111111111,4,1,0,70,0,0
45669,-113.211819313936,4,1,0,70,0,0
45846,-115.380177685474,4,1,0,70,0,0
46199,-120.004800192008,4,1,0,70,0,0
46375,-122.448479802123,4,1,0,70,0,0
46552,-125,4,1,0,70,0,0
46662,-121.212121212121,4,1,0,70,0,0
46750,-117.647058823529,4,1,0,70,0,0
46838,-114.285714285714,4,1,0,70,0,0
46927,-111.111111111111,4,1,0,70,0,0
47081,-113.211819313936,4,1,0,70,0,0
47257,-115.380177685474,4,1,0,70,0,0
47434,-117.647058823529,4,1,0,70,0,0
47610,-120.004800192008,4,1,0,70,0,0
47787,-122.443981878291,4,1,0,70,0,0
47963,-125,4,1,0,70,0,0
48074,-121.212121212121,4,1,0,70,0,0
48162,-117.647058823529,4,1,0,70,0,0
48316,-120.004800192008,4,1,0,70,0,0
48493,-122.443981878291,4,1,0,70,0,0
48669,-125,4,1,0,70,0,0
48780,-121.212121212121,4,1,0,70,0,0
48868,-117.647058823529,4,1,0,70,0,0
49022,-120.004800192008,4,1,0,70,0,0
49199,-122.443981878291,4,1,0,70,0,0
49375,-125,4,1,0,70,0,0
49485,-121.212121212121,4,1,0,70,0,0
49574,-117.647058823529,4,1,0,70,0,0
49728,-120.004800192008,4,1,0,70,0,0
49905,-122.443981878291,4,1,0,70,0,0
50081,-125,4,1,0,70,0,0
50191,-121.212121212121,4,1,0,70,0,0
50280,-117.647058823529,4,1,0,70,0,0
50434,-120.004800192008,4,1,0,70,0,0
50610,-122.443981878291,4,1,0,70,0,0
50787,-125,4,1,0,70,0,0
50897,-121.212121212121,4,1,0,70,0,0
50985,-117.647058823529,4,1,0,70,0,0
51250,-121.212121212121,4,1,0,70,0,0
51338,-125,4,1,0,70,0,0
51603,-121.212121212121,4,1,0,70,0,0
51691,-117.647058823529,4,1,0,70,0,0
51956,-121.212121212121,4,1,0,70,0,0
52044,-125,4,1,0,70,0,0
52397,-121.212121212121,4,1,0,70,0,0
52574,-117.647058823529,4,1,0,70,0,0
52750,-114.285714285714,4,1,0,70,0,0
52927,-111.111111111111,4,1,0,70,0,0
53103,-108.108108108108,4,1,0,70,0,0
53280,-105.263157894737,4,1,0,70,0,0
53456,-102.564102564103,4,1,0,70,0,0
53633,-100,4,1,0,70,0,0
53721,-98.7654320987654,4,1,0,70,0,0
53809,-97.5609756097561,4,1,0,70,0,0
53897,-96.3855421686747,4,1,0,70,0,0
53985,-95.2380952380952,4,1,0,70,0,0
54074,-94.1176470588235,4,1,0,70,0,0
54162,-93.0232558139535,4,1,0,70,0,0
54250,-91.9540229885058,4,1,0,70,0,0
54338,-90.9090909090909,4,1,0,70,0,0
54427,-89.8876404494382,4,1,0,70,0,0
54515,-88.8888888888889,4,1,0,70,0,0
54603,-87.9120879120879,4,1,0,70,0,0
54691,-86.9565217391304,4,1,0,70,0,0
54780,-86.0215053763441,4,1,0,70,0,0
54868,-85.1063829787234,4,1,0,70,0,0
54956,-84.2105263157895,4,1,0,70,0,0
55044,-83.3333333333333,4,1,0,70,0,0
55177,-78.4313725490196,4,1,0,10,0,0
55353,-74.0740740740741,4,1,0,20,0,0
55485,-72.0720720720721,4,1,0,25,0,0
55574,-70.1754385964912,4,1,0,30,0,0
55662,-68.3760683760684,4,1,0,35,0,0
55750,-66.7589275044779,4,1,0,40,0,0
55838,-65.0406504065041,4,1,0,45,0,0
55927,-63.4920634920635,4,1,0,50,0,0
56015,-62.015503875969,4,1,0,55,0,0
56103,-60.6060606060606,4,1,0,60,0,0
56191,-59.2592592592593,4,1,0,65,0,0
56280,-57.9710144927536,4,1,0,70,0,0
56368,-56.7375886524823,4,1,0,75,0,0
56456,-55.6837829334774,4,1,0,80,0,0
56963,-62.5,4,1,0,80,0,0
57074,-66.6666666666667,4,1,0,80,0,0
57162,-71.4285714285714,4,1,0,80,0,0
57250,-76.9230769230769,4,1,0,80,0,0
57338,-83.3333333333333,4,1,0,80,0,0
57493,-62.5,4,1,0,80,0,0
57669,-71.4285714285714,4,1,0,80,0,0
57846,-62.5,4,1,0,80,0,0
58022,-71.4285714285714,4,1,0,80,0,0
58199,-62.5,4,1,0,80,0,0
58375,-55.5555555555556,4,1,0,80,0,0
58485,-58.8235294117647,4,1,0,80,0,0
58574,-62.5,4,1,0,80,0,0
58662,-66.6666666666667,4,1,0,80,0,0
58750,-71.4285714285714,4,1,0,80,0,0
58838,-76.9230769230769,4,1,0,80,0,0
58927,-83.3333333333333,4,1,0,80,0,0
59280,-55.5555555555556,4,1,0,80,0,0
59787,-62.5,4,1,0,80,0,0
59897,-66.6666666666667,4,1,0,80,0,0
59985,-71.4285714285714,4,1,0,80,0,0
60074,-76.9230769230769,4,1,0,80,0,0
60162,-83.3333333333333,4,1,0,80,0,0
60316,-62.5,4,1,0,80,0,0
60493,-71.4285714285714,4,1,0,80,0,0
60669,-62.5,4,1,0,80,0,0
60846,-71.4285714285714,4,1,0,80,0,0
61022,-62.5,4,1,0,80,0,0
61199,-55.5555555555556,4,1,0,80,0,0
61309,-58.8235294117647,4,1,0,80,0,0
61397,-62.5,4,1,0,80,0,0
61485,-66.6666666666667,4,1,0,80,0,0
61574,-71.4285714285714,4,1,0,80,0,0
61838,-66.6666666666667,4,1,0,80,0,0
61927,-62.5,4,1,0,80,0,0
62015,-58.8235294117647,4,1,0,80,0,0
62103,-55.5555555555556,4,1,0,80,0,0
62434,-62.5,4,1,0,80,0,0
62610,-55.5555555555556,4,1,0,80,0,0
62721,-57.4712643678161,4,1,0,80,0,0
62809,-59.5238095238095,4,1,0,80,0,0
62897,-61.7283950617284,4,1,0,80,0,0
62985,-64.1025641025641,4,1,0,80,0,0
63074,-66.6666666666667,4,1,0,80,0,0
63162,-69.4444444444444,4,1,0,80,0,0
63250,-72.463768115942,4,1,0,80,0,0
63338,-75.7575757575758,4,1,0,80,0,0
63427,-79.3650793650794,4,1,0,80,0,0
63515,-83.3333333333333,4,1,0,80,0,0
63846,-71.4285714285714,4,1,0,80,0,0
64022,-62.5,4,1,0,80,0,0
64132,-66.6666666666667,4,1,0,80,0,0
64221,-71.4285714285714,4,1,0,80,0,0
64309,-76.9230769230769,4,1,0,80,0,0
64397,-83.3333333333333,4,1,0,80,0,0
64485,-90.9090909090909,4,1,0,80,0,0
64574,-100,4,1,0,80,0,0
64905,-71.4285714285714,4,1,0,80,0,0
65257,-71.4285714285714,4,1,0,80,0,0
65544,-74.6268656716418,4,1,0,80,0,0
65632,-78.125,4,1,0,80,0,0
65721,-81.9672131147541,4,1,0,80,0,0
65809,-86.2068965517241,4,1,0,80,0,0
65897,-90.9090909090909,4,1,0,80,0,0
65985,-96.1538461538461,4,1,0,80,0,0
66074,-102.040816326531,4,1,0,80,0,0
66162,-108.695652173913,4,1,0,80,0,0
66250,-116.279069767442,4,1,0,80,0,0
66338,-125,4,1,0,80,0,0
66493,-100,4,1,0,80,0,0
66669,-83.3333333333333,4,1,0,80,0,0
66780,-88.2378893496868,4,1,0,80,0,0
66868,-93.7470704040499,4,1,0,80,0,0
66956,-100,4,1,0,80,0,0
67044,-107.146683810136,4,1,0,80,0,0
67132,-115.380177685474,4,1,0,80,0,0
67221,-125,4,1,0,80,0,0
67353,-71.4285714285714,4,1,0,80,0,0
67574,-83.3333333333333,4,1,0,80,0,0
67728,-55.5555555555556,4,1,0,80,0,0
68257,-62.5,4,1,0,80,0,0
68368,-66.6666666666667,4,1,0,80,0,0
68456,-71.4285714285714,4,1,0,80,0,0
68544,-76.9230769230769,4,1,0,80,0,0
68632,-83.3333333333333,4,1,0,80,0,0
68787,-62.5,4,1,0,80,0,0
68963,-71.4285714285714,4,1,0,80,0,0
69140,-62.5,4,1,0,80,0,0
69316,-71.4285714285714,4,1,0,80,0,0
69493,-62.5,4,1,0,80,0,0
69669,-55.5555555555556,4,1,0,80,0,0
69779,-58.8235294117647,4,1,0,80,0,0
69868,-62.5,4,1,0,80,0,0
69956,-66.6666666666667,4,1,0,80,0,0
70044,-71.4285714285714,4,1,0,80,0,0
70132,-76.9230769230769,4,1,0,80,0,0
70221,-83.3333333333333,4,1,0,80,0,0
70574,-55.5555555555556,4,1,0,80,0,0
71081,-62.5,4,1,0,80,0,0
71191,-66.6666666666667,4,1,0,80,0,0
71279,-71.4285714285714,4,1,0,80,0,0
71368,-76.9230769230769,4,1,0,80,0,0
71456,-83.3333333333333,4,1,0,80,0,0
71610,-62.5,4,1,0,80,0,0
71787,-71.4285714285714,4,1,0,80,0,0
71963,-62.5,4,1,0,80,0,0
72140,-71.4285714285714,4,1,0,80,0,0
72316,-62.5,4,1,0,80,0,0
72493,-55.5555555555556,4,1,0,80,0,0
72603,-58.8235294117647,4,1,0,80,0,0
72691,-62.5,4,1,0,80,0,0
72779,-66.6666666666667,4,1,0,80,0,0
72868,-71.4285714285714,4,1,0,80,0,0
73132,-66.6666666666667,4,1,0,80,0,0
73221,-62.5,4,1,0,80,0,0
73309,-58.8235294117647,4,1,0,80,0,0
73397,-55.5555555555556,4,1,0,80,0,0
74015,-57.4712643678161,4,1,0,80,0,0
74103,-59.5238095238095,4,1,0,80,0,0
74191,-61.7283950617284,4,1,0,80,0,0
74279,-64.1025641025641,4,1,0,80,0,0
74368,-66.6666666666667,4,1,0,80,0,0
74456,-69.4444444444444,4,1,0,80,0,0
74544,-72.463768115942,4,1,0,80,0,0
74632,-75.7575757575758,4,1,0,80,0,0
74721,-79.3650793650794,4,1,0,80,0,0
74809,-83.3333333333333,4,1,0,80,0,0
75140,-62.5,4,1,0,80,0,0
75426,-66.6666666666667,4,1,0,80,0,0
75515,-71.4285714285714,4,1,0,80,0,0
75603,-76.9230769230769,4,1,0,80,0,0
75691,-83.3333333333333,4,1,0,80,0,0
75779,-90.9090909090909,4,1,0,80,0,0
75868,-100,4,1,0,80,0,0
76199,-71.4285714285714,4,1,0,80,0,0
76838,-74.6268656716418,4,1,0,80,0,0
76926,-78.125,4,1,0,80,0,0
77015,-81.9672131147541,4,1,0,80,0,0
77103,-86.2068965517241,4,1,0,80,0,0
77191,-90.9090909090909,4,1,0,80,0,0
77279,-96.1538461538461,4,1,0,80,0,0
77368,-102.040816326531,4,1,0,80,0,0
77456,-108.695652173913,4,1,0,80,0,0
77544,-116.279069767442,4,1,0,80,0,0
77625,-125,4,1,0,60,0,0
77919,-55.5555555555556,4,1,0,60,0,0
78596,-71.4285714285714,4,1,0,80,0,0
78868,-62.5,4,1,0,80,0,0
79022,-55.5555555555556,4,1,0,80,0,0
79375,-62.5,4,1,0,80,0,0
79552,-55.5555555555556,4,1,0,80,0,0
79662,-60.6060606060606,4,1,0,80,0,0
79750,-66.6666666666667,4,1,0,80,0,0
79838,-74.0740740740741,4,1,0,80,0,0
79927,-83.3333333333333,4,1,0,80,0,0
80081,-71.4285714285714,4,1,0,80,0,0
80257,-62.5,4,1,0,80,0,0
80434,-55.5555555555556,4,1,0,80,0,0
80610,-62.5,4,1,0,80,0,0
80963,-55.5555555555556,4,1,0,80,0,0
81074,-58.8235294117647,4,1,0,80,0,0
81162,-62.5,4,1,0,80,0,0
81250,-66.6666666666667,4,1,0,80,0,0
81338,-71.4285714285714,4,1,0,80,0,0
81427,-76.9230769230769,4,1,0,80,0,0
81515,-83.3333333333333,4,1,0,80,0,0
81846,-55.5555555555556,4,1,0,80,0,0
82199,-62.5,4,1,0,80,0,0
82375,-55.5555555555556,4,1,0,80,0,0
82485,-60.6060606060606,4,1,0,80,0,0
82574,-66.6666666666667,4,1,0,80,0,0
82662,-74.0740740740741,4,1,0,80,0,0
82750,-83.3333333333333,4,1,0,80,0,0
82905,-71.4285714285714,4,1,0,80,0,0
83081,-62.5,4,1,0,80,0,0
83257,-55.5555555555556,4,1,0,80,0,0
83434,-62.5,4,1,0,80,0,0
83787,-55.5555555555556,4,1,0,80,0,0
83897,-58.8235294117647,4,1,0,80,0,0
83985,-62.5,4,1,0,80,0,0
84052,-66.6666666666667,4,1,0,80,0,0
84162,-71.4285714285714,4,1,0,80,0,0
84427,-66.6666666666667,4,1,0,80,0,0
84515,-62.5,4,1,0,80,0,0
84603,-58.8235294117647,4,1,0,80,0,0
84691,-55.5555555555556,4,1,0,80,0,0
85022,-62.5,4,1,0,80,0,0
85198,-55.5555555555556,4,1,0,80,0,0
85309,-57.4712643678161,4,1,0,80,0,0
85397,-59.5238095238095,4,1,0,80,0,0
85485,-61.7283950617284,4,1,0,80,0,0
85573,-64.1025641025641,4,1,0,80,0,0
85662,-66.6666666666667,4,1,0,80,0,0
85750,-69.4444444444444,4,1,0,80,0,0
85838,-72.463768115942,4,1,0,80,0,0
85926,-75.7575757575758,4,1,0,80,0,0
86015,-79.3650793650794,4,1,0,80,0,0
86103,-83.3333333333333,4,1,0,80,0,0
86434,-62.5,4,1,0,80,0,0
86720,-66.6666666666667,4,1,0,80,0,0
86809,-71.4285714285714,4,1,0,80,0,0
86897,-76.9230769230769,4,1,0,80,0,0
86985,-83.3333333333333,4,1,0,80,0,0
87073,-90.9090909090909,4,1,0,80,0,0
87162,-100,4,1,0,80,0,0
87493,-71.4285714285714,4,1,0,80,0,0
87669,-83.3333333333333,4,1,0,80,0,0
87845,-71.4285714285714,4,1,0,80,0,0
88132,-74.6268656716418,4,1,0,80,0,0
88220,-78.125,4,1,0,80,0,0
88309,-81.9672131147541,4,1,0,80,0,0
88397,-86.2068965517241,4,1,0,80,0,0
88485,-90.9090909090909,4,1,0,80,0,0
88573,-96.1538461538461,4,1,0,80,0,0
88662,-102.040816326531,4,1,0,80,0,0
88750,-108.695652173913,4,1,0,80,0,0
88838,-116.279069767442,4,1,0,80,0,0
88926,-125,4,1,0,80,0,0
89257,-83.3333333333333,4,1,0,80,0,0
89368,-88.261253309797,4,1,0,80,0,0
89456,-93.7470704040499,4,1,0,80,0,0
89544,-100,4,1,0,80,0,0
89632,-107.146683810136,4,1,0,80,0,0
89720,-115.380177685474,4,1,0,80,0,0
89809,-125,4,1,0,80,0,0
89919,-71.4285714285714,4,1,0,80,0,0
90140,-83.3333333333333,4,1,0,80,0,0
90316,-55.5555555555556,4,1,0,80,0,0
90669,-62.5,4,1,0,80,0,0
90846,-55.5555555555556,4,1,0,80,0,0
90956,-60.6060606060606,4,1,0,80,0,0
91044,-66.6666666666667,4,1,0,80,0,0
91132,-74.0740740740741,4,1,0,80,0,0
91221,-83.3333333333333,4,1,0,80,0,0
91375,-71.4285714285714,4,1,0,80,0,0
91552,-62.5,4,1,0,80,0,0
91728,-55.5555555555556,4,1,0,80,0,0
91904,-62.5,4,1,0,80,0,0
92257,-55.5555555555556,4,1,0,80,0,0
92368,-58.8235294117647,4,1,0,80,0,0
92456,-62.5,4,1,0,80,0,0
92544,-66.6666666666667,4,1,0,80,0,0
92632,-71.4285714285714,4,1,0,80,0,0
92721,-76.9230769230769,4,1,0,80,0,0
92809,-83.3333333333333,4,1,0,80,0,0
93140,-55.5555555555556,4,1,0,80,0,0
93493,-62.5,4,1,0,80,0,0
93669,-55.5555555555556,4,1,0,80,0,0
93779,-60.6060606060606,4,1,0,80,0,0
93868,-66.6666666666667,4,1,0,80,0,0
93956,-74.0740740740741,4,1,0,80,0,0
94044,-83.3333333333333,4,1,0,80,0,0
94199,-71.4285714285714,4,1,0,80,0,0
94375,-62.5,4,1,0,80,0,0
94552,-55.5555555555556,4,1,0,80,0,0
94728,-62.5,4,1,0,80,0,0
95081,-55.5555555555556,4,1,0,80,0,0
95191,-58.8235294117647,4,1,0,80,0,0
95279,-62.5,4,1,0,80,0,0
95346,-66.6666666666667,4,1,0,80,0,0
95456,-71.4285714285714,4,1,0,80,0,0
95721,-66.6666666666667,4,1,0,80,0,0
95809,-62.5,4,1,0,80,0,0
95897,-58.8235294117647,4,1,0,80,0,0
95985,-55.5555555555556,4,1,0,80,0,0
96316,-62.5,4,1,0,80,0,0
96492,-55.5555555555556,4,1,0,80,0,0
96603,-57.4712643678161,4,1,0,80,0,0
96691,-59.5238095238095,4,1,0,80,0,0
96779,-61.7283950617284,4,1,0,80,0,0
96867,-64.1025641025641,4,1,0,80,0,0
96956,-66.6666666666667,4,1,0,80,0,0
97044,-69.4444444444444,4,1,0,80,0,0
97132,-72.463768115942,4,1,0,80,0,0
97220,-75.7575757575758,4,1,0,80,0,0
97309,-79.3650793650794,4,1,0,80,0,0
97397,-83.3333333333333,4,1,0,80,0,0
97728,-62.5,4,1,0,80,0,0
98014,-65.7894736842105,4,1,0,80,0,0
98103,-69.4444444444444,4,1,0,80,0,0
98191,-73.5294117647059,4,1,0,80,0,0
98279,-78.125,4,1,0,80,0,0
98367,-83.3333333333333,4,1,0,80,0,0
98456,-89.2857142857143,4,1,0,80,0,0
98610,-104.166666666667,4,1,0,80,0,0
98787,-125,4,1,0,60,0,0
101610,-62.5,4,1,0,80,0,0
101963,-55.5555555555556,4,1,0,80,0,0
102250,-55.8139431043827,4,1,0,80,0,0
102338,-56.0747768364069,4,1,0,80,0,0
102427,-56.3380281690141,4,1,0,80,0,0
102515,-56.6037629049504,4,1,0,80,0,0
102603,-56.872048696123,4,1,0,80,0,0
102691,-57.1428571428571,4,1,0,80,0,0
102780,-57.4162569538264,4,1,0,80,0,0
102868,-57.6923187869844,4,1,0,80,0,0
102956,-57.9710144927536,4,1,0,80,0,0
103044,-58.2524158733173,4,1,0,80,0,0
103221,-58.8235294117647,4,1,0,80,0,0
103397,-59.4059523576143,4,1,0,80,0,0
103574,-59.9999880000024,4,1,0,80,0,0
103662,-60.3015196585969,4,1,0,80,0,0
103750,-60.6060606060606,4,1,0,80,0,0
103838,-60.9136932154938,4,1,0,80,0,0
103927,-61.2245022907148,4,1,0,80,0,0
104015,-61.5384615384615,4,1,0,80,0,0
104103,-61.855657349349,4,1,0,80,0,0
104280,-62.5,4,1,0,80,0,0
104456,-63.1579080332438,4,1,0,80,0,0
104809,-64.5161290322581,4,1,0,80,0,0
104985,-65.2174054820447,4,1,0,80,0,0
105074,-65.5737704918033,4,1,0,80,0,0
105162,-65.9340514430656,4,1,0,80,0,0
105250,-66.2983571930071,4,1,0,80,0,0
105338,-66.6666666666667,4,1,0,80,0,0
105427,-67.0390911644489,4,1,0,80,0,0
105515,-67.4157454866844,4,1,0,80,0,0
105603,-67.7966101694915,4,1,0,80,0,0
105691,-68.1818026859539,4,1,0,80,0,0
105780,-68.5714442449015,4,1,0,80,0,0
105868,-68.9655172413793,4,1,0,80,0,0
106044,-69.7674580854554,4,1,0,80,0,0
106221,-70.588218685125,4,1,0,80,0,0
106397,-71.4285714285714,4,1,0,80,0,0
106485,-71.856270214067,4,1,0,80,0,0
106574,-72.2891740455841,4,1,0,80,0,0
106662,-72.7272727272727,4,1,0,80,0,0
106750,-73.1707138608015,4,1,0,80,0,0
106927,-74.0740740740741,4,1,0,80,0,0
107015,-74.5341429728837,4,1,0,80,0,0
107103,-75.0000187500047,4,1,0,80,0,0
107191,-75.4716981132076,4,1,0,80,0,0
107280,-75.9493478609246,4,1,0,80,0,0
107633,-77.9220981615839,4,1,0,80,0,0
107809,-78.9473476454348,4,1,0,80,0,0
107897,-79.4702197272105,4,1,0,80,0,0
107985,-80,4,1,0,80,0,0
108074,-80.5368911310359,4,1,0,80,0,0
108162,-81.0811029948927,4,1,0,80,0,0
108250,-81.6326530612245,4,1,0,80,0,0
108338,-82.1917583036279,4,1,0,80,0,0
108427,-82.7586435196258,4,1,0,80,0,0
108515,-83.3333333333333,4,1,0,80,0,0
108603,-83.91606044306,4,1,0,80,0,0
108691,-84.5070660583285,4,1,0,80,0,0
108868,-85.7142612244968,4,1,0,80,0,0
109044,-86.9565217391304,4,1,0,80,0,0
109221,-88.2353200692118,4,1,0,80,0,0
109309,-88.8888888888889,4,1,0,80,0,0
109397,-89.5522120739665,4,1,0,80,0,0
109485,-90.2255910452905,4,1,0,80,0,0
109574,-90.9090909090909,4,1,0,80,0,0
109662,-91.6030254647251,4,1,0,80,0,0
109750,-92.3077207100679,4,1,0,80,0,0
109927,-93.7499707031342,4,1,0,80,0,0
110103,-95.2380952380952,4,1,0,80,0,0
110456,-98.3606234883202,4,1,0,80,0,0
110633,-100,4,1,0,80,0,0
110721,-100.840302238554,4,1,0,80,0,0
110809,-101.694949727102,4,1,0,80,0,0
110897,-102.564102564103,4,1,0,80,0,0
110985,-103.448240190262,4,1,0,80,0,0
111074,-104.347862381865,4,1,0,80,0,0
111162,-105.263157894737,4,1,0,80,0,0
111250,-106.194652674459,4,1,0,80,0,0
111338,-107.142895408177,4,1,0,80,0,0
111427,-108.108108108108,4,1,0,80,0,0
111515,-109.090869421502,4,1,0,80,0,0
111691,-111.111111111111,4,1,0,80,0,0
111868,-113.207589889657,4,1,0,80,0,0
111956,-114.285714285714,4,1,0,80,0,0
112044,-115.384571005934,4,1,0,80,0,0
112133,-116.504899613553,4,1,0,80,0,0
112221,-117.647058823529,4,1,0,80,0,0
112309,-118.811834133927,4,1,0,80,0,0
112397,-120.000048000019,4,1,0,80,0,0
112507,-121.827460640593,4,1,0,80,0,0
112574,-122.448929612682,4,1,0,80,0,0
112750,-125,4,1,0,80,0,0
112905,-62.5,4,1,0,80,0,0
113257,-55.5555555555556,4,1,0,80,0,0
113544,-55.8139431043827,4,1,0,80,0,0
113633,-56.0747768364069,4,1,0,80,0,0
113721,-56.3380281690141,4,1,0,80,0,0
113809,-56.6037629049504,4,1,0,80,0,0
113897,-56.872048696123,4,1,0,80,0,0
113985,-57.1428571428571,4,1,0,80,0,0
114074,-57.4162569538264,4,1,0,80,0,0
114162,-57.6923187869844,4,1,0,80,0,0
114250,-57.9710144927536,4,1,0,80,0,0
114338,-58.2524158733173,4,1,0,80,0,0
114515,-58.8235294117647,4,1,0,80,0,0
114691,-59.4059523576143,4,1,0,80,0,0
114868,-59.9999880000024,4,1,0,80,0,0
114956,-60.3015196585969,4,1,0,80,0,0
115044,-60.6060606060606,4,1,0,80,0,0
115133,-60.9136932154938,4,1,0,80,0,0
115221,-61.2245022907148,4,1,0,80,0,0
115309,-61.5384615384615,4,1,0,80,0,0
115397,-61.855657349349,4,1,0,80,0,0
115574,-62.5,4,1,0,80,0,0
115750,-63.1579080332438,4,1,0,80,0,0
115927,-63.8297736532396,4,1,0,80,0,0
116103,-64.5161290322581,4,1,0,80,0,0
116280,-65.2174054820447,4,1,0,80,0,0
116368,-65.5737704918033,4,1,0,80,0,0
116456,-65.9340514430656,4,1,0,80,0,0
116544,-66.2983571930071,4,1,0,80,0,0
116633,-66.6666666666667,4,1,0,80,0,0
116721,-67.0390911644489,4,1,0,80,0,0
116809,-67.4157454866844,4,1,0,80,0,0
116897,-67.7966101694915,4,1,0,80,0,0
116985,-68.1818026859539,4,1,0,80,0,0
117074,-68.5714442449015,4,1,0,80,0,0
117162,-68.9655172413793,4,1,0,80,0,0
117338,-69.7674580854554,4,1,0,80,0,0
117515,-70.588218685125,4,1,0,80,0,0
117691,-71.4285714285714,4,1,0,80,0,0
117780,-71.856270214067,4,1,0,80,0,0
117868,-72.2891740455841,4,1,0,80,0,0
117956,-72.7272727272727,4,1,0,80,0,0
118044,-73.1707138608015,4,1,0,80,0,0
118221,-74.0740740740741,4,1,0,80,0,0
118309,-74.5341429728837,4,1,0,80,0,0
118397,-75.0000187500047,4,1,0,80,0,0
118485,-75.4716981132076,4,1,0,80,0,0
118574,-75.9493478609246,4,1,0,80,0,0
118750,-76.9230769230769,4,1,0,80,0,0
118927,-77.9220981615839,4,1,0,80,0,0
119103,-78.9473476454348,4,1,0,80,0,0
119191,-79.4702197272105,4,1,0,80,0,0
119280,-80,4,1,0,80,0,0
119368,-80.5368911310359,4,1,0,80,0,0
119456,-81.0811029948927,4,1,0,80,0,0
119544,-81.6326530612245,4,1,0,80,0,0
119633,-82.1917583036279,4,1,0,80,0,0
119721,-82.7586435196258,4,1,0,80,0,0
119809,-83.3333333333333,4,1,0,80,0,0
119897,-83.91606044306,4,1,0,80,0,0
119985,-84.5070660583285,4,1,0,80,0,0
120162,-85.7142612244968,4,1,0,80,0,0
120338,-86.9565217391304,4,1,0,80,0,0
120515,-88.2353200692118,4,1,0,80,0,0
120603,-88.8888888888889,4,1,0,80,0,0
120691,-89.5522120739665,4,1,0,80,0,0
120780,-90.2255910452905,4,1,0,80,0,0
120868,-90.9090909090909,4,1,0,80,0,0
120956,-91.6030254647251,4,1,0,80,0,0
121044,-92.3077207100679,4,1,0,80,0,0
121221,-93.7499707031342,4,1,0,80,0,0
121397,-95.2380952380952,4,1,0,80,0,0
121574,-96.774224765879,4,1,0,80,0,0
121750,-98.3606234883202,4,1,0,80,0,0
121927,-100,4,1,0,80,0,0
122015,-100.840302238554,4,1,0,80,0,0
122103,-101.694949727102,4,1,0,80,0,0
122191,-102.564102564103,4,1,0,80,0,0
122280,-103.448240190262,4,1,0,80,0,0
122368,-104.347862381865,4,1,0,80,0,0
122456,-105.263157894737,4,1,0,80,0,0
122544,-106.194652674459,4,1,0,80,0,0
122633,-107.142895408177,4,1,0,80,0,0
122721,-108.108108108108,4,1,0,80,0,0
122809,-109.090869421502,4,1,0,80,0,0
122985,-111.111111111111,4,1,0,80,0,0
123162,-113.207589889657,4,1,0,80,0,0
123250,-114.285714285714,4,1,0,80,0,0
123338,-115.384571005934,4,1,0,80,0,0
123427,-116.504899613553,4,1,0,80,0,0
123515,-117.647058823529,4,1,0,80,0,0
123603,-118.811834133927,4,1,0,80,0,0
123691,-120.000048000019,4,1,0,80,0,0
123802,-121.827460640593,4,1,0,80,0,0
123868,-122.448929612682,4,1,0,80,0,0
124044,-125,4,1,0,80,0,0
124199,-62.5,4,1,0,80,0,0
124375,-71.4285714285714,4,1,0,80,0,0
124552,-62.5,4,1,0,80,0,0
124728,-55.5555555555556,4,1,0,80,0,0
124838,-57.1428571428571,4,1,0,80,0,0
124927,-58.8235294117647,4,1,0,80,0,0
125015,-60.6060606060606,4,1,0,80,0,0
125103,-62.5,4,1,0,80,0,0
125257,-66.6666666666667,4,1,0,80,0,0
125434,-71.4285714285714,4,1,0,80,0,0
125610,-76.9230769230769,4,1,0,80,0,0
125721,-75.4716981132076,4,1,0,80,0,0
125809,-74.0740740740741,4,1,0,80,0,0
125897,-72.7272727272727,4,1,0,80,0,0
125985,-71.4285714285714,4,1,0,80,0,0
126074,-70.1754385964912,4,1,0,80,0,0
126162,-68.9655172413793,4,1,0,80,0,0
126250,-67.7966101694915,4,1,0,80,0,0
126338,-66.6666666666667,4,1,0,80,0,0
126427,-65.5737704918033,4,1,0,80,0,0
126515,-64.5161290322581,4,1,0,80,0,0
126603,-63.4920634920635,4,1,0,80,0,0
126691,-62.5,4,1,0,80,0,0
126780,-67.7966101694915,4,1,0,80,0,0
126868,-74.0740740740741,4,1,0,80,0,0
126956,-81.6326530612245,4,1,0,80,0,0
127044,-90.9090909090909,4,1,0,80,0,0
127199,-71.4285714285714,4,1,0,80,0,0
127376,-62.5,4,1,0,80,0,0
127552,-55.5555555555556,4,1,0,80,0,0
127662,-57.1428571428571,4,1,0,80,0,0
127751,-58.8235294117647,4,1,0,80,0,0
127839,-60.6060606060606,4,1,0,80,0,0
127927,-62.5,4,1,0,80,0,0
128081,-66.6666666666667,4,1,0,80,0,0
128258,-71.4285714285714,4,1,0,80,0,0
128434,-76.9230769230769,4,1,0,80,0,0
128545,-75.4716981132076,4,1,0,80,0,0
128633,-74.0740740740741,4,1,0,80,0,0
128721,-72.7272727272727,4,1,0,80,0,0
128809,-71.4285714285714,4,1,0,80,0,0
128898,-70.1754385964912,4,1,0,80,0,0
128986,-68.9655172413793,4,1,0,80,0,0
129074,-67.7966101694915,4,1,0,80,0,0
129162,-66.6666666666667,4,1,0,80,0,0
129251,-65.5737704918033,4,1,0,80,0,0
129339,-64.5161290322581,4,1,0,80,0,0
129427,-63.4920634920635,4,1,0,80,0,0
129515,-62.5,4,1,0,80,0,0
129604,-67.7966101694915,4,1,0,80,0,0
129692,-74.0740740740741,4,1,0,80,0,0
129780,-81.6326530612245,4,1,0,80,0,0
129868,-90.9090909090909,4,1,0,80,0,0
129978,-71.4285714285714,4,1,0,80,0,0
130199,-62.5,4,1,0,80,0,0
130375,-55.5555555555556,4,1,0,80,0,0
130485,-58.8235294117647,4,1,0,80,0,0
130574,-62.5,4,1,0,80,0,0
130662,-66.6666666666667,4,1,0,80,0,0
130750,-71.4285714285714,4,1,0,80,0,0
130905,-62.5,4,1,0,80,0,0
131081,-71.4285714285714,4,1,0,80,0,0
131257,-62.5,4,1,0,80,0,0
131434,-71.4285714285714,4,1,0,80,0,0
131610,-62.5,4,1,0,80,0,0
131787,-55.5555555555556,4,1,0,80,0,0
131897,-58.8235294117647,4,1,0,80,0,0
131985,-62.5,4,1,0,80,0,0
132074,-66.6666666666667,4,1,0,80,0,0
132162,-71.4285714285714,4,1,0,80,0,0
132250,-76.9230769230769,4,1,0,80,0,0
132338,-83.3333333333333,4,1,0,80,0,0
132493,-71.4285714285714,4,1,0,80,0,0
132669,-62.5,4,1,0,80,0,0
132846,-71.4285714285714,4,1,0,80,0,0
133022,-62.5,4,1,0,80,0,0
133199,-55.5555555555556,4,1,0,80,0,0
133309,-58.8235294117647,4,1,0,80,0,0
133397,-62.5,4,1,0,80,0,0
133485,-66.6666666666667,4,1,0,80,0,0
133574,-71.4285714285714,4,1,0,80,0,0
133905,-83.3333333333333,4,1,0,80,0,0
134081,-71.4285714285714,4,1,0,80,0,0
134191,-76.9230769230769,4,1,0,80,0,0
134280,-83.3333333333333,4,1,0,80,0,0
134610,-71.4285714285714,4,1,0,80,0,0
134721,-76.9230769230769,4,1,0,80,0,0
134809,-83.3333333333333,4,1,0,80,0,0
134897,-90.9090909090908,4,1,0,80,0,0
134985,-100,4,1,0,80,0,0
135140,-83.3333333333333,4,1,0,80,0,0
135316,-71.4285714285714,4,1,0,80,0,0
135427,-66.6666666666667,4,1,0,80,0,0
135515,-62.5,4,1,0,80,0,0
135669,-71.4285714285714,4,1,0,80,0,0
135846,-62.5,4,1,0,80,0,0
136022,-55.5555555555556,4,1,0,80,0,0
136132,-57.1428571428571,4,1,0,80,0,0
136221,-58.8235294117647,4,1,0,80,0,0
136309,-60.6060606060606,4,1,0,80,0,0
136397,-62.5,4,1,0,80,0,0
136551,-66.6666666666667,4,1,0,80,0,0
136728,-71.4285714285714,4,1,0,80,0,0
136904,-76.9230769230769,4,1,0,80,0,0
137015,-75.4716981132076,4,1,0,80,0,0
137103,-74.0740740740741,4,1,0,80,0,0
137191,-72.7272727272727,4,1,0,80,0,0
137279,-71.4285714285714,4,1,0,80,0,0
137368,-70.1754385964912,4,1,0,80,0,0
137456,-68.9655172413793,4,1,0,80,0,0
137544,-67.7966101694915,4,1,0,80,0,0
137632,-66.6666666666667,4,1,0,80,0,0
137721,-65.5737704918033,4,1,0,80,0,0
137809,-64.5161290322581,4,1,0,80,0,0
137897,-63.4920634920635,4,1,0,80,0,0
137985,-62.5,4,1,0,80,0,0
138074,-67.7966101694915,4,1,0,80,0,0
138162,-74.0740740740741,4,1,0,80,0,0
138250,-81.6326530612245,4,1,0,80,0,0
138338,-90.9090909090909,4,1,0,80,0,0
138493,-71.4285714285714,4,1,0,80,0,0
138669,-62.5,4,1,0,80,0,0
138846,-55.5555555555556,4,1,0,80,0,0
138956,-58.8235294117647,4,1,0,80,0,0
139044,-62.5,4,1,0,80,0,0
139132,-66.6666666666667,4,1,0,80,0,0
139221,-71.4285714285714,4,1,0,80,0,0
139375,-62.5,4,1,0,80,0,0
139507,-71.4285714285714,4,1,0,80,0,0
139728,-62.5,4,1,0,80,0,0
139905,-71.4285714285714,4,1,0,80,0,0
140081,-62.5,4,1,0,80,0,0
140257,-55.5555555555556,4,1,0,80,0,0
140368,-58.8235294117647,4,1,0,80,0,0
140456,-62.5,4,1,0,80,0,0
140544,-66.6666666666667,4,1,0,80,0,0
140632,-71.4285714285714,4,1,0,80,0,0
140897,-66.6666666666667,4,1,0,80,0,0
140985,-62.5,4,1,0,80,0,0
141074,-58.8235294117647,4,1,0,80,0,0
141162,-55.5555555555556,4,1,0,80,0,0
141493,-62.5,4,1,0,80,0,0
141669,-55.5555555555556,4,1,0,80,0,0
141780,-58.8235294117647,4,1,0,80,0,0
141868,-62.5,4,1,0,80,0,0
141956,-66.6666666666667,4,1,0,80,0,0
142044,-71.4285714285714,4,1,0,80,0,0
142199,-62.5,4,1,0,80,0,0
142375,-71.4285714285714,4,1,0,80,0,0
142552,-62.5,4,1,0,80,0,0
142728,-71.4285714285714,4,1,0,80,0,0
142905,-62.5,4,1,0,80,0,0
143081,-55.5555555555556,4,1,0,80,0,0
143191,-58.8235294117647,4,1,0,80,0,0
143280,-62.5,4,1,0,80,0,0
143368,-66.6666666666667,4,1,0,80,0,0
143456,-71.4285714285714,4,1,0,80,0,0
143544,-76.9230769230769,4,1,0,80,0,0
143632,-83.3333333333333,4,1,0,80,0,0
143787,-71.4285714285714,4,1,0,80,0,0
143985,-62.5,4,1,0,80,0,0
144338,-66.6533359994668,4,1,0,80,0,0
144515,-68.9464975179261,4,1,0,80,0,0
144603,-70.1508242721852,4,1,0,80,0,0
144691,-71.4030703320243,4,1,0,80,0,0
144780,-72.6955510322768,4,1,0,80,0,0
144868,-74.0411668887902,4,1,0,80,0,0
145044,-76.8757687576876,4,1,0,80,0,0
145221,-79.9424414421616,4,1,0,80,0,0
145397,-83.2639467110741,4,1,0,80,0,0
145574,-86.8658790826963,4,1,0,80,0,0
145750,-90.8017797148824,4,1,0,80,0,0
145927,-95.1112801978314,4,1,0,80,0,0
146015,-97.4184120798831,4,1,0,80,0,0
146103,-99.8402555910543,4,1,0,80,0,0
146191,-102.396067990989,4,1,0,80,0,0
146280,-105.075128717033,4,1,0,80,0,0
146456,-110.889332446219,4,1,0,80,0,0
146544,-114.038088721633,4,1,0,80,0,0
146633,-117.384669562155,4,1,0,80,0,0
146721,-120.918984280532,4,1,0,80,0,0
146809,-124.672734073058,4,1,0,80,0,0
147096,-124.676153690788,4,1,0,50,0,0
147360,-124.676153690788,4,1,0,55,0,0
147537,-124.676153690788,4,1,0,60,0,0
147713,-124.676153690788,4,1,0,65,0,0
147890,-124.676153690788,4,1,0,70,0,0
148066,-124.676153690788,4,1,0,75,0,0
148243,-124.676153690788,4,1,0,80,0,0
148419,-124.676153690788,4,1,0,78,0,0
148596,-124.676153690788,4,1,0,76,0,0
148772,-124.676153690788,4,1,0,74,0,0
148949,-124.676153690788,4,1,0,72,0,0
149125,-124.676153690788,4,1,0,70,0,0
149302,-124.676153690788,4,1,0,68,0,0
149478,-124.676153690788,4,1,0,66,0,0
149655,-124.676153690788,4,1,0,64,0,0
149831,-124.676153690788,4,1,0,62,0,0
150007,-124.676153690788,4,1,0,60,0,0
150184,-124.676153690788,4,1,0,58,0,0
150360,-124.676153690788,4,1,0,56,0,0
150537,-124.676153690788,4,1,0,54,0,0
150713,-124.676153690788,4,1,0,52,0,0
150890,-124.676153690788,4,1,0,50,0,0
151419,-124.676153690788,4,1,0,52,0,0
151596,-124.676153690788,4,1,0,54,0,0
151772,-124.676153690788,4,1,0,56,0,0
151949,-124.676153690788,4,1,0,58,0,0
152125,-124.676153690788,4,1,0,60,0,0
152302,-124.676153690788,4,1,0,62,0,0
152478,-124.676153690788,4,1,0,64,0,0
152655,-124.676153690788,4,1,0,66,0,0
152831,-124.676153690788,4,1,0,68,0,0
153007,-124.676153690788,4,1,0,70,0,0
153184,-124.676153690788,4,1,0,72,0,0
153360,-124.676153690788,4,1,0,74,0,0
153537,-124.676153690788,4,1,0,76,0,0
153713,-124.676153690788,4,1,0,78,0,0
153890,-124.676153690788,4,1,0,80,0,0
154066,-124.676153690788,4,1,0,78,0,0
154243,-124.676153690788,4,1,0,76,0,0
154419,-124.676153690788,4,1,0,74,0,0
154596,-124.676153690788,4,1,0,72,0,0
154772,-124.676153690788,4,1,0,70,0,0
154949,-124.676153690788,4,1,0,68,0,0
155125,-124.676153690788,4,1,0,66,0,0
155302,-124.676153690788,4,1,0,64,0,0
155478,-124.676153690788,4,1,0,62,0,0
155655,-124.676153690788,4,1,0,60,0,0
155831,-124.676153690788,4,1,0,58,0,0
156007,-124.676153690788,4,1,0,56,0,0
156184,-124.676153690788,4,1,0,54,0,0
156360,-124.676153690788,4,1,0,52,0,0
156537,-124.676153690788,4,1,0,50,0,0
158103,-124.89181246745,4,1,0,70,0,0
158191,-121.212121212121,4,1,0,70,0,0
158279,-117.647058823529,4,1,0,70,0,0
158367,-114.285714285714,4,1,0,70,0,0
158456,-111.111111111111,4,1,0,70,0,0
158632,-105.263157894737,4,1,0,70,0,0
158809,-100,4,1,0,70,0,0
159162,-90.9090909090909,4,1,0,70,0,0
159338,-86.9565217391304,4,1,0,70,0,0
159514,-83.3333333333333,4,1,0,70,0,0
159867,-85.7100736763793,4,1,0,70,0,0
160044,-86.9499437868613,4,1,0,70,0,0
160220,-88.226289846301,4,1,0,70,0,0
160397,-89.5406653408679,4,1,0,70,0,0
160573,-90.8947956366862,4,1,0,70,0,0
160750,-92.2904268985987,4,1,0,70,0,0
160926,-93.7296723773032,4,1,0,70,0,0
161014,-94.4662609025873,4,1,0,70,0,0
161103,-95.2145183097519,4,1,0,70,0,0
161191,-96.1538461538461,4,1,0,70,0,0
161279,-96.7471667592215,4,1,0,70,0,0
161456,-98.3299638932372,4,1,0,70,0,0
161632,-99.9653120367232,4,1,0,70,0,0
161985,-103.405024036498,4,1,0,70,0,0
162162,-105.215201913233,4,1,0,70,0,0
162338,-107.089885895727,4,1,0,70,0,0
162691,-111.046950650735,4,1,0,70,0,0
162867,-113.137273980011,4,1,0,70,0,0
163044,-115.30780264839,4,1,0,70,0,0
163220,-117.563104935652,4,1,0,70,0,0
163397,-119.90853377044,4,1,0,70,0,0
163573,-122.349452057979,4,1,0,70,0,0
163750,-125,4,1,0,70,0,0
163838,-121.212121212121,4,1,0,70,0,0
163926,-117.647058823529,4,1,0,70,0,0
164015,-114.285714285714,4,1,0,70,0,0
164103,-111.111111111111,4,1,0,70,0,0
164279,-105.263157894737,4,1,0,70,0,0
164456,-100,4,1,0,70,0,0
164809,-103.448240190262,4,1,0,70,0,0
164985,-105.263157894737,4,1,0,70,0,0
165162,-107.142895408177,4,1,0,70,0,0
165515,-111.111111111111,4,1,0,70,0,0
165691,-113.207589889657,4,1,0,70,0,0
165868,-115.384571005934,4,1,0,70,0,0
166044,-117.647058823529,4,1,0,70,0,0
166220,-120.000048000019,4,1,0,70,0,0
166397,-122.448929612682,4,1,0,70,0,0
166573,-125,4,1,0,70,0,0
166662,-121.212121212121,4,1,0,70,0,0
166750,-117.647058823529,4,1,0,70,0,0
166838,-114.285714285714,4,1,0,70,0,0
166926,-111.111111111111,4,1,0,70,0,0
167103,-105.263157894737,4,1,0,70,0,0
167279,-100,4,1,0,70,0,0
167632,-103.43593488501,4,1,0,70,0,0
167809,-105.243992409803,4,1,0,70,0,0
167985,-107.116384093645,4,1,0,70,0,0
168338,-111.068411477365,4,1,0,70,0,0
168515,-113.155837087278,4,1,0,70,0,0
168691,-115.323227943279,4,1,0,70,0,0
168868,-117.575268747671,4,1,0,70,0,0
169044,-119.917017423943,4,1,0,70,0,0
169220,-122.353943039345,4,1,0,70,0,0
169397,-124.891968447293,4,1,0,70,0,0
169485,-121.212121212121,4,1,0,70,0,0
169573,-117.647058823529,4,1,0,70,0,0
169662,-114.285714285714,4,1,0,70,0,0
169728,-111.111111111111,4,1,0,70,0,0
169904,-113.211819313936,4,1,0,70,0,0
170081,-115.380177685474,4,1,0,70,0,0
170434,-120.004800192008,4,1,0,70,0,0
170610,-122.448479802123,4,1,0,70,0,0
170787,-125,4,1,0,70,0,0
170897,-121.212121212121,4,1,0,70,0,0
170985,-117.647058823529,4,1,0,70,0,0
171073,-114.285714285714,4,1,0,70,0,0
171162,-111.111111111111,4,1,0,70,0,0
171316,-113.211819313936,4,1,0,70,0,0
171492,-115.380177685474,4,1,0,70,0,0
171669,-117.647058823529,4,1,0,70,0,0
171845,-120.004800192008,4,1,0,70,0,0
172022,-122.443981878291,4,1,0,70,0,0
172198,-125,4,1,0,70,0,0
172309,-121.212121212121,4,1,0,70,0,0
172397,-117.647058823529,4,1,0,70,0,0
172551,-120.004800192008,4,1,0,70,0,0
172728,-122.443981878291,4,1,0,70,0,0
172904,-125,4,1,0,70,0,0
173015,-121.212121212121,4,1,0,70,0,0
173103,-117.647058823529,4,1,0,70,0,0
173257,-120.004800192008,4,1,0,70,0,0
173434,-122.443981878291,4,1,0,70,0,0
173610,-125,4,1,0,70,0,0
173720,-121.212121212121,4,1,0,70,0,0
173809,-117.647058823529,4,1,0,70,0,0
173963,-120.004800192008,4,1,0,70,0,0
174140,-122.443981878291,4,1,0,70,0,0
174316,-125,4,1,0,70,0,0
174426,-121.212121212121,4,1,0,70,0,0
174515,-117.647058823529,4,1,0,70,0,0
174669,-120.004800192008,4,1,0,70,0,0
174845,-122.443981878291,4,1,0,70,0,0
175022,-125,4,1,0,70,0,0
175132,-121.212121212121,4,1,0,70,0,0
175220,-117.647058823529,4,1,0,70,0,0
175485,-121.212121212121,4,1,0,70,0,0
175573,-125,4,1,0,70,0,0
175838,-121.212121212121,4,1,0,70,0,0
175926,-117.647058823529,4,1,0,70,0,0
176191,-121.212121212121,4,1,0,70,0,0
176279,-125,4,1,0,70,0,0
176544,-121.212121212121,4,1,0,70,0,0
176632,-117.647058823529,4,1,0,70,0,0
176897,-121.212121212121,4,1,0,70,0,0
176985,-125,4,1,0,70,0,0
177250,-121.212121212121,4,1,0,70,0,0
177338,-117.647058823529,4,1,0,70,0,0
177603,-121.212121212121,4,1,0,70,0,0
177691,-125,4,1,0,70,0,0
178044,-117.647058823529,4,1,0,70,0,0
178221,-111.111111111111,4,1,0,70,0,0
178397,-105.263157894737,4,1,0,70,0,0
178574,-100,4,1,0,70,0,0
178750,-95.2380952380952,4,1,0,70,0,0
178927,-90.9090909090909,4,1,0,70,0,0
179103,-86.9565217391304,4,1,0,70,0,0
179280,-83.3333333333333,4,1,0,70,0,0
179368,-81.6326530612245,4,1,0,70,0,0
179456,-80,4,1,0,70,0,0
179544,-78.4313725490196,4,1,0,70,0,0
179633,-76.9230769230769,4,1,0,70,0,0
179721,-75.4716981132076,4,1,0,70,0,0
179809,-74.0740740740741,4,1,0,70,0,0
179897,-72.7272727272727,4,1,0,70,0,0
179985,-71.4285714285714,4,1,0,70,0,0
180074,-70.1754385964912,4,1,0,70,0,0
180162,-68.9655172413793,4,1,0,70,0,0
180250,-67.7966101694915,4,1,0,70,0,0
180338,-66.6666666666667,4,1,0,70,0,0
180427,-65.5737704918033,4,1,0,70,0,0
180515,-64.5161290322581,4,1,0,70,0,0
180603,-63.4920634920635,4,1,0,70,0,0
180691,-62.5,4,1,0,70,0,0
181375,-64.5161290322581,4,1,0,60,0,0
181728,-66.6666666666667,4,1,0,60,0,0
182081,-68.9655172413793,4,1,0,60,0,0
182434,-71.4285714285714,4,1,0,60,0,0
182787,-74.0740740740741,4,1,0,60,0,0
183140,-76.9230769230769,4,1,0,60,0,0
183493,-66.6666666666667,4,1,0,60,0,0
184199,-68.9655172413793,4,1,0,60,0,0
184552,-71.4285714285714,4,1,0,60,0,0
184905,-74.0740740740741,4,1,0,60,0,0
185257,-76.9230769230769,4,1,0,60,0,0
185610,-80,4,1,0,60,0,0
185963,-83.3333333333333,4,1,0,60,0,0
186316,-71.4285714285714,4,1,0,60,0,0
187022,-74.0740740740741,4,1,0,60,0,0
187375,-76.9230769230769,4,1,0,60,0,0
187728,-80,4,1,0,60,0,0
188081,-83.3333333333333,4,1,0,60,0,0
188434,-86.9565217391304,4,1,0,60,0,0
188787,-90.9090909090909,4,1,0,60,0,0
189140,-76.9230769230769,4,1,0,60,0,0
189846,-83.3333333333333,4,1,0,60,0,0
190199,-90.9090909090909,4,1,0,60,0,0
190552,-99.9999999999999,4,1,0,60,0,0
190905,-83.3333333333333,4,1,0,30,0,0
191191,-80,4,1,0,35,0,0
191280,-76.9230769230769,4,1,0,40,0,0
191368,-74.0740740740741,4,1,0,45,0,0
191456,-71.4285714285714,4,1,0,50,0,0
191544,-68.9655172413793,4,1,0,55,0,0
191632,-66.6666666666667,4,1,0,60,0,0
191721,-64.5161290322581,4,1,0,65,0,0
191809,-62.5,4,1,0,70,0,0
192007,-55.5555555555556,4,1,0,80,0,1
192140,-58.8235294117647,4,1,0,80,0,1
192316,-62.5,4,1,0,80,0,1
192493,-66.6666666666667,4,1,0,80,0,1
192603,-64.5161290322581,4,1,0,80,0,1
192691,-62.5,4,1,0,80,0,1
192780,-60.6060606060606,4,1,0,80,0,1
192868,-58.8235294117647,4,1,0,80,0,1
192956,-57.1428571428571,4,1,0,80,0,1
193044,-55.5555555555556,4,1,0,80,0,1
193309,-58.8235294117647,4,1,0,80,0,1
193397,-62.5,4,1,0,80,0,1
193552,-71.4285714285714,4,1,0,80,0,1
193728,-62.5,4,1,0,80,0,1
193905,-55.5555555555556,4,1,0,80,0,1
194015,-57.1428571428571,4,1,0,80,0,1
194103,-58.8235294117647,4,1,0,80,0,1
194191,-60.6060606060606,4,1,0,80,0,1
194280,-62.5,4,1,0,80,0,1
194368,-64.5161290322581,4,1,0,80,0,1
194456,-66.6666666666667,4,1,0,80,0,1
194610,-71.4285714285714,4,1,0,80,0,1
194787,-62.5,4,1,0,80,0,1
194963,-66.6666666666667,4,1,0,80,0,1
195140,-71.4285714285714,4,1,0,80,0,1
195316,-76.9230769230769,4,1,0,80,0,1
195427,-74.0740740740741,4,1,0,80,0,1
195515,-71.4285714285714,4,1,0,80,0,1
195603,-68.9655172413793,4,1,0,80,0,1
195691,-66.6666666666667,4,1,0,80,0,1
195780,-64.5161290322581,4,1,0,80,0,1
195868,-62.5,4,1,0,80,0,1
195956,-60.6060606060606,4,1,0,80,0,1
196044,-58.8235294117647,4,1,0,80,0,1
196132,-57.1428571428571,4,1,0,80,0,1
196221,-55.5555555555556,4,1,0,80,0,1
196375,-62.5,4,1,0,80,0,1
196552,-55.5555555555556,4,1,0,80,0,1
196838,-58.8235294117647,4,1,0,80,0,1
196927,-62.5,4,1,0,80,0,1
197015,-66.6666666666667,4,1,0,80,0,1
197103,-71.4285714285714,4,1,0,80,0,1
197368,-66.6666666666667,4,1,0,80,0,1
197456,-62.5,4,1,0,80,0,1
197544,-58.8235294117647,4,1,0,80,0,1
197632,-55.5555555555556,4,1,0,80,0,1
197787,-62.5,4,1,0,80,0,1
197963,-55.5555555555556,4,1,0,80,0,1
198250,-57.4712643678161,4,1,0,80,0,1
198338,-59.5238095238095,4,1,0,80,0,1
198427,-61.7283950617284,4,1,0,80,0,1
198515,-64.1025641025641,4,1,0,80,0,1
198603,-66.6666666666667,4,1,0,80,0,1
198691,-69.4444444444444,4,1,0,80,0,1
198780,-72.463768115942,4,1,0,80,0,1
198868,-75.7575757575758,4,1,0,80,0,1
198956,-79.3650793650794,4,1,0,80,0,1
199044,-83.3333333333333,4,1,0,80,0,1
199375,-71.4285714285714,4,1,0,80,0,1
199552,-62.5,4,1,0,80,0,1
199662,-64.9350649350649,4,1,0,80,0,1
199750,-67.5675675675676,4,1,0,80,0,1
199838,-70.4225352112676,4,1,0,80,0,1
199927,-73.5294117647059,4,1,0,80,0,1
200015,-76.9230769230769,4,1,0,80,0,1
200103,-80.6451612903226,4,1,0,80,0,1
200191,-85.1063829787234,4,1,0,80,0,1
200280,-89.2857142857143,4,1,0,80,0,1
200434,-100,4,1,0,80,0,1
200787,-83.3333333333333,4,1,0,80,0,1
200963,-71.4285714285714,4,1,0,80,0,1
201074,-74.6268656716418,4,1,0,80,0,1
201162,-78.125,4,1,0,80,0,1
201250,-81.9672131147541,4,1,0,80,0,1
201338,-86.2068965517241,4,1,0,80,0,1
201427,-90.9090909090909,4,1,0,80,0,1
201515,-96.1538461538461,4,1,0,80,0,1
201603,-102.040816326531,4,1,0,80,0,1
201691,-108.695652173913,4,1,0,80,0,1
201780,-116.279069767442,4,1,0,80,0,1
201868,-125,4,1,0,80,0,1
202022,-100,4,1,0,80,0,1
202199,-83.3333333333333,4,1,0,80,0,1
202309,-88.2378893496868,4,1,0,80,0,1
202397,-93.7470704040499,4,1,0,80,0,1
202485,-100,4,1,0,80,0,1
202574,-107.146683810136,4,1,0,80,0,1
202662,-115.380177685474,4,1,0,80,0,1
202750,-125,4,1,0,80,0,1
202860,-71.4285714285714,4,1,0,80,0,1
203081,-62.5,4,1,0,80,0,1
203257,-55.5555555555556,4,1,0,80,0,1
203435,-58.8235294117647,4,1,0,80,0,1
203611,-62.5,4,1,0,80,0,1
203788,-66.6666666666667,4,1,0,80,0,1
203898,-63.4920634920635,4,1,0,80,0,1
203986,-60.6060606060606,4,1,0,80,0,1
204075,-57.9710144927536,4,1,0,80,0,1
204163,-55.5555555555556,4,1,0,80,0,1
204427,-57.9710144927536,4,1,0,80,0,1
204515,-60.6060606060606,4,1,0,80,0,1
204604,-63.4920634920635,4,1,0,80,0,1
204692,-66.6666666666667,4,1,0,80,0,1
204847,-71.4285714285714,4,1,0,80,0,1
205023,-62.5,4,1,0,80,0,1
205200,-55.5555555555556,4,1,0,80,0,1
205310,-57.1428571428571,4,1,0,80,0,1
205398,-58.8235294117647,4,1,0,80,0,1
205486,-60.6060606060606,4,1,0,80,0,1
205575,-62.5,4,1,0,80,0,1
205663,-64.5161290322581,4,1,0,80,0,1
205751,-66.6666666666667,4,1,0,80,0,1
205905,-71.4285714285714,4,1,0,80,0,1
206082,-62.5,4,1,0,80,0,1
206258,-66.6666666666667,4,1,0,80,0,1
206435,-71.4285714285714,4,1,0,80,0,1
206611,-76.9230769230769,4,1,0,80,0,1
206722,-74.0740740740741,4,1,0,80,0,1
206810,-71.4285714285714,4,1,0,80,0,1
206898,-68.9655172413793,4,1,0,80,0,1
206986,-66.6666666666667,4,1,0,80,0,1
207075,-64.5161290322581,4,1,0,80,0,1
207163,-62.5,4,1,0,80,0,1
207251,-60.6060606060606,4,1,0,80,0,1
207339,-58.8235294117647,4,1,0,80,0,1
207427,-57.1428571428571,4,1,0,80,0,1
207516,-55.5555555555556,4,1,0,80,0,1
207670,-62.5,4,1,0,80,0,1
207847,-55.5555555555556,4,1,0,80,0,1
208133,-58.8235294117647,4,1,0,80,0,1
208222,-62.5,4,1,0,80,0,1
208310,-66.6666666666667,4,1,0,80,0,1
208398,-71.4285714285714,4,1,0,80,0,1
208663,-66.6666666666667,4,1,0,80,0,1
208751,-62.5,4,1,0,80,0,1
208839,-58.8235294117647,4,1,0,80,0,1
208927,-55.5555555555556,4,1,0,80,0,1
209082,-62.5,4,1,0,80,0,1
209258,-55.5555555555556,4,1,0,80,0,1
209545,-57.4712643678161,4,1,0,80,0,1
209633,-59.5238095238095,4,1,0,80,0,1
209722,-61.7283950617284,4,1,0,80,0,1
209810,-64.1025641025641,4,1,0,80,0,1
209898,-66.6666666666667,4,1,0,80,0,1
209986,-69.4444444444444,4,1,0,80,0,1
210075,-72.463768115942,4,1,0,80,0,1
210163,-75.7575757575758,4,1,0,80,0,1
210251,-79.3650793650794,4,1,0,80,0,1
210339,-83.3333333333333,4,1,0,80,0,1
210670,-71.4285714285714,4,1,0,80,0,1
210847,-62.5,4,1,0,80,0,1
210957,-65.5737704918033,4,1,0,80,0,1
211045,-68.9655172413793,4,1,0,80,0,1
211133,-72.7272727272727,4,1,0,80,0,1
211222,-76.9230769230769,4,1,0,80,0,1
211310,-81.6326530612245,4,1,0,80,0,1
211398,-86.9565217391304,4,1,0,80,0,1
211575,-100,4,1,0,80,0,1
211905,-88.2378893496868,4,1,0,80,0,1
212082,-78.945290913397,4,1,0,80,0,1
212258,-71.4285714285714,4,1,0,80,0,1
212369,-74.6268656716418,4,1,0,80,0,1
212457,-78.125,4,1,0,80,0,1
212545,-81.9672131147541,4,1,0,80,0,1
212633,-86.2068965517241,4,1,0,80,0,1
212722,-90.9090909090909,4,1,0,80,0,1
212810,-96.1538461538461,4,1,0,80,0,1
212898,-102.040816326531,4,1,0,80,0,1
212986,-108.695652173913,4,1,0,80,0,1
213075,-116.279069767442,4,1,0,80,0,1
213163,-125,4,1,0,60,0,1
213184,-125,4,1,0,60,0,0
214155,-71.4285714285714,4,1,0,70,0,0
214376,-83.3333333333333,4,1,0,70,0,0
214552,-62.5,4,1,0,80,0,0
214596,-62.5,4,1,0,80,0,1
214728,-71.4285714285714,4,1,0,80,0,1
214905,-62.5,4,1,0,80,0,1
215081,-55.5555555555556,4,1,0,80,0,1
215191,-60.6060606060606,4,1,0,80,0,1
215280,-66.6666666666667,4,1,0,80,0,1
215368,-74.0740740740741,4,1,0,80,0,1
215456,-83.3333333333333,4,1,0,80,0,1
215610,-55.5555555555556,4,1,0,77,0,1
215721,-60.6060606060606,4,1,0,80,0,1
215809,-66.6666666666667,4,1,0,80,0,1
215897,-74.0740740740741,4,1,0,80,0,1
215985,-83.3333333333333,4,1,0,80,0,1
216140,-71.4285714285714,4,1,0,80,0,1
216316,-62.5,4,1,0,80,0,1
216493,-55.5555555555556,4,1,0,80,0,1
216603,-58.8235294117647,4,1,0,80,0,1
216691,-62.5,4,1,0,80,0,1
216780,-66.6666666666667,4,1,0,80,0,1
216868,-71.4285714285714,4,1,0,80,0,1
216956,-76.9230769230769,4,1,0,80,0,1
217044,-83.3333333333333,4,1,0,80,0,1
217199,-71.4285714285714,4,1,0,80,0,1
217375,-62.5,4,1,0,80,0,1
217552,-71.4285714285714,4,1,0,80,0,1
217728,-62.5,4,1,0,80,0,1
217905,-55.5555555555556,4,1,0,80,0,1
218015,-57.1428571428571,4,1,0,80,0,1
218103,-58.8235294117647,4,1,0,80,0,1
218191,-60.6060606060606,4,1,0,80,0,1
218280,-62.5,4,1,0,80,0,1
218368,-64.5161290322581,4,1,0,80,0,1
218456,-66.6666666666667,4,1,0,80,0,1
218544,-68.9655172413793,4,1,0,80,0,1
218632,-71.4285714285714,4,1,0,80,0,1
218721,-74.0740740740741,4,1,0,80,0,1
218809,-76.9230769230769,4,1,0,80,0,1
218963,-71.4285714285714,4,1,0,80,0,1
219140,-62.5,4,1,0,80,0,1
219316,-55.5555555555556,4,1,0,80,0,1
219427,-58.8235294117647,4,1,0,80,0,1
219515,-62.5,4,1,0,80,0,1
219603,-66.6666666666667,4,1,0,80,0,1
219691,-71.4285714285714,4,1,0,80,0,1
219956,-66.6666666666667,4,1,0,80,0,1
220044,-62.5,4,1,0,80,0,1
220132,-58.8235294117647,4,1,0,80,0,1
220221,-55.5555555555556,4,1,0,80,0,1
220375,-62.5,4,1,0,80,0,1
220552,-55.5555555555556,4,1,0,80,0,1
220838,-57.4712643678161,4,1,0,80,0,1
220927,-59.5238095238095,4,1,0,80,0,1
221015,-61.7283950617284,4,1,0,80,0,1
221103,-64.1025641025641,4,1,0,80,0,1
221191,-66.6666666666667,4,1,0,80,0,1
221280,-69.4444444444444,4,1,0,80,0,1
221368,-72.463768115942,4,1,0,80,0,1
221456,-75.7575757575758,4,1,0,80,0,1
221544,-79.3650793650794,4,1,0,80,0,1
221632,-83.3333333333333,4,1,0,80,0,1
221787,-71.4285714285714,4,1,0,80,0,1
221963,-62.5,4,1,0,80,0,1
222140,-55.5555555555556,4,1,0,80,0,1
222250,-58.8235294117647,4,1,0,80,0,1
222338,-62.5,4,1,0,80,0,1
222427,-66.6666666666667,4,1,0,80,0,1
222515,-71.4285714285714,4,1,0,80,0,1
222603,-76.9230769230769,4,1,0,80,0,1
222691,-83.3333333333333,4,1,0,80,0,1
222846,-71.4285714285714,4,1,0,80,0,1
223022,-62.5,4,1,0,80,0,1
223199,-71.4285714285714,4,1,0,80,0,1
223375,-62.5,4,1,0,80,0,1
223552,-55.5555555555556,4,1,0,80,0,1
223662,-57.4712643678161,4,1,0,80,0,1
223750,-59.5238095238095,4,1,0,80,0,1
223838,-61.7283950617284,4,1,0,80,0,1
223927,-64.1025641025641,4,1,0,80,0,1
224015,-66.6666666666667,4,1,0,80,0,1
224103,-69.4444444444444,4,1,0,80,0,1
224191,-72.463768115942,4,1,0,80,0,1
224280,-75.7575757575758,4,1,0,80,0,1
224368,-79.3650793650794,4,1,0,80,0,1
224456,-83.3333333333333,4,1,0,80,0,1
224610,-71.4285714285714,4,1,0,80,0,1
224787,-62.5,4,1,0,80,0,1
224897,-66.6666666666667,4,1,0,80,0,1
224985,-71.4285714285714,4,1,0,80,0,1
225074,-76.9230769230769,4,1,0,80,0,1
225162,-83.3333333333333,4,1,0,80,0,1
225250,-90.9090909090909,4,1,0,80,0,1
225338,-100,4,1,0,80,0,1
225449,-83.3333333333333,4,1,0,80,0,1
225669,-71.4285714285714,4,1,0,80,0,1
225846,-62.5,4,1,0,80,0,1
226022,-71.4285714285714,4,1,0,80,0,1
226199,-62.5,4,1,0,80,0,1
226375,-55.5555555555556,4,1,0,80,0,1
226485,-60.6060606060606,4,1,0,80,0,1
226574,-66.6666666666667,4,1,0,80,0,1
226662,-74.0740740740741,4,1,0,80,0,1
226750,-83.3333333333333,4,1,0,80,0,1
226904,-55.5555555555556,4,1,0,77,0,1
227015,-60.6060606060606,4,1,0,80,0,1
227103,-66.6666666666667,4,1,0,80,0,1
227191,-74.0740740740741,4,1,0,80,0,1
227279,-83.3333333333333,4,1,0,80,0,1
227434,-71.4285714285714,4,1,0,80,0,1
227610,-62.5,4,1,0,80,0,1
227787,-55.5555555555556,4,1,0,80,0,1
227897,-58.8235294117647,4,1,0,80,0,1
227985,-62.5,4,1,0,80,0,1
228074,-66.6666666666667,4,1,0,80,0,1
228162,-71.4285714285714,4,1,0,80,0,1
228250,-76.9230769230769,4,1,0,80,0,1
228338,-83.3333333333333,4,1,0,80,0,1
228493,-71.4285714285714,4,1,0,80,0,1
228669,-62.5,4,1,0,80,0,1
228846,-71.4285714285714,4,1,0,80,0,1
229022,-62.5,4,1,0,80,0,1
229199,-55.5555555555556,4,1,0,80,0,1
229309,-57.1428571428571,4,1,0,80,0,1
229397,-58.8235294117647,4,1,0,80,0,1
229485,-60.6060606060606,4,1,0,80,0,1
229574,-62.5,4,1,0,80,0,1
229662,-64.5161290322581,4,1,0,80,0,1
229750,-66.6666666666667,4,1,0,80,0,1
229838,-68.9655172413793,4,1,0,80,0,1
229926,-71.4285714285714,4,1,0,80,0,1
230015,-74.0740740740741,4,1,0,80,0,1
230103,-76.9230769230769,4,1,0,80,0,1
230257,-71.4285714285714,4,1,0,80,0,1
230434,-62.5,4,1,0,80,0,1
230610,-55.5555555555556,4,1,0,80,0,1
230721,-58.8235294117647,4,1,0,80,0,1
230809,-62.5,4,1,0,80,0,1
230897,-66.6666666666667,4,1,0,80,0,1
230985,-71.4285714285714,4,1,0,80,0,1
231250,-66.6666666666667,4,1,0,80,0,1
231338,-62.5,4,1,0,80,0,1
231426,-58.8235294117647,4,1,0,80,0,1
231515,-55.5555555555556,4,1,0,80,0,1
231669,-62.5,4,1,0,80,0,1
231846,-55.5555555555556,4,1,0,80,0,1
232132,-58.1395348837209,4,1,0,80,0,1
232221,-60.9756097560976,4,1,0,80,0,1
232309,-64.1025641025641,4,1,0,80,0,1
232397,-67.5675675675676,4,1,0,80,0,1
232485,-71.4285714285714,4,1,0,80,0,1
232574,-75.7575757575758,4,1,0,80,0,1
232662,-80.6451612903226,4,1,0,80,0,1
232750,-86.2068965517241,4,1,0,80,0,1
232838,-92.5925925925926,4,1,0,80,0,1
232926,-100,4,1,0,80,0,1
233081,-83.3333333333333,4,1,0,80,0,1
233257,-71.4285714285714,4,1,0,80,0,1
233434,-62.5,4,1,0,80,0,1
233544,-65.7894736842105,4,1,0,80,0,1
233632,-69.4444444444444,4,1,0,80,0,1
233721,-73.5294117647059,4,1,0,80,0,1
233809,-78.125,4,1,0,80,0,1
233897,-83.3333333333333,4,1,0,80,0,1
233985,-89.2857142857143,4,1,0,80,0,1
234140,-104.166666666667,4,1,0,80,0,1
234316,-125,4,1,0,60,0,1
234360,-125,4,1,0,60,0,0
237140,-62.5,4,1,0,80,0,0
237184,-62.5,4,1,0,80,0,1
237316,-71.4285714285714,4,1,0,80,0,1
237493,-62.5,4,1,0,80,0,1
237669,-55.5555555555556,4,1,0,80,0,1
237780,-57.1428571428571,4,1,0,80,0,1
237868,-58.8235294117647,4,1,0,80,0,1
237956,-60.6060606060606,4,1,0,80,0,1
238044,-62.5,4,1,0,80,0,1
238132,-64.5161290322581,4,1,0,80,0,1
238221,-66.6666666666667,4,1,0,80,0,1
238309,-68.9655172413793,4,1,0,80,0,1
238397,-71.4285714285714,4,1,0,80,0,1
238485,-74.0740740740741,4,1,0,80,0,1
238574,-76.9230769230769,4,1,0,80,0,1
238728,-83.3333333333333,4,1,0,80,0,1
239081,-76.9230769230769,4,1,0,80,0,1
239191,-72.2908985758693,4,1,0,80,0,1
239280,-68.1802686302584,4,1,0,80,0,1
239368,-64.5161290322581,4,1,0,80,0,1
239456,-61.2257393008021,4,1,0,80,0,1
239544,-58.251296091338,4,1,0,80,0,1
239632,-55.5555555555556,4,1,0,80,0,1
239787,-62.5,4,1,0,80,0,1
239963,-55.5555555555556,4,1,0,80,0,1
240140,-62.5,4,1,0,80,0,1
240316,-55.5555555555556,4,1,0,80,0,1
240604,-57.1428571428571,4,1,0,80,0,1
240692,-58.8235294117647,4,1,0,80,0,1
240780,-60.6060606060606,4,1,0,80,0,1
240868,-62.5,4,1,0,80,0,1
240956,-64.5161290322581,4,1,0,80,0,1
241045,-66.6666666666667,4,1,0,80,0,1
241133,-68.9655172413793,4,1,0,80,0,1
241221,-71.4285714285714,4,1,0,80,0,1
241309,-74.0740740740741,4,1,0,80,0,1
241398,-76.9230769230769,4,1,0,80,0,1
241552,-83.3333333333333,4,1,0,80,0,1
241905,-76.9230769230769,4,1,0,80,0,1
242015,-70.1754385964912,4,1,0,80,0,1
242103,-64.5161290322581,4,1,0,80,0,1
242191,-59.7014925373134,4,1,0,80,0,1
242280,-55.5555555555556,4,1,0,80,0,1
242544,-59.7014925373134,4,1,0,80,0,1
242632,-64.5161290322581,4,1,0,80,0,1
242721,-70.1754385964912,4,1,0,80,0,1
242809,-76.9230769230769,4,1,0,80,0,1
242963,-71.4285714285714,4,1,0,80,0,1
243140,-62.5,4,1,0,80,0,1
243316,-55.5555555555556,4,1,0,80,0,1
243427,-57.4712643678161,4,1,0,80,0,1
243515,-59.5238095238095,4,1,0,80,0,1
243603,-61.7283950617284,4,1,0,80,0,1
243691,-64.1025641025641,4,1,0,80,0,1
243780,-66.6666666666667,4,1,0,80,0,1
243868,-69.4444444444444,4,1,0,80,0,1
243956,-72.463768115942,4,1,0,80,0,1
244044,-75.7575757575758,4,1,0,80,0,1
244133,-79.3650793650794,4,1,0,80,0,1
244221,-83.3333333333333,4,1,0,80,0,1
244552,-71.4285714285714,4,1,0,80,0,1
244728,-62.5,4,1,0,80,0,1
244838,-64.5161290322581,4,1,0,80,0,1
244927,-66.6666666666667,4,1,0,80,0,1
245015,-68.9655172413793,4,1,0,80,0,1
245103,-71.4285714285714,4,1,0,80,0,1
245191,-74.0740740740741,4,1,0,80,0,1
245280,-76.9230769230769,4,1,0,80,0,1
245368,-80,4,1,0,80,0,1
245456,-83.3333333333333,4,1,0,80,0,1
245611,-71.4285714285714,4,1,0,80,0,1
245787,-76.9230769230769,4,1,0,80,0,1
245963,-83.3333333333333,4,1,0,80,0,1
246140,-71.4285714285714,4,1,0,80,0,1
246250,-73.5294117647059,4,1,0,80,0,1
246338,-75.7575757575758,4,1,0,80,0,1
246427,-78.125,4,1,0,80,0,1
246515,-80.6451612903226,4,1,0,80,0,1
246603,-83.3333333333333,4,1,0,80,0,1
246691,-86.2068965517241,4,1,0,80,0,1
246780,-89.2857142857143,4,1,0,80,0,1
246868,-92.5925925925926,4,1,0,80,0,1
246956,-96.1538461538461,4,1,0,80,0,1
247044,-100,4,1,0,80,0,1
247375,-83.3333333333333,4,1,0,80,0,1
247486,-85.7118368046627,4,1,0,80,0,1
247574,-88.2378893496868,4,1,0,80,0,1
247662,-90.9090909090909,4,1,0,80,0,1
247750,-93.7470704040499,4,1,0,80,0,1
247838,-96.7773153972709,4,1,0,80,0,1
247927,-100,4,1,0,80,0,1
248037,-71.4285714285714,4,1,0,80,0,1
248257,-83.3333333333333,4,1,0,80,0,1
248434,-62.5,4,1,0,80,0,1
248610,-71.4285714285714,4,1,0,80,0,1
248787,-62.5,4,1,0,80,0,1
248963,-55.5555555555556,4,1,0,80,0,1
249074,-57.1428571428571,4,1,0,80,0,1
249162,-58.8235294117647,4,1,0,80,0,1
249250,-60.6060606060606,4,1,0,80,0,1
249338,-62.5,4,1,0,80,0,1
249426,-64.5161290322581,4,1,0,80,0,1
249515,-66.6666666666667,4,1,0,80,0,1
249603,-68.9655172413793,4,1,0,80,0,1
249691,-71.4285714285714,4,1,0,80,0,1
249779,-74.0740740740741,4,1,0,80,0,1
249868,-76.9230769230769,4,1,0,80,0,1
250022,-83.3333333333333,4,1,0,80,0,1
250375,-76.9230769230769,4,1,0,80,0,1
250485,-72.2908985758693,4,1,0,80,0,1
250574,-68.1802686302584,4,1,0,80,0,1
250662,-64.5161290322581,4,1,0,80,0,1
250750,-61.2257393008021,4,1,0,80,0,1
250838,-58.251296091338,4,1,0,80,0,1
250926,-55.5555555555556,4,1,0,80,0,1
251081,-62.5,4,1,0,80,0,1
251257,-55.5555555555556,4,1,0,80,0,1
251434,-62.5,4,1,0,80,0,1
251610,-55.5555555555556,4,1,0,80,0,1
251898,-57.1428571428571,4,1,0,80,0,1
251986,-58.8235294117647,4,1,0,80,0,1
252074,-60.6060606060606,4,1,0,80,0,1
252162,-62.5,4,1,0,80,0,1
252250,-64.5161290322581,4,1,0,80,0,1
252339,-66.6666666666667,4,1,0,80,0,1
252427,-68.9655172413793,4,1,0,80,0,1
252515,-71.4285714285714,4,1,0,80,0,1
252603,-74.0740740740741,4,1,0,80,0,1
252692,-76.9230769230769,4,1,0,80,0,1
252846,-83.3333333333333,4,1,0,80,0,1
253199,-76.9230769230769,4,1,0,80,0,1
253309,-70.1754385964912,4,1,0,80,0,1
253397,-64.5161290322581,4,1,0,80,0,1
253485,-59.7014925373134,4,1,0,80,0,1
253574,-55.5555555555556,4,1,0,80,0,1
253838,-59.7014925373134,4,1,0,80,0,1
253926,-64.5161290322581,4,1,0,80,0,1
254015,-70.1754385964912,4,1,0,80,0,1
254103,-76.9230769230769,4,1,0,80,0,1
254257,-71.4285714285714,4,1,0,80,0,1
254434,-62.5,4,1,0,80,0,1
254610,-55.5555555555556,4,1,0,80,0,1
254721,-57.4712643678161,4,1,0,80,0,1
254809,-59.5238095238095,4,1,0,80,0,1
254897,-61.7283950617284,4,1,0,80,0,1
254985,-64.1025641025641,4,1,0,80,0,1
255074,-66.6666666666667,4,1,0,80,0,1
255162,-69.4444444444444,4,1,0,80,0,1
255250,-72.463768115942,4,1,0,80,0,1
255338,-75.7575757575758,4,1,0,80,0,1
255427,-79.3650793650794,4,1,0,80,0,1
255515,-83.3333333333333,4,1,0,80,0,1
255846,-71.4285714285714,4,1,0,80,0,1
256022,-62.5,4,1,0,80,0,1
256132,-64.5161290322581,4,1,0,80,0,1
256221,-66.6666666666667,4,1,0,80,0,1
256309,-68.9655172413793,4,1,0,80,0,1
256397,-71.4285714285714,4,1,0,80,0,1
256485,-74.0740740740741,4,1,0,80,0,1
256574,-76.9230769230769,4,1,0,80,0,1
256750,-83.3333333333333,4,1,0,80,0,1
256905,-71.4285714285714,4,1,0,80,0,1
257081,-76.9230769230769,4,1,0,80,0,1
257257,-83.3333333333333,4,1,0,80,0,1
257434,-71.4285714285714,4,1,0,80,0,1
257544,-73.5294117647059,4,1,0,80,0,1
257632,-75.7575757575758,4,1,0,80,0,1
257721,-78.125,4,1,0,80,0,1
257809,-80.6451612903226,4,1,0,80,0,1
257897,-83.3333333333333,4,1,0,80,0,1
257985,-86.2068965517241,4,1,0,80,0,1
258074,-89.2857142857143,4,1,0,80,0,1
258162,-92.5925925925926,4,1,0,80,0,1
258250,-96.1538461538461,4,1,0,80,0,1
258338,-100,4,1,0,80,0,1
258669,-83.3333333333333,4,1,0,80,0,1
258780,-85.7118368046627,4,1,0,80,0,1
258868,-88.2378893496868,4,1,0,80,0,1
258956,-90.9090909090909,4,1,0,80,0,1
259044,-93.7470704040499,4,1,0,80,0,1
259132,-96.7773153972709,4,1,0,80,0,1
259221,-100,4,1,0,80,0,1
259331,-71.4285714285714,4,1,0,80,0,1
259551,-83.3333333333333,4,1,0,80,0,1
259772,-62.5,4,1,0,80,0,0
260037,-62.5,4,1,0,70,0,0
260280,-62.686570906661,4,1,0,70,0,0
260368,-62.7802746888139,4,1,0,70,0,0
260456,-62.8742590268574,4,1,0,70,0,0
260544,-62.9685251826874,4,1,0,70,0,0
260633,-63.0630744257792,4,1,0,70,0,0
260809,-63.2530272898861,4,1,0,70,0,0
260985,-63.4441279287396,4,1,0,70,0,0
261162,-63.6363462809965,4,1,0,70,0,0
261338,-63.8297736532396,4,1,0,70,0,0
261515,-64.0243804840883,4,1,0,70,0,0
261691,-64.2201775944791,4,1,0,70,0,0
261780,-64.3185259222955,4,1,0,70,0,0
261868,-64.4171759381234,4,1,0,70,0,0
261956,-64.5161290322581,4,1,0,70,0,0
262044,-64.6153866035503,4,1,0,70,0,0
262133,-64.714950059473,4,1,0,70,0,0
262221,-64.8148208161871,4,1,0,70,0,0
262397,-65.0154899404783,4,1,0,70,0,0
262574,-65.2174054820447,4,1,0,70,0,0
262927,-65.6249794921939,4,1,0,70,0,0
263103,-65.8307044938672,4,1,0,70,0,0
263191,-65.9340514430656,4,1,0,70,0,0
263280,-66.0377233891088,4,1,0,70,0,0
263368,-66.1417218674454,4,1,0,70,0,0
263456,-66.2460484232115,4,1,0,70,0,0
263633,-66.4556919964752,4,1,0,70,0,0
263809,-66.6666666666667,4,1,0,70,0,0
263985,-66.8789851515277,4,1,0,70,0,0
264162,-67.0926603313304,4,1,0,70,0,0
264338,-67.3077052514818,4,1,0,70,0,0
264515,-67.5241331251789,4,1,0,70,0,0
264603,-67.6328698452763,4,1,0,70,0,0
264691,-67.7419573361153,4,1,0,70,0,0
264780,-67.8513512596603,4,1,0,70,0,0
264868,-67.9611452540354,4,1,0,70,0,0
265044,-68.1818026859539,4,1,0,70,0,0
265133,-68.2926696014303,4,1,0,70,0,0
265221,-68.4038976540883,4,1,0,70,0,0
265309,-68.5154886113555,4,1,0,70,0,0
265397,-68.6274442522113,4,1,0,70,0,0
265750,-69.0789496407549,4,1,0,70,0,0
265927,-69.3069375551423,4,1,0,70,0,0
266015,-69.4214967830078,4,1,0,70,0,0
266103,-69.5364353537145,4,1,0,70,0,0
266191,-69.6517551545781,4,1,0,70,0,0
266280,-69.7674580854554,4,1,0,70,0,0
266456,-70.0000210000063,4,1,0,70,0,0
266633,-70.2340902227123,4,1,0,70,0,0
266809,-70.4697797396564,4,1,0,70,0,0
266985,-70.7070564228169,4,1,0,70,0,0
267162,-70.9459363586572,4,1,0,70,0,0
267338,-71.1864358517671,4,1,0,70,0,0
267427,-71.3072980880374,4,1,0,70,0,0
267515,-71.4285714285714,4,1,0,70,0,0
267603,-71.5502579744551,4,1,0,70,0,0
267691,-71.6723598411167,4,1,0,70,0,0
267780,-71.7948791584491,4,1,0,70,0,0
267868,-71.917818070934,4,1,0,70,0,0
268044,-72.1649633329821,4,1,0,70,0,0
268221,-72.4138130796726,4,1,0,70,0,0
268574,-72.9166438802155,4,1,0,70,0,0
268750,-73.1707138608015,4,1,0,70,0,0
268838,-73.2984139689185,4,1,0,70,0,0
268927,-73.4265605897621,4,1,0,70,0,0
269015,-73.5551560693302,4,1,0,70,0,0
269103,-73.6842027700839,4,1,0,70,0,0
269280,-73.943659368181,4,1,0,70,0,0
269456,-74.2049496185495,4,1,0,70,0,0
269633,-74.4680930285205,4,1,0,70,0,0
269809,-74.7331093831155,4,1,0,70,0,0
269985,-75.0000187500047,4,1,0,70,0,0
270162,-75.2688414845725,4,1,0,70,0,0
270250,-75.4039768057367,4,1,0,70,0,0
270338,-75.5395411728269,4,1,0,70,0,0
270427,-75.6756511322213,4,1,0,70,0,0
270515,-75.8122524729957,4,1,0,70,0,0
270691,-76.0869399811,4,1,0,70,0,0
270780,-76.2250315381068,4,1,0,70,0,0
270868,-76.3636252562,4,1,0,70,0,0
270956,-76.5027238794837,4,1,0,70,0,0
271044,-76.6423301720927,4,1,0,70,0,0
271397,-77.2058880298447,4,1,0,70,0,0
271574,-77.4907863455035,4,1,0,70,0,0
271662,-77.6340254406701,4,1,0,70,0,0
271750,-77.7777950617322,4,1,0,70,0,0
271838,-77.9220981615839,4,1,0,70,0,0
271927,-78.0669377150744,4,1,0,70,0,0
272103,-78.3582381933725,4,1,0,70,0,0
272280,-78.6516588814633,4,1,0,70,0,0
272456,-78.9473476454348,4,1,0,70,0,0
272633,-79.2452680669305,4,1,0,70,0,0
272809,-79.5454455061994,4,1,0,70,0,0
272985,-79.8479057092051,4,1,0,70,0,0
273074,-80,4,1,0,70,0,0
273162,-80.1526748149876,4,1,0,70,0,0
273250,-80.3059334842014,4,1,0,70,0,0
273338,-80.459779363193,4,1,0,70,0,0
273427,-80.6142158332769,4,1,0,70,0,0
273515,-80.7692463017781,4,1,0,70,0,0
273691,-81.0811029948927,4,1,0,70,0,0
273868,-81.3953772309455,4,1,0,70,0,0
274221,-82.0312243652424,4,1,0,70,0,0
274397,-82.3529217993125,4,1,0,70,0,0
274485,-82.5147185629237,4,1,0,70,0,0
274574,-82.6771523343067,4,1,0,70,0,0
274662,-82.8402268828134,4,1,0,70,0,0
274750,-83.0039460075932,4,1,0,70,0,0
274927,-83.3333333333333,4,1,0,70,0,0
275103,-83.6653453119797,4,1,0,70,0,0
275280,-84.0000134400021,4,1,0,70,0,0
275456,-84.3373697198481,4,1,0,70,0,0
275633,-84.6774466701441,4,1,0,70,0,0
275809,-85.0202773361447,4,1,0,70,0,0
275897,-85.1926632078445,4,1,0,70,0,0
275985,-85.3658224271381,4,1,0,70,0,0
276074,-85.5396869931774,4,1,0,70,0,0
276162,-85.7142612244968,4,1,0,70,0,0
276338,-86.0655561341074,4,1,0,70,0,0
276427,-86.2422856275506,4,1,0,70,0,0
276515,-86.4197424173157,4,1,0,70,0,0
276603,-86.5979310022325,4,1,0,70,0,0
276691,-86.7768559183117,4,1,0,70,0,0
277044,-87.5000109375014,4,1,0,70,0,0
277221,-87.8661271686458,4,1,0,70,0,0
277309,-88.0503366164369,4,1,0,70,0,0
277397,-88.2353200692118,4,1,0,70,0,0
277485,-88.4210824155225,4,1,0,70,0,0
277574,-88.6076285851754,4,1,0,70,0,0
277750,-88.983013142791,4,1,0,70,0,0
277927,-89.361671706665,4,1,0,70,0,0
278103,-89.7435667324188,4,1,0,70,0,0
278280,-90.1287398920618,4,1,0,70,0,0
278456,-90.5172335761006,4,1,0,70,0,0
278633,-90.9090909090909,4,1,0,70,0,0
278721,-91.106294625002,4,1,0,70,0,0
278809,-91.3043557655962,4,1,0,70,0,0
278897,-91.5032799350693,4,1,0,70,0,0
278985,-91.7030727865629,4,1,0,70,0,0
279074,-91.9037400227002,4,1,0,70,0,0
279162,-92.1052873961283,4,1,0,70,0,0
279338,-92.5110458188708,4,1,0,70,0,0
279515,-92.92039509752,4,1,0,70,0,0
279868,-93.7499707031342,4,1,0,70,0,0
280044,-94.1703824730084,4,1,0,70,0,0
280133,-94.3820055043586,4,1,0,70,0,0
280221,-94.594581811543,4,1,0,70,0,0
280309,-94.8081178502828,4,1,0,70,0,0
280397,-95.0226201347231,4,1,0,70,0,0
280574,-95.4545497933886,4,1,0,70,0,0
280750,-95.8904240945786,4,1,0,70,0,0
280927,-96.3302973234627,4,1,0,70,0,0
281103,-96.774224765879,4,1,0,70,0,0
281280,-97.2222627314984,4,1,0,70,0,0
281456,-97.6743731747101,4,1,0,70,0,0
281544,-97.9020568243118,4,1,0,70,0,0
281633,-98.1308044370825,4,1,0,70,0,0
281721,-98.3606234883202,4,1,0,70,0,0
281809,-98.5915215235151,4,1,0,70,0,0
281985,-99.0565850836632,4,1,0,70,0,0
282074,-99.2907660580474,4,1,0,70,0,0
282162,-99.5260569169614,4,1,0,70,0,0
282250,-99.7624655694791,4,1,0,70,0,0
282338,-100,4,1,0,60,0,0
282691,-95.2498880813815,4,1,0,60,0,0
282868,-93.0401328613097,4,1,0,60,0,0
282956,-91.9732210769512,4,1,0,60,0,0
283044,-90.9305835924855,4,1,0,60,0,0
283133,-89.9112396242429,4,1,0,60,0,0
283221,-88.9145753217596,4,1,0,60,0,0
283397,-86.9860213463696,4,1,0,60,0,0
283574,-85.1393518341145,4,1,0,60,0,0
283750,-83.3693905947656,4,1,0,60,0,0
284103,-80.0415575766938,4,1,0,60,0,0
284280,-78.475318727507,4,1,0,60,0,0
284368,-77.7149926986764,4,1,0,60,0,0
284456,-76.9691992355419,4,1,0,60,0,0
284544,-76.2376418782515,4,1,0,60,0,0
284633,-75.5198028026909,4,1,0,60,0,0
284809,-74.1239842234512,4,1,0,60,0,0
284985,-72.7788266015345,4,1,0,60,0,0
285162,-71.4285714285714,4,1,0,60,0,0
285515,-74.0740740740741,4,1,0,60,0,0
285691,-75.4716981132076,4,1,0,60,0,0
285780,-76.1904761904762,4,1,0,60,0,0
285868,-76.9230769230769,4,1,0,60,0,0
285956,-77.6699029126214,4,1,0,60,0,0
286044,-78.4313725490196,4,1,0,60,0,0
286221,-80,4,1,0,60,0,0
286397,-81.6326530612245,4,1,0,60,0,0
286574,-83.3333333333333,4,1,0,60,0,0
286927,-86.9565217391304,4,1,0,60,0,0
287103,-88.8888888888889,4,1,0,60,0,0
287191,-89.8876404494382,4,1,0,60,0,0
287280,-90.9090909090909,4,1,0,60,0,0
287368,-91.9540229885058,4,1,0,60,0,0
287456,-93.0232558139535,4,1,0,60,0,0
287633,-95.2380952380952,4,1,0,60,0,0
287809,-97.5609756097561,4,1,0,60,0,0
287985,-100,4,1,0,60,0,0
288338,-93.0401328613097,4,1,0,60,0,0
288515,-89.9112396242429,4,1,0,60,0,0
288603,-88.4244444071097,4,1,0,60,0,0
288691,-86.9860213463696,4,1,0,60,0,0
288780,-85.5935743191887,4,1,0,60,0,0
288868,-84.2450756647147,4,1,0,60,0,0
289044,-81.6715887410815,4,1,0,60,0,0
289221,-79.2507318805089,4,1,0,60,0,0
289397,-76.9691992355419,4,1,0,60,0,0
289750,-72.7788266015345,4,1,0,60,0,0
289927,-70.850180915937,4,1,0,60,0,0
290015,-69.9237132288673,4,1,0,60,0,0
290103,-69.0211625786582,4,1,0,60,0,0
290191,-68.141614629187,4,1,0,60,0,0
290280,-67.2841557924257,4,1,0,60,0,0
290456,-65.6324738979651,4,1,0,60,0,0
290632,-64.0598985675566,4,1,0,60,0,0
290809,-62.5,4,1,0,60,0,0
291162,-66.655113113727,4,1,0,60,0,0
291338,-68.9469728831556,4,1,0,60,0,0
291427,-70.1530388542606,4,1,0,60,0,0
291515,-71.40210164946,4,1,0,60,0,0
291603,-72.6963965850141,4,1,0,60,0,0
291691,-74.0384807599902,4,1,0,60,0,0
291868,-76.8770098533264,4,1,0,60,0,0
292044,-79.9418662748449,4,1,0,60,0,0
292221,-83.2612429737919,4,1,0,60,0,0
292574,-90.8018621645893,4,1,0,60,0,0
292750,-95.1086568850583,4,1,0,60,0,0
292838,-97.4189815040322,4,1,0,60,0,0
292927,-99.844442358805,4,1,0,60,0,0
293015,-102.393656508192,4,1,0,60,0,0
293103,-105.076453627659,4,1,0,60,0,0
293280,-110.887119130468,4,1,0,60,0,0
293368,-114.040299561059,4,1,0,60,0,0
293456,-117.378055937686,4,1,0,60,0,0
293610,-125,4,1,0,60,0,0
293985,-117.647058823529,4,1,0,60,0,0
294162,-114.285714285714,4,1,0,60,0,0
294250,-112.676056338028,4,1,0,60,0,0
294338,-111.111111111111,4,1,0,60,0,0
294427,-109.58904109589,4,1,0,60,0,0
294691,-105.263157894737,4,1,0,60,0,0
294868,-102.564102564103,4,1,0,60,0,0
295044,-100,4,1,0,60,0,0
295397,-95.2380952380952,4,1,0,60,0,0
295574,-93.0232558139535,4,1,0,60,0,0
295750,-90.9090909090909,4,1,0,60,0,0
295927,-88.8888888888889,4,1,0,60,0,0
296103,-86.9565217391304,4,1,0,60,0,0
296280,-85.1063829787234,4,1,0,60,0,0
296456,-83.3333333333333,4,1,0,60,0,0
296809,-86.9466929825324,4,1,0,60,0,0
296985,-88.873484151636,4,1,0,60,0,0
297074,-89.8693030725416,4,1,0,60,0,0
297162,-90.887608383473,4,1,0,60,0,0
297250,-91.9293394325386,4,1,0,60,0,0
297515,-95.2027342225269,4,1,0,60,0,0
297691,-97.5176872705287,4,1,0,60,0,0
297868,-99.9481269221274,4,1,0,60,0,0
298221,-105.191295630669,4,1,0,60,0,0
298397,-108.024724698989,4,1,0,60,0,0
298574,-111.015021442551,4,1,0,60,0,0
298662,-112.573059915885,4,1,0,60,0,0
298750,-114.17558377976,4,1,0,60,0,0
298927,-117.521380077071,4,1,0,60,0,0
299103,-121.069186197144,4,1,0,60,0,0
299280,-124.837866820467,4,1,0,60,0,0
299633,-114.285714285714,4,1,0,60,0,0
299809,-109.58904109589,4,1,0,60,0,0
299897,-107.38255033557,4,1,0,60,0,0
299985,-105.263157894737,4,1,0,60,0,0
300074,-103.225806451613,4,1,0,60,0,0
300338,-97.5609756097561,4,1,0,60,0,0
300515,-94.1176470588235,4,1,0,60,0,0
300691,-90.9090909090909,4,1,0,60,0,0
301044,-85.1063829787234,4,1,0,60,0,0
301221,-82.4742268041237,4,1,0,60,0,0
301309,-81.2182741116751,4,1,0,60,0,0
301397,-80,4,1,0,60,0,0
301485,-78.8177339901478,4,1,0,60,0,0
301574,-77.6699029126214,4,1,0,60,0,0
301750,-75.4716981132076,4,1,0,60,0,0
301927,-73.394495412844,4,1,0,60,0,0
302103,-71.4285714285714,4,1,0,60,0,0
302456,-75.7575757575758,4,1,0,60,0,0
302633,-78.125,4,1,0,60,0,0
302721,-79.3650793650794,4,1,0,60,0,0
302809,-80.6451612903226,4,1,0,60,0,0
302897,-81.9672131147541,4,1,0,60,0,0
303162,-86.2068965517241,4,1,0,60,0,0
303338,-89.2857142857143,4,1,0,60,0,0
303515,-92.5925925925926,4,1,0,60,0,0
303868,-100,4,1,0,60,0,0
304044,-104.166666666667,4,1,0,60,0,0
304133,-106.382978723404,4,1,0,60,0,0
304221,-108.695652173913,4,1,0,60,0,0
304309,-111.111111111111,4,1,0,60,0,0
304397,-113.636363636364,4,1,0,60,0,0
304574,-119.047619047619,4,1,0,60,0,0
304750,-125,4,1,0,60,0,0

[HitObjects]
256,192,8,5,0,0:0:0:0:
256,192,360,1,8,0:0:0:0:
256,192,537,1,8,0:0:0:0:
256,192,713,1,0,0:0:0:0:
256,192,1066,1,8,0:0:0:0:
256,192,1243,1,8,0:0:0:0:
256,192,1419,1,0,0:0:0:0:
256,192,1772,1,8,0:0:0:0:
256,192,1949,1,0,0:0:0:0:
256,192,2125,1,0,0:0:0:0:
256,192,2302,1,8,0:0:0:0:
256,192,2478,1,8,0:0:0:0:
256,192,2655,1,0,0:0:0:0:
256,192,2831,1,0,0:0:0:0:
256,192,3184,1,8,0:0:0:0:
256,192,3360,1,0,0:0:0:0:
256,192,3537,1,0,0:0:0:0:
256,192,3890,1,8,0:0:0:0:
256,192,4066,1,0,0:0:0:0:
256,192,4243,1,0,0:0:0:0:
256,192,4596,1,8,0:0:0:0:
256,192,4772,1,8,0:0:0:0:
256,192,4949,1,0,0:0:0:0:
256,192,5125,1,8,0:0:0:0:
256,192,5302,1,8,0:0:0:0:
256,192,5478,1,0,0:0:0:0:
256,192,5655,1,0,0:0:0:0:
256,192,6007,1,8,0:0:0:0:
256,192,6184,1,8,0:0:0:0:
256,192,6360,1,0,0:0:0:0:
256,192,6713,1,8,0:0:0:0:
256,192,6890,1,8,0:0:0:0:
256,192,7066,1,0,0:0:0:0:
256,192,7419,1,8,0:0:0:0:
256,192,7596,1,0,0:0:0:0:
256,192,7772,1,0,0:0:0:0:
256,192,7949,1,8,0:0:0:0:
256,192,8125,1,8,0:0:0:0:
256,192,8302,1,0,0:0:0:0:
256,192,8478,1,0,0:0:0:0:
256,192,8831,1,8,0:0:0:0:
256,192,9007,1,0,0:0:0:0:
256,192,9184,1,0,0:0:0:0:
256,192,9537,1,8,0:0:0:0:
256,192,9713,1,0,0:0:0:0:
256,192,9890,1,0,0:0:0:0:
256,192,10243,1,8,0:0:0:0:
256,192,10419,1,8,0:0:0:0:
256,192,10596,1,0,0:0:0:0:
256,192,10772,1,8,0:0:0:0:
256,192,10949,1,8,0:0:0:0:
256,192,11125,1,0,0:0:0:0:
256,192,11302,1,0,0:0:0:0:
256,192,11655,1,8,0:0:0:0:
256,192,11831,1,8,0:0:0:0:
256,192,12007,1,0,0:0:0:0:
256,192,12360,1,8,0:0:0:0:
256,192,12537,1,8,0:0:0:0:
256,192,12713,1,0,0:0:0:0:
256,192,13066,1,8,0:0:0:0:
256,192,13243,1,0,0:0:0:0:
256,192,13419,1,0,0:0:0:0:
256,192,13596,1,8,0:0:0:0:
256,192,13772,1,8,0:0:0:0:
256,192,13949,1,0,0:0:0:0:
256,192,14125,1,0,0:0:0:0:
256,192,14478,1,8,0:0:0:0:
256,192,14655,1,0,0:0:0:0:
256,192,14831,1,0,0:0:0:0:
256,192,15184,1,8,0:0:0:0:
256,192,15360,1,0,0:0:0:0:
256,192,15537,1,0,0:0:0:0:
256,192,15890,1,8,0:0:0:0:
256,192,16066,1,8,0:0:0:0:
256,192,16243,1,0,0:0:0:0:
256,192,16419,1,8,0:0:0:0:
256,192,16596,1,8,0:0:0:0:
256,192,16772,1,0,0:0:0:0:
256,192,16949,1,0,0:0:0:0:
256,192,17302,1,8,0:0:0:0:
256,192,17478,1,8,0:0:0:0:
256,192,17655,1,0,0:0:0:0:
256,192,18007,1,8,0:0:0:0:
256,192,18184,1,8,0:0:0:0:
256,192,18360,1,0,0:0:0:0:
256,192,18713,1,8,0:0:0:0:
256,192,18890,1,0,0:0:0:0:
256,192,19066,1,0,0:0:0:0:
256,192,19243,1,8,0:0:0:0:
256,192,19419,1,8,0:0:0:0:
256,192,19596,1,0,0:0:0:0:
256,192,19772,1,0,0:0:0:0:
256,192,20125,1,8,0:0:0:0:
256,192,20302,1,0,0:0:0:0:
256,192,20478,1,0,0:0:0:0:
256,192,20831,1,8,0:0:0:0:
256,192,21007,1,0,0:0:0:0:
256,192,21184,1,0,0:0:0:0:
256,192,21537,1,8,0:0:0:0:
256,192,21713,1,8,0:0:0:0:
256,192,21890,1,0,0:0:0:0:
256,192,22066,1,8,0:0:0:0:
256,192,22243,1,8,0:0:0:0:
256,192,22419,1,0,0:0:0:0:
256,192,22596,5,0,0:0:0:0:
256,192,22772,1,0,0:0:0:0:
256,192,22860,1,0,0:0:0:0:
256,192,22949,1,8,0:0:0:0:
256,192,23125,1,8,0:0:0:0:
256,192,23302,1,0,0:0:0:0:
256,192,23655,1,8,0:0:0:0:
256,192,23831,1,8,0:0:0:0:
256,192,24007,1,0,0:0:0:0:
256,192,24360,1,8,0:0:0:0:
256,192,24537,1,0,0:0:0:0:
256,192,24713,1,0,0:0:0:0:
256,192,24890,1,8,0:0:0:0:
256,192,25066,1,8,0:0:0:0:
256,192,25243,1,0,0:0:0:0:
256,192,25419,1,0,0:0:0:0:
256,192,25507,1,0,0:0:0:0:
256,192,25596,1,0,0:0:0:0:
256,192,25772,1,8,0:0:0:0:
256,192,25949,1,0,0:0:0:0:
256,192,26125,1,0,0:0:0:0:
256,192,26478,1,8,0:0:0:0:
256,192,26655,1,0,0:0:0:0:
256,192,26831,1,0,0:0:0:0:
256,192,27184,1,8,0:0:0:0:
256,192,27360,1,8,0:0:0:0:
256,192,27537,1,0,0:0:0:0:
256,192,27713,1,8,0:0:0:0:
256,192,27890,1,8,0:0:0:0:
256,192,28066,1,0,0:0:0:0:
256,192,28243,1,0,0:0:0:0:
256,192,28419,1,0,0:0:0:0:
256,192,28507,1,0,0:0:0:0:
256,192,28596,1,8,0:0:0:0:
256,192,28772,1,8,0:0:0:0:
256,192,28949,1,0,0:0:0:0:
256,192,29302,1,8,0:0:0:0:
256,192,29478,1,8,0:0:0:0:
256,192,29655,1,0,0:0:0:0:
256,192,30007,1,8,0:0:0:0:
256,192,30184,1,0,0:0:0:0:
256,192,30360,1,0,0:0:0:0:
256,192,30537,1,8,0:0:0:0:
256,192,30713,1,8,0:0:0:0:
256,192,30890,1,0,0:0:0:0:
256,192,31066,1,0,0:0:0:0:
256,192,31155,1,0,0:0:0:0:
256,192,31243,1,0,0:0:0:0:
256,192,31419,1,8,0:0:0:0:
256,192,31596,1,0,0:0:0:0:
256,192,31772,1,0,0:0:0:0:
256,192,32125,1,8,0:0:0:0:
256,192,32302,1,0,0:0:0:0:
256,192,32478,1,0,0:0:0:0:
256,192,32831,1,8,0:0:0:0:
256,192,33007,1,8,0:0:0:0:
256,192,33184,1,0,0:0:0:0:
256,192,33360,1,8,0:0:0:0:
256,192,33537,1,8,0:0:0:0:
256,192,33713,1,0,0:0:0:0:
256,192,33890,1,0,0:0:0:0:
256,192,33978,1,8,0:0:0:0:
256,192,34066,1,0,0:0:0:0:
256,192,34155,1,0,0:0:0:0:
256,192,34243,1,8,0:0:0:0:
256,192,34419,1,8,0:0:0:0:
256,192,34596,1,0,0:0:0:0:
256,192,34949,1,8,0:0:0:0:
256,192,35125,1,8,0:0:0:0:
256,192,35302,1,0,0:0:0:0:
256,192,35655,1,8,0:0:0:0:
256,192,35831,1,0,0:0:0:0:
256,192,36007,1,0,0:0:0:0:
256,192,36184,1,8,0:0:0:0:
256,192,36360,1,8,0:0:0:0:
256,192,36537,1,0,0:0:0:0:
256,192,36713,1,0,0:0:0:0:
256,192,36802,1,8,0:0:0:0:
256,192,36890,1,8,0:0:0:0:
256,192,36978,1,0,0:0:0:0:
256,192,37066,1,8,0:0:0:0:
256,192,37243,1,0,0:0:0:0:
256,192,37419,1,0,0:0:0:0:
256,192,37772,1,8,0:0:0:0:
256,192,37949,1,0,0:0:0:0:
256,192,38125,1,0,0:0:0:0:
256,192,38478,1,8,0:0:0:0:
256,192,38655,1,8,0:0:0:0:
256,192,38831,1,0,0:0:0:0:
256,192,39007,1,8,0:0:0:0:
256,192,39184,1,8,0:0:0:0:
256,192,39360,1,0,0:0:0:0:
256,192,39537,1,0,0:0:0:0:
256,192,39625,1,8,0:0:0:0:
256,192,39713,1,0,0:0:0:0:
256,192,39802,1,0,0:0:0:0:
256,192,39890,1,8,0:0:0:0:
256,192,40066,1,8,0:0:0:0:
256,192,40243,1,0,0:0:0:0:
256,192,40596,1,8,0:0:0:0:
256,192,40772,1,8,0:0:0:0:
256,192,40949,1,0,0:0:0:0:
256,192,41302,1,8,0:0:0:0:
256,192,41478,1,0,0:0:0:0:
256,192,41655,1,0,0:0:0:0:
256,192,41831,1,8,0:0:0:0:
256,192,42007,1,8,0:0:0:0:
256,192,42184,1,0,0:0:0:0:
256,192,42360,1,0,0:0:0:0:
256,192,42449,1,8,0:0:0:0:
256,192,42537,1,8,0:0:0:0:
256,192,42625,1,0,0:0:0:0:
256,192,42713,1,8,0:0:0:0:
256,192,42890,1,0,0:0:0:0:
256,192,43066,1,0,0:0:0:0:
256,192,43419,1,8,0:0:0:0:
256,192,43596,1,0,0:0:0:0:
256,192,43772,1,0,0:0:0:0:
256,192,44125,1,8,0:0:0:0:
256,192,44302,1,8,0:0:0:0:
256,192,44478,1,0,0:0:0:0:
256,192,44655,1,8,0:0:0:0:
256,192,44831,1,8,0:0:0:0:
256,192,45007,1,0,0:0:0:0:
256,192,45184,1,0,0:0:0:0:
256,192,45272,1,8,0:0:0:0:
256,192,45360,1,0,0:0:0:0:
256,192,45449,1,0,0:0:0:0:
256,192,45537,1,8,0:0:0:0:
256,192,45713,1,8,0:0:0:0:
256,192,45890,1,0,0:0:0:0:
256,192,46243,1,8,0:0:0:0:
256,192,46419,1,8,0:0:0:0:
256,192,46596,1,0,0:0:0:0:
256,192,46684,1,0,0:0:0:0:
256,192,46772,1,8,0:0:0:0:
256,192,46860,1,8,0:0:0:0:
256,192,46949,1,8,0:0:0:0:
256,192,47125,1,0,0:0:0:0:
256,192,47302,1,0,0:0:0:0:
256,192,47478,1,8,0:0:0:0:
256,192,47655,1,8,0:0:0:0:
256,192,47831,1,0,0:0:0:0:
256,192,48007,1,0,0:0:0:0:
256,192,48096,1,8,0:0:0:0:
256,192,48184,1,0,0:0:0:0:
256,192,48360,1,8,0:0:0:0:
256,192,48537,1,0,0:0:0:0:
256,192,48713,1,0,0:0:0:0:
256,192,48802,1,8,0:0:0:0:
256,192,48890,1,0,0:0:0:0:
256,192,49066,1,8,0:0:0:0:
256,192,49243,1,0,0:0:0:0:
256,192,49419,1,0,0:0:0:0:
256,192,49507,1,8,0:0:0:0:
256,192,49596,1,8,0:0:0:0:
256,192,49772,1,8,0:0:0:0:
256,192,49949,1,0,0:0:0:0:
256,192,50125,1,0,0:0:0:0:
256,192,50213,1,8,0:0:0:0:
256,192,50302,1,8,0:0:0:0:
256,192,50478,1,8,0:0:0:0:
256,192,50655,1,0,0:0:0:0:
256,192,50831,1,0,0:0:0:0:
256,192,50919,1,8,0:0:0:0:
256,192,51007,1,0,0:0:0:0:
256,192,51184,1,8,0:0:0:0:
256,192,51272,1,8,0:0:0:0:
256,192,51360,1,0,0:0:0:0:
256,192,51537,1,0,0:0:0:0:
256,192,51625,1,8,0:0:0:0:
256,192,51713,1,0,0:0:0:0:
256,192,51890,1,8,0:0:0:0:
256,192,51978,1,8,0:0:0:0:
256,192,52066,1,0,0:0:0:0:
256,192,52243,5,0,0:0:0:0:
256,192,52419,1,8,0:0:0:0:
256,192,52596,1,8,0:0:0:0:
256,192,52772,1,0,0:0:0:0:
256,192,52949,1,0,0:0:0:0:
256,192,53125,1,8,0:0:0:0:
256,192,53302,1,8,0:0:0:0:
256,192,53478,1,0,0:0:0:0:
256,192,53655,1,0,0:0:0:0:
256,192,53743,1,8,0:0:0:0:
256,192,53831,1,8,0:0:0:0:
256,192,53919,1,0,0:0:0:0:
256,192,54007,1,8,0:0:0:0:
256,192,54096,1,0,0:0:0:0:
256,192,54184,1,8,0:0:0:0:
256,192,54272,1,8,0:0:0:0:
256,192,54360,1,0,0:0:0:0:
256,192,54449,1,8,0:0:0:0:
256,192,54537,1,8,0:0:0:0:
256,192,54625,1,0,0:0:0:0:
256,192,54713,1,8,0:0:0:0:
256,192,54802,1,8,0:0:0:0:
256,192,54890,1,8,0:0:0:0:
256,192,54978,1,8,0:0:0:0:
256,192,55066,1,0,0:0:0:0:
256,192,55243,1,0,0:0:0:0:
256,192,55419,1,0,0:0:0:0:
256,192,55507,1,0,0:0:0:0:
256,192,55596,1,8,0:0:0:0:
256,192,55684,1,8,0:0:0:0:
256,192,55772,1,0,0:0:0:0:
256,192,55860,1,0,0:0:0:0:
256,192,55949,1,8,0:0:0:0:
256,192,56037,1,8,0:0:0:0:
256,192,56125,1,0,0:0:0:0:
256,192,56213,1,0,0:0:0:0:
256,192,56302,1,8,0:0:0:0:
256,192,56390,1,8,0:0:0:0:
256,192,56478,5,0,0:0:0:0:
256,192,56831,1,8,0:0:0:0:
256,192,57007,1,0,0:0:0:0:
256,192,57096,1,0,0:0:0:0:
256,192,57184,1,0,0:0:0:0:
256,192,57272,1,8,0:0:0:0:
256,192,57360,1,0,0:0:0:0:
256,192,57537,1,8,0:0:0:0:
256,192,57713,1,0,0:0:0:0:
256,192,57890,1,8,0:0:0:0:
256,192,58066,1,0,0:0:0:0:
256,192,58243,1,8,0:0:0:0:
256,192,58419,1,8,0:0:0:0:
256,192,58507,1,0,0:0:0:0:
256,192,58596,1,8,0:0:0:0:
256,192,58684,1,8,0:0:0:0:
256,192,58772,1,0,0:0:0:0:
256,192,58860,1,0,0:0:0:0:
256,192,58949,1,8,0:0:0:0:
256,192,59125,1,8,0:0:0:0:
256,192,59302,1,4,0:0:0:0:
256,192,59655,1,8,0:0:0:0:
256,192,59831,1,8,0:0:0:0:
256,192,59919,1,0,0:0:0:0:
256,192,60007,1,8,0:0:0:0:
256,192,60096,1,8,0:0:0:0:
256,192,60184,1,0,0:0:0:0:
256,192,60360,1,8,0:0:0:0:
256,192,60537,1,0,0:0:0:0:
256,192,60713,1,8,0:0:0:0:
256,192,60890,1,0,0:0:0:0:
256,192,61066,1,8,0:0:0:0:
256,192,61243,1,8,0:0:0:0:
256,192,61331,1,0,0:0:0:0:
256,192,61419,1,8,0:0:0:0:
256,192,61507,1,0,0:0:0:0:
256,192,61596,1,0,0:0:0:0:
256,192,61772,1,8,0:0:0:0:
256,192,61860,1,8,0:0:0:0:
256,192,61949,1,8,0:0:0:0:
256,192,62037,1,8,0:0:0:0:
256,192,62125,1,4,0:0:0:0:
256,192,62478,1,8,0:0:0:0:
256,192,62655,1,8,0:0:0:0:
256,192,62743,1,0,0:0:0:0:
256,192,62831,1,8,0:0:0:0:
256,192,62919,1,0,0:0:0:0:
256,192,63007,1,8,0:0:0:0:
256,192,63096,1,8,0:0:0:0:
256,192,63184,1,8,0:0:0:0:
256,192,63272,1,0,0:0:0:0:
256,192,63360,1,8,0:0:0:0:
256,192,63449,1,8,0:0:0:0:
256,192,63537,1,8,0:0:0:0:
256,192,63713,1,0,0:0:0:0:
256,192,63890,1,8,0:0:0:0:
256,192,64066,1,8,0:0:0:0:
256,192,64155,1,0,0:0:0:0:
256,192,64243,1,8,0:0:0:0:
256,192,64331,1,8,0:0:0:0:
256,192,64419,1,0,0:0:0:0:
256,192,64507,1,0,0:0:0:0:
256,192,64596,1,8,0:0:0:0:
256,192,64772,1,8,0:0:0:0:
256,192,64949,1,4,0:0:0:0:
256,192,65302,1,8,0:0:0:0:
256,192,65478,1,8,0:0:0:0:
256,192,65566,1,0,0:0:0:0:
256,192,65655,1,8,0:0:0:0:
256,192,65743,1,0,0:0:0:0:
256,192,65831,1,8,0:0:0:0:
256,192,65919,1,8,0:0:0:0:
256,192,66007,1,8,0:0:0:0:
256,192,66096,1,0,0:0:0:0:
256,192,66184,1,8,0:0:0:0:
256,192,66272,1,8,0:0:0:0:
256,192,66360,1,8,0:0:0:0:
256,192,66537,1,0,0:0:0:0:
256,192,66713,1,8,0:0:0:0:
256,192,66802,1,0,0:0:0:0:
256,192,66890,1,8,0:0:0:0:
256,192,66978,1,0,0:0:0:0:
256,192,67066,1,8,0:0:0:0:
256,192,67155,1,8,0:0:0:0:
256,192,67243,1,0,0:0:0:0:
256,192,67360,1,8,0:0:0:0:
256,192,67419,1,8,0:0:0:0:
256,192,67596,1,0,0:0:0:0:
256,192,67772,5,4,0:0:0:0:
256,192,68125,1,8,0:0:0:0:
256,192,68302,1,0,0:0:0:0:
256,192,68390,1,0,0:0:0:0:
256,192,68478,1,0,0:0:0:0:
256,192,68566,1,8,0:0:0:0:
256,192,68655,1,0,0:0:0:0:
256,192,68831,1,8,0:0:0:0:
256,192,69007,1,0,0:0:0:0:
256,192,69184,1,8,0:0:0:0:
256,192,69360,1,0,0:0:0:0:
256,192,69537,1,8,0:0:0:0:
256,192,69713,1,8,0:0:0:0:
256,192,69802,1,0,0:0:0:0:
256,192,69890,1,8,0:0:0:0:
256,192,69978,1,8,0:0:0:0:
256,192,70066,1,0,0:0:0:0:
256,192,70155,1,0,0:0:0:0:
256,192,70243,1,8,0:0:0:0:
256,192,70419,1,8,0:0:0:0:
256,192,70596,1,4,0:0:0:0:
256,192,70949,1,8,0:0:0:0:
256,192,71125,1,8,0:0:0:0:
256,192,71213,1,0,0:0:0:0:
256,192,71302,1,8,0:0:0:0:
256,192,71390,1,8,0:0:0:0:
256,192,71478,1,0,0:0:0:0:
256,192,71655,1,8,0:0:0:0:
256,192,71831,1,0,0:0:0:0:
256,192,72007,1,8,0:0:0:0:
256,192,72184,1,0,0:0:0:0:
256,192,72360,1,8,0:0:0:0:
256,192,72537,1,8,0:0:0:0:
256,192,72625,1,0,0:0:0:0:
256,192,72713,1,8,0:0:0:0:
256,192,72802,1,0,0:0:0:0:
256,192,72890,1,0,0:0:0:0:
256,192,73066,1,8,0:0:0:0:
256,192,73155,1,8,0:0:0:0:
256,192,73243,1,8,0:0:0:0:
256,192,73331,1,8,0:0:0:0:
256,192,73419,1,4,0:0:0:0:
256,192,73772,1,8,0:0:0:0:
256,192,73949,1,8,0:0:0:0:
256,192,74037,1,0,0:0:0:0:
256,192,74125,1,8,0:0:0:0:
256,192,74213,1,0,0:0:0:0:
256,192,74302,1,8,0:0:0:0:
256,192,74390,1,8,0:0:0:0:
256,192,74478,1,8,0:0:0:0:
256,192,74566,1,0,0:0:0:0:
256,192,74655,1,8,0:0:0:0:
256,192,74743,1,8,0:0:0:0:
256,192,74831,1,8,0:0:0:0:
256,192,75007,1,0,0:0:0:0:
256,192,75184,1,8,0:0:0:0:
256,192,75360,1,8,0:0:0:0:
256,192,75449,1,0,0:0:0:0:
256,192,75537,1,8,0:0:0:0:
256,192,75625,1,8,0:0:0:0:
256,192,75713,1,0,0:0:0:0:
256,192,75802,1,0,0:0:0:0:
256,192,75890,1,8,0:0:0:0:
256,192,76066,1,8,0:0:0:0:
256,192,76243,1,4,0:0:0:0:
256,192,76596,1,8,0:0:0:0:
256,192,76772,1,8,0:0:0:0:
256,192,76860,1,0,0:0:0:0:
256,192,76949,1,8,0:0:0:0:
256,192,77037,1,0,0:0:0:0:
256,192,77125,1,8,0:0:0:0:
256,192,77213,1,8,0:0:0:0:
256,192,77302,1,8,0:0:0:0:
256,192,77390,1,0,0:0:0:0:
256,192,77478,1,8,0:0:0:0:
256,192,77566,1,8,0:0:0:0:
256,192,77655,1,0,0:0:0:0:
256,192,78007,1,0,0:0:0:0:
256,192,78360,1,0,0:0:0:0:
256,192,78655,1,8,0:0:0:0:
256,192,78713,1,8,0:0:0:0:
256,192,78890,1,0,0:0:0:0:
256,192,79066,5,4,0:0:0:0:
256,192,79419,1,8,0:0:0:0:
256,192,79596,1,8,0:0:0:0:
256,192,79684,1,0,0:0:0:0:
256,192,79772,1,8,0:0:0:0:
256,192,79860,1,8,0:0:0:0:
256,192,79949,1,0,0:0:0:0:
256,192,80125,1,8,0:0:0:0:
256,192,80302,1,8,0:0:0:0:
256,192,80478,1,8,0:0:0:0:
256,192,80655,1,0,0:0:0:0:
256,192,80831,1,8,0:0:0:0:
256,192,81007,1,8,0:0:0:0:
256,192,81096,1,8,0:0:0:0:
256,192,81184,1,0,0:0:0:0:
256,192,81272,1,8,0:0:0:0:
256,192,81360,1,0,0:0:0:0:
256,192,81449,1,0,0:0:0:0:
256,192,81537,1,8,0:0:0:0:
256,192,81713,1,8,0:0:0:0:
256,192,81890,1,4,0:0:0:0:
256,192,82243,1,8,0:0:0:0:
256,192,82419,1,8,0:0:0:0:
256,192,82507,1,0,0:0:0:0:
256,192,82596,1,8,0:0:0:0:
256,192,82684,1,8,0:0:0:0:
256,192,82772,1,0,0:0:0:0:
256,192,82949,1,8,0:0:0:0:
256,192,83125,1,8,0:0:0:0:
256,192,83302,1,8,0:0:0:0:
256,192,83478,1,0,0:0:0:0:
256,192,83655,1,8,0:0:0:0:
256,192,83831,1,8,0:0:0:0:
256,192,83919,1,8,0:0:0:0:
256,192,84007,1,0,0:0:0:0:
256,192,84096,1,8,0:0:0:0:
256,192,84184,1,0,0:0:0:0:
256,192,84360,1,8,0:0:0:0:
256,192,84449,1,0,0:0:0:0:
256,192,84537,1,8,0:0:0:0:
256,192,84625,1,8,0:0:0:0:
256,192,84713,1,4,0:0:0:0:
256,192,85066,1,8,0:0:0:0:
256,192,85243,1,8,0:0:0:0:
256,192,85331,1,0,0:0:0:0:
256,192,85419,1,8,0:0:0:0:
256,192,85507,1,8,0:0:0:0:
256,192,85596,1,0,0:0:0:0:
256,192,85684,1,0,0:0:0:0:
256,192,85772,1,8,0:0:0:0:
256,192,85860,1,0,0:0:0:0:
256,192,85949,1,8,0:0:0:0:
256,192,86037,1,8,0:0:0:0:
256,192,86125,1,8,0:0:0:0:
256,192,86302,1,0,0:0:0:0:
256,192,86478,1,8,0:0:0:0:
256,192,86655,1,0,0:0:0:0:
256,192,86743,1,8,0:0:0:0:
256,192,86831,1,8,0:0:0:0:
256,192,86919,1,8,0:0:0:0:
256,192,87007,1,0,0:0:0:0:
256,192,87096,1,0,0:0:0:0:
256,192,87184,1,8,0:0:0:0:
256,192,87360,1,8,0:0:0:0:
256,192,87537,1,4,0:0:0:0:
256,192,87890,1,8,0:0:0:0:
256,192,88066,1,8,0:0:0:0:
256,192,88155,1,0,0:0:0:0:
256,192,88243,1,8,0:0:0:0:
256,192,88331,1,0,0:0:0:0:
256,192,88419,1,0,0:0:0:0:
256,192,88507,1,8,0:0:0:0:
256,192,88596,1,8,0:0:0:0:
256,192,88684,1,0,0:0:0:0:
256,192,88772,1,8,0:0:0:0:
256,192,88860,1,8,0:0:0:0:
256,192,88949,1,8,0:0:0:0:
256,192,89125,1,0,0:0:0:0:
256,192,89302,1,8,0:0:0:0:
256,192,89390,1,0,0:0:0:0:
256,192,89478,1,0,0:0:0:0:
256,192,89566,1,0,0:0:0:0:
256,192,89655,1,8,0:0:0:0:
256,192,89743,1,8,0:0:0:0:
256,192,89831,1,0,0:0:0:0:
256,192,89949,1,8,0:0:0:0:
256,192,90007,1,8,0:0:0:0:
256,192,90184,1,0,0:0:0:0:
256,192,90360,5,4,0:0:0:0:
256,192,90713,1,8,0:0:0:0:
256,192,90890,1,8,0:0:0:0:
256,192,90978,1,0,0:0:0:0:
256,192,91066,1,8,0:0:0:0:
256,192,91155,1,8,0:0:0:0:
256,192,91243,1,0,0:0:0:0:
256,192,91419,1,8,0:0:0:0:
256,192,91596,1,8,0:0:0:0:
256,192,91772,1,8,0:0:0:0:
256,192,91949,1,0,0:0:0:0:
256,192,92125,1,8,0:0:0:0:
256,192,92302,1,8,0:0:0:0:
256,192,92390,1,8,0:0:0:0:
256,192,92478,1,0,0:0:0:0:
256,192,92566,1,8,0:0:0:0:
256,192,92655,1,0,0:0:0:0:
256,192,92743,1,0,0:0:0:0:
256,192,92831,1,8,0:0:0:0:
256,192,93007,1,8,0:0:0:0:
256,192,93184,1,4,0:0:0:0:
256,192,93537,1,8,0:0:0:0:
256,192,93713,1,8,0:0:0:0:
256,192,93802,1,0,0:0:0:0:
256,192,93890,1,8,0:0:0:0:
256,192,93978,1,8,0:0:0:0:
256,192,94066,1,0,0:0:0:0:
256,192,94243,1,8,0:0:0:0:
256,192,94419,1,8,0:0:0:0:
256,192,94596,1,8,0:0:0:0:
256,192,94772,1,0,0:0:0:0:
256,192,94949,1,8,0:0:0:0:
256,192,95125,1,8,0:0:0:0:
256,192,95213,1,8,0:0:0:0:
256,192,95302,1,0,0:0:0:0:
256,192,95390,1,8,0:0:0:0:
256,192,95478,1,0,0:0:0:0:
256,192,95655,1,8,0:0:0:0:
256,192,95743,1,0,0:0:0:0:
256,192,95831,1,8,0:0:0:0:
256,192,95919,1,8,0:0:0:0:
256,192,96007,1,4,0:0:0:0:
256,192,96184,1,0,0:0:0:0:
256,192,96360,1,8,0:0:0:0:
256,192,96537,1,8,0:0:0:0:
256,192,96625,1,0,0:0:0:0:
256,192,96713,1,8,0:0:0:0:
256,192,96802,1,8,0:0:0:0:
256,192,96890,1,0,0:0:0:0:
256,192,96978,1,0,0:0:0:0:
256,192,97066,1,8,0:0:0:0:
256,192,97155,1,0,0:0:0:0:
256,192,97243,1,8,0:0:0:0:
256,192,97331,1,8,0:0:0:0:
256,192,97419,1,8,0:0:0:0:
256,192,97596,1,0,0:0:0:0:
256,192,97772,1,8,0:0:0:0:
256,192,97949,1,0,0:0:0:0:
256,192,98037,1,8,0:0:0:0:
256,192,98125,1,8,0:0:0:0:
256,192,98213,1,8,0:0:0:0:
256,192,98302,1,0,0:0:0:0:
256,192,98390,1,0,0:0:0:0:
256,192,98478,1,8,0:0:0:0:
256,192,98655,1,0,0:0:0:0:
256,192,98831,1,4,0:0:0:0:
256,192,99184,1,8,0:0:0:0:
256,192,99360,1,0,0:0:0:0:
256,192,99537,1,0,0:0:0:0:
256,192,99890,1,8,0:0:0:0:
256,192,100066,1,0,0:0:0:0:
256,192,100243,1,0,0:0:0:0:
256,192,100596,1,8,0:0:0:0:
256,192,100772,1,0,0:0:0:0:
256,192,100949,1,0,0:0:0:0:
256,192,101125,1,8,0:0:0:0:
256,192,101302,1,8,0:0:0:0:
256,192,101478,1,0,0:0:0:0:
256,192,101655,5,4,0:0:0:0:
256,192,102007,1,8,0:0:0:0:
256,192,102184,1,8,0:0:0:0:
256,192,102272,1,0,0:0:0:0:
256,192,102360,1,8,0:0:0:0:
256,192,102449,1,0,0:0:0:0:
256,192,102537,1,8,0:0:0:0:
256,192,102625,1,8,0:0:0:0:
256,192,102713,1,8,0:0:0:0:
256,192,102802,1,0,0:0:0:0:
256,192,102890,1,8,0:0:0:0:
256,192,102978,1,0,0:0:0:0:
256,192,103066,1,8,0:0:0:0:
256,192,103243,1,0,0:0:0:0:
256,192,103419,1,8,0:0:0:0:
256,192,103596,1,8,0:0:0:0:
256,192,103684,1,8,0:0:0:0:
256,192,103772,1,8,0:0:0:0:
256,192,103860,1,0,0:0:0:0:
256,192,103949,1,0,0:0:0:0:
256,192,104037,1,0,0:0:0:0:
256,192,104125,1,8,0:0:0:0:
256,192,104302,1,8,0:0:0:0:
256,192,104478,1,4,0:0:0:0:
256,192,104831,1,8,0:0:0:0:
256,192,105007,1,8,0:0:0:0:
256,192,105096,1,0,0:0:0:0:
256,192,105184,1,8,0:0:0:0:
256,192,105272,1,0,0:0:0:0:
256,192,105360,1,8,0:0:0:0:
256,192,105449,1,8,0:0:0:0:
256,192,105537,1,8,0:0:0:0:
256,192,105625,1,0,0:0:0:0:
256,192,105713,1,8,0:0:0:0:
256,192,105802,1,0,0:0:0:0:
256,192,105890,1,8,0:0:0:0:
256,192,106066,1,0,0:0:0:0:
256,192,106243,1,8,0:0:0:0:
256,192,106419,1,8,0:0:0:0:
256,192,106507,1,8,0:0:0:0:
256,192,106596,1,8,0:0:0:0:
256,192,106684,1,0,0:0:0:0:
256,192,106772,1,0,0:0:0:0:
256,192,106949,1,8,0:0:0:0:
256,192,107037,1,0,0:0:0:0:
256,192,107125,1,8,0:0:0:0:
256,192,107213,1,8,0:0:0:0:
256,192,107302,1,4,0:0:0:0:
256,192,107655,1,8,0:0:0:0:
256,192,107831,1,8,0:0:0:0:
256,192,107919,1,0,0:0:0:0:
256,192,108007,1,8,0:0:0:0:
256,192,108096,1,0,0:0:0:0:
256,192,108184,1,0,0:0:0:0:
256,192,108272,1,0,0:0:0:0:
256,192,108360,1,8,0:0:0:0:
256,192,108449,1,8,0:0:0:0:
256,192,108537,1,8,0:0:0:0:
256,192,108625,1,0,0:0:0:0:
256,192,108713,1,8,0:0:0:0:
256,192,108890,1,0,0:0:0:0:
256,192,109066,1,8,0:0:0:0:
256,192,109243,1,8,0:0:0:0:
256,192,109331,1,0,0:0:0:0:
256,192,109419,1,8,0:0:0:0:
256,192,109507,1,8,0:0:0:0:
256,192,109596,1,0,0:0:0:0:
256,192,109684,1,0,0:0:0:0:
256,192,109772,1,8,0:0:0:0:
256,192,109949,1,8,0:0:0:0:
256,192,110125,1,4,0:0:0:0:
256,192,110478,1,8,0:0:0:0:
256,192,110655,1,8,0:0:0:0:
256,192,110743,1,0,0:0:0:0:
256,192,110831,1,8,0:0:0:0:
256,192,110919,1,0,0:0:0:0:
256,192,111007,1,0,0:0:0:0:
256,192,111096,1,0,0:0:0:0:
256,192,111184,1,8,0:0:0:0:
256,192,111272,1,8,0:0:0:0:
256,192,111360,1,8,0:0:0:0:
256,192,111449,1,0,0:0:0:0:
256,192,111537,1,8,0:0:0:0:
256,192,111713,1,0,0:0:0:0:
256,192,111890,1,8,0:0:0:0:
256,192,111978,1,0,0:0:0:0:
256,192,112066,1,8,0:0:0:0:
256,192,112155,1,0,0:0:0:0:
256,192,112243,1,8,0:0:0:0:
256,192,112331,1,8,0:0:0:0:
256,192,112419,1,0,0:0:0:0:
256,192,112537,1,8,0:0:0:0:
256,192,112596,1,8,0:0:0:0:
256,192,112772,1,0,0:0:0:0:
256,192,112949,5,4,0:0:0:0:
256,192,113302,1,8,0:0:0:0:
256,192,113478,1,8,0:0:0:0:
256,192,113566,1,0,0:0:0:0:
256,192,113655,1,8,0:0:0:0:
256,192,113743,1,0,0:0:0:0:
256,192,113831,1,8,0:0:0:0:
256,192,113919,1,8,0:0:0:0:
256,192,114007,1,8,0:0:0:0:
256,192,114096,1,0,0:0:0:0:
256,192,114184,1,8,0:0:0:0:
256,192,114272,1,0,0:0:0:0:
256,192,114360,1,8,0:0:0:0:
256,192,114537,1,0,0:0:0:0:
256,192,114713,1,8,0:0:0:0:
256,192,114890,1,8,0:0:0:0:
256,192,114978,1,8,0:0:0:0:
256,192,115066,1,8,0:0:0:0:
256,192,115155,1,0,0:0:0:0:
256,192,115243,1,0,0:0:0:0:
256,192,115331,1,0,0:0:0:0:
256,192,115419,1,8,0:0:0:0:
256,192,115596,1,8,0:0:0:0:
256,192,115772,1,4,0:0:0:0:
256,192,115949,1,0,0:0:0:0:
256,192,116125,1,8,0:0:0:0:
256,192,116302,1,8,0:0:0:0:
256,192,116390,1,0,0:0:0:0:
256,192,116478,1,8,0:0:0:0:
256,192,116566,1,0,0:0:0:0:
256,192,116655,1,8,0:0:0:0:
256,192,116743,1,8,0:0:0:0:
256,192,116831,1,8,0:0:0:0:
256,192,116919,1,0,0:0:0:0:
256,192,117007,1,8,0:0:0:0:
256,192,117096,1,0,0:0:0:0:
256,192,117184,1,8,0:0:0:0:
256,192,117360,1,0,0:0:0:0:
256,192,117537,1,8,0:0:0:0:
256,192,117713,1,8,0:0:0:0:
256,192,117802,1,8,0:0:0:0:
256,192,117890,1,8,0:0:0:0:
256,192,117978,1,0,0:0:0:0:
256,192,118066,1,0,0:0:0:0:
256,192,118243,1,8,0:0:0:0:
256,192,118331,1,0,0:0:0:0:
256,192,118419,1,8,0:0:0:0:
256,192,118507,1,8,0:0:0:0:
256,192,118596,1,4,0:0:0:0:
256,192,118772,1,0,0:0:0:0:
256,192,118949,1,8,0:0:0:0:
256,192,119125,1,8,0:0:0:0:
256,192,119213,1,0,0:0:0:0:
256,192,119302,1,8,0:0:0:0:
256,192,119390,1,0,0:0:0:0:
256,192,119478,1,0,0:0:0:0:
256,192,119566,1,0,0:0:0:0:
256,192,119655,1,8,0:0:0:0:
256,192,119743,1,8,0:0:0:0:
256,192,119831,1,8,0:0:0:0:
256,192,119919,1,0,0:0:0:0:
256,192,120007,1,8,0:0:0:0:
256,192,120184,1,0,0:0:0:0:
256,192,120360,1,8,0:0:0:0:
256,192,120537,1,8,0:0:0:0:
256,192,120625,1,0,0:0:0:0:
256,192,120713,1,8,0:0:0:0:
256,192,120802,1,8,0:0:0:0:
256,192,120890,1,0,0:0:0:0:
256,192,120978,1,0,0:0:0:0:
256,192,121066,1,8,0:0:0:0:
256,192,121243,1,8,0:0:0:0:
256,192,121419,1,4,0:0:0:0:
256,192,121596,1,0,0:0:0:0:
256,192,121772,1,8,0:0:0:0:
256,192,121949,1,8,0:0:0:0:
256,192,122037,1,0,0:0:0:0:
256,192,122125,1,8,0:0:0:0:
256,192,122213,1,0,0:0:0:0:
256,192,122302,1,0,0:0:0:0:
256,192,122390,1,0,0:0:0:0:
256,192,122478,1,8,0:0:0:0:
256,192,122566,1,8,0:0:0:0:
256,192,122655,1,8,0:0:0:0:
256,192,122743,1,0,0:0:0:0:
256,192,122831,1,8,0:0:0:0:
256,192,123007,1,0,0:0:0:0:
256,192,123184,1,8,0:0:0:0:
256,192,123272,1,0,0:0:0:0:
256,192,123360,1,8,0:0:0:0:
256,192,123449,1,0,0:0:0:0:
256,192,123537,1,8,0:0:0:0:
256,192,123625,1,8,0:0:0:0:
256,192,123713,1,0,0:0:0:0:
256,192,123831,1,8,0:0:0:0:
256,192,123890,1,8,0:0:0:0:
256,192,124066,1,0,0:0:0:0:
256,192,124243,5,4,0:0:0:0:
256,192,124419,1,0,0:0:0:0:
256,192,124596,1,8,0:0:0:0:
256,192,124772,1,8,0:0:0:0:
256,192,124860,1,0,0:0:0:0:
256,192,124949,1,8,0:0:0:0:
256,192,125037,1,0,0:0:0:0:
256,192,125125,1,0,0:0:0:0:
256,192,125302,1,8,0:0:0:0:
256,192,125478,1,0,0:0:0:0:
256,192,125655,1,8,0:0:0:0:
256,192,125743,1,8,0:0:0:0:
256,192,125831,1,0,0:0:0:0:
256,192,125919,1,8,0:0:0:0:
256,192,126007,1,8,0:0:0:0:
256,192,126096,1,0,0:0:0:0:
256,192,126184,1,8,0:0:0:0:
256,192,126272,1,8,0:0:0:0:
256,192,126360,1,8,0:0:0:0:
256,192,126449,1,0,0:0:0:0:
256,192,126537,1,0,0:0:0:0:
256,192,126625,1,0,0:0:0:0:
256,192,126713,1,8,0:0:0:0:
256,192,126802,1,8,0:0:0:0:
256,192,126890,1,8,0:0:0:0:
256,192,126978,1,8,0:0:0:0:
256,192,127066,1,4,0:0:0:0:
256,192,127243,1,0,0:0:0:0:
256,192,127419,1,8,0:0:0:0:
256,192,127596,1,8,0:0:0:0:
256,192,127684,1,0,0:0:0:0:
256,192,127772,1,8,0:0:0:0:
256,192,127860,1,8,0:0:0:0:
256,192,127949,1,0,0:0:0:0:
256,192,128125,1,8,0:0:0:0:
256,192,128302,1,0,0:0:0:0:
256,192,128478,1,8,0:0:0:0:
256,192,128566,1,8,0:0:0:0:
256,192,128655,1,0,0:0:0:0:
256,192,128743,1,0,0:0:0:0:
256,192,128831,1,8,0:0:0:0:
256,192,128919,1,8,0:0:0:0:
256,192,129007,1,8,0:0:0:0:
256,192,129096,1,8,0:0:0:0:
256,192,129184,1,0,0:0:0:0:
256,192,129272,1,0,0:0:0:0:
256,192,129360,1,8,0:0:0:0:
256,192,129449,1,0,0:0:0:0:
256,192,129537,1,8,0:0:0:0:
256,192,129625,1,8,0:0:0:0:
256,192,129713,1,8,0:0:0:0:
256,192,129802,1,8,0:0:0:0:
256,192,129890,1,4,0:0:0:0:
256,192,130066,1,0,0:0:0:0:
256,192,130243,1,8,0:0:0:0:
256,192,130419,1,8,0:0:0:0:
256,192,130507,1,0,0:0:0:0:
256,192,130596,1,0,0:0:0:0:
256,192,130684,1,8,0:0:0:0:
256,192,130772,1,0,0:0:0:0:
256,192,130949,1,8,0:0:0:0:
256,192,131125,1,0,0:0:0:0:
256,192,131302,1,8,0:0:0:0:
256,192,131478,1,0,0:0:0:0:
256,192,131655,1,8,0:0:0:0:
256,192,131831,1,0,0:0:0:0:
256,192,131919,1,8,0:0:0:0:
256,192,132007,1,8,0:0:0:0:
256,192,132096,1,8,0:0:0:0:
256,192,132184,1,0,0:0:0:0:
256,192,132272,1,0,0:0:0:0:
256,192,132360,1,8,0:0:0:0:
256,192,132537,1,8,0:0:0:0:
256,192,132713,1,4,0:0:0:0:
256,192,132890,1,0,0:0:0:0:
256,192,133066,1,8,0:0:0:0:
256,192,133243,1,8,0:0:0:0:
256,192,133331,1,0,0:0:0:0:
256,192,133419,1,0,0:0:0:0:
256,192,133507,1,8,0:0:0:0:
256,192,133596,1,0,0:0:0:0:
256,192,133772,1,8,0:0:0:0:
256,192,133949,1,0,0:0:0:0:
256,192,134125,1,8,0:0:0:0:
256,192,134213,1,0,0:0:0:0:
256,192,134302,1,0,0:0:0:0:
256,192,134478,1,8,0:0:0:0:
256,192,134655,1,8,0:0:0:0:
256,192,134743,1,8,0:0:0:0:
256,192,134831,1,0,0:0:0:0:
256,192,134919,1,8,0:0:0:0:
256,192,135007,1,0,0:0:0:0:
256,192,135184,1,8,0:0:0:0:
256,192,135360,1,8,0:0:0:0:
256,192,135449,1,8,0:0:0:0:
256,192,135537,5,4,0:0:0:0:
256,192,135713,1,0,0:0:0:0:
256,192,135890,1,8,0:0:0:0:
256,192,136066,1,8,0:0:0:0:
256,192,136155,1,0,0:0:0:0:
256,192,136243,1,8,0:0:0:0:
256,192,136331,1,0,0:0:0:0:
256,192,136419,1,0,0:0:0:0:
256,192,136596,1,8,0:0:0:0:
256,192,136772,1,0,0:0:0:0:
256,192,136949,1,8,0:0:0:0:
256,192,137037,1,8,0:0:0:0:
256,192,137125,1,0,0:0:0:0:
256,192,137213,1,8,0:0:0:0:
256,192,137302,1,8,0:0:0:0:
256,192,137390,1,0,0:0:0:0:
256,192,137478,1,8,0:0:0:0:
256,192,137566,1,8,0:0:0:0:
256,192,137655,1,8,0:0:0:0:
256,192,137743,1,0,0:0:0:0:
256,192,137831,1,0,0:0:0:0:
256,192,137919,1,0,0:0:0:0:
256,192,138007,1,8,0:0:0:0:
256,192,138096,1,8,0:0:0:0:
256,192,138184,1,8,0:0:0:0:
256,192,138272,1,8,0:0:0:0:
256,192,138360,1,4,0:0:0:0:
256,192,138537,1,0,0:0:0:0:
256,192,138713,1,8,0:0:0:0:
256,192,138890,1,0,0:0:0:0:
256,192,138978,1,8,0:0:0:0:
256,192,139066,1,0,0:0:0:0:
256,192,139155,1,8,0:0:0:0:
256,192,139243,1,0,0:0:0:0:
256,192,139419,1,8,0:0:0:0:
256,192,139596,1,0,0:0:0:0:
256,192,139772,1,8,0:0:0:0:
256,192,139949,1,0,0:0:0:0:
256,192,140125,1,8,0:0:0:0:
256,192,140302,1,8,0:0:0:0:
256,192,140390,1,0,0:0:0:0:
256,192,140478,1,0,0:0:0:0:
256,192,140566,1,8,0:0:0:0:
256,192,140655,1,0,0:0:0:0:
256,192,140831,1,8,0:0:0:0:
256,192,140919,1,0,0:0:0:0:
256,192,141007,1,8,0:0:0:0:
256,192,141096,1,8,0:0:0:0:
256,192,141184,1,4,0:0:0:0:
256,192,141537,1,8,0:0:0:0:
256,192,141713,1,8,0:0:0:0:
256,192,141802,1,0,0:0:0:0:
256,192,141890,1,0,0:0:0:0:
256,192,141978,1,8,0:0:0:0:
256,192,142066,1,0,0:0:0:0:
256,192,142243,1,8,0:0:0:0:
256,192,142419,1,8,0:0:0:0:
256,192,142596,1,8,0:0:0:0:
256,192,142772,1,0,0:0:0:0:
256,192,142949,1,8,0:0:0:0:
256,192,143125,1,8,0:0:0:0:
256,192,143213,1,0,0:0:0:0:
256,192,143302,1,8,0:0:0:0:
256,192,143390,1,8,0:0:0:0:
256,192,143478,1,0,0:0:0:0:
256,192,143566,1,0,0:0:0:0:
256,192,143655,1,8,0:0:0:0:
256,192,143831,1,8,0:0:0:0:
256,192,144007,1,4,0:0:0:0:
256,192,144360,1,8,0:0:0:0:
256,192,144537,1,8,0:0:0:0:
256,192,144625,1,0,0:0:0:0:
256,192,144713,1,8,0:0:0:0:
256,192,144802,1,8,0:0:0:0:
256,192,144890,1,0,0:0:0:0:
256,192,145066,1,8,0:0:0:0:
256,192,145243,1,0,0:0:0:0:
256,192,145419,1,8,0:0:0:0:
256,192,145596,1,0,0:0:0:0:
256,192,145772,1,8,0:0:0:0:
256,192,145949,1,8,0:0:0:0:
256,192,146037,1,0,0:0:0:0:
256,192,146125,1,0,0:0:0:0:
256,192,146213,1,8,0:0:0:0:
256,192,146302,1,0,0:0:0:0:
256,192,146478,1,8,0:0:0:0:
256,192,146566,1,0,0:0:0:0:
256,192,146655,1,8,0:0:0:0:
256,192,146743,1,8,0:0:0:0:
256,192,146831,1,4,0:0:0:0:
256,192,147184,12,0,157419,0:0:0:0:
256,192,158125,5,0,0:0:0:0:
256,192,158213,1,8,0:0:0:0:
256,192,158302,1,8,0:0:0:0:
256,192,158390,1,0,0:0:0:0:
256,192,158478,1,8,0:0:0:0:
256,192,158655,1,8,0:0:0:0:
256,192,158831,1,0,0:0:0:0:
256,192,159184,1,8,0:0:0:0:
256,192,159360,1,8,0:0:0:0:
256,192,159537,1,0,0:0:0:0:
256,192,159890,1,8,0:0:0:0:
256,192,160066,1,0,0:0:0:0:
256,192,160243,1,0,0:0:0:0:
256,192,160419,1,8,0:0:0:0:
256,192,160596,1,8,0:0:0:0:
256,192,160772,1,0,0:0:0:0:
256,192,160949,1,0,0:0:0:0:
256,192,161037,1,8,0:0:0:0:
256,192,161125,1,0,0:0:0:0:
256,192,161213,1,0,0:0:0:0:
256,192,161302,1,8,0:0:0:0:
256,192,161478,1,0,0:0:0:0:
256,192,161655,1,0,0:0:0:0:
256,192,162007,1,8,0:0:0:0:
256,192,162184,1,0,0:0:0:0:
256,192,162360,1,0,0:0:0:0:
256,192,162713,1,8,0:0:0:0:
256,192,162890,1,8,0:0:0:0:
256,192,163066,1,0,0:0:0:0:
256,192,163243,1,8,0:0:0:0:
256,192,163419,1,8,0:0:0:0:
256,192,163596,1,0,0:0:0:0:
256,192,163772,1,0,0:0:0:0:
256,192,163860,1,8,0:0:0:0:
256,192,163949,1,8,0:0:0:0:
256,192,164037,1,0,0:0:0:0:
256,192,164125,1,8,0:0:0:0:
256,192,164302,1,8,0:0:0:0:
256,192,164478,1,0,0:0:0:0:
256,192,164831,1,8,0:0:0:0:
256,192,165007,1,8,0:0:0:0:
256,192,165184,1,0,0:0:0:0:
256,192,165537,1,8,0:0:0:0:
256,192,165713,1,0,0:0:0:0:
256,192,165890,1,0,0:0:0:0:
256,192,166066,1,8,0:0:0:0:
256,192,166243,1,8,0:0:0:0:
256,192,166419,1,0,0:0:0:0:
256,192,166596,1,0,0:0:0:0:
256,192,166684,1,8,0:0:0:0:
256,192,166772,1,0,0:0:0:0:
256,192,166860,1,0,0:0:0:0:
256,192,166949,1,8,0:0:0:0:
256,192,167125,1,0,0:0:0:0:
256,192,167302,1,0,0:0:0:0:
256,192,167655,1,8,0:0:0:0:
256,192,167831,1,0,0:0:0:0:
256,192,168007,1,0,0:0:0:0:
256,192,168360,1,8,0:0:0:0:
256,192,168537,1,8,0:0:0:0:
256,192,168713,1,0,0:0:0:0:
256,192,168890,1,8,0:0:0:0:
256,192,169066,1,8,0:0:0:0:
256,192,169243,1,0,0:0:0:0:
256,192,169419,1,0,0:0:0:0:
256,192,169507,1,8,0:0:0:0:
256,192,169596,1,0,0:0:0:0:
256,192,169684,1,0,0:0:0:0:
256,192,169772,1,8,0:0:0:0:
256,192,169949,1,8,0:0:0:0:
256,192,170125,1,0,0:0:0:0:
256,192,170478,1,8,0:0:0:0:
256,192,170655,1,8,0:0:0:0:
256,192,170831,1,0,0:0:0:0:
256,192,170919,1,0,0:0:0:0:
256,192,171007,1,8,0:0:0:0:
256,192,171096,1,8,0:0:0:0:
256,192,171184,1,8,0:0:0:0:
256,192,171360,1,0,0:0:0:0:
256,192,171537,1,0,0:0:0:0:
256,192,171713,1,8,0:0:0:0:
256,192,171890,1,8,0:0:0:0:
256,192,172066,1,0,0:0:0:0:
256,192,172243,1,0,0:0:0:0:
256,192,172331,1,8,0:0:0:0:
256,192,172419,1,0,0:0:0:0:
256,192,172596,1,8,0:0:0:0:
256,192,172772,1,0,0:0:0:0:
256,192,172949,1,0,0:0:0:0:
256,192,173037,1,8,0:0:0:0:
256,192,173125,1,0,0:0:0:0:
256,192,173302,1,8,0:0:0:0:
256,192,173478,1,0,0:0:0:0:
256,192,173655,1,0,0:0:0:0:
256,192,173743,1,8,0:0:0:0:
256,192,173831,1,8,0:0:0:0:
256,192,174007,1,8,0:0:0:0:
256,192,174184,1,0,0:0:0:0:
256,192,174360,1,0,0:0:0:0:
256,192,174449,1,8,0:0:0:0:
256,192,174537,1,8,0:0:0:0:
256,192,174713,1,8,0:0:0:0:
256,192,174890,1,0,0:0:0:0:
256,192,175066,1,0,0:0:0:0:
256,192,175155,1,8,0:0:0:0:
256,192,175243,1,0,0:0:0:0:
256,192,175419,1,8,0:0:0:0:
256,192,175507,1,8,0:0:0:0:
256,192,175596,1,0,0:0:0:0:
256,192,175772,1,0,0:0:0:0:
256,192,175860,1,8,0:0:0:0:
256,192,175949,1,0,0:0:0:0:
256,192,176125,1,8,0:0:0:0:
256,192,176213,1,8,0:0:0:0:
256,192,176302,1,0,0:0:0:0:
256,192,176478,1,0,0:0:0:0:
256,192,176566,1,8,0:0:0:0:
256,192,176655,1,0,0:0:0:0:
256,192,176831,1,8,0:0:0:0:
256,192,176919,1,8,0:0:0:0:
256,192,177007,1,0,0:0:0:0:
256,192,177184,1,0,0:0:0:0:
256,192,177272,1,8,0:0:0:0:
256,192,177360,1,0,0:0:0:0:
256,192,177537,1,8,0:0:0:0:
256,192,177625,1,8,0:0:0:0:
256,192,177713,1,0,0:0:0:0:
256,192,177890,1,4,0:0:0:0:
256,192,178066,1,0,0:0:0:0:
256,192,178243,1,8,0:0:0:0:
256,192,178419,1,0,0:0:0:0:
256,192,178596,1,0,0:0:0:0:
256,192,178772,1,0,0:0:0:0:
256,192,178949,1,8,0:0:0:0:
256,192,179125,1,0,0:0:0:0:
256,192,179302,1,0,0:0:0:0:
256,192,179390,1,0,0:0:0:0:
256,192,179478,1,0,0:0:0:0:
256,192,179566,1,0,0:0:0:0:
256,192,179655,1,8,0:0:0:0:
256,192,179743,1,8,0:0:0:0:
256,192,179831,1,8,0:0:0:0:
256,192,179919,1,8,0:0:0:0:
256,192,180007,1,0,0:0:0:0:
256,192,180096,1,0,0:0:0:0:
256,192,180184,1,8,0:0:0:0:
256,192,180272,1,8,0:0:0:0:
256,192,180360,1,8,0:0:0:0:
256,192,180449,1,8,0:0:0:0:
256,192,180537,1,0,0:0:0:0:
256,192,180625,1,0,0:0:0:0:
256,192,180713,5,12,0:0:0:0:
256,192,180890,1,0,0:0:0:0:
256,192,181066,1,8,0:0:0:0:
256,192,181419,1,0,0:0:0:0:
256,192,181772,1,0,0:0:0:0:
256,192,182125,1,0,0:0:0:0:
256,192,182478,1,0,0:0:0:0:
256,192,182831,1,0,0:0:0:0:
256,192,183184,1,0,0:0:0:0:
256,192,183537,1,12,0:0:0:0:
256,192,183713,1,0,0:0:0:0:
256,192,183890,1,8,0:0:0:0:
256,192,184243,1,0,0:0:0:0:
256,192,184596,1,0,0:0:0:0:
256,192,184949,1,0,0:0:0:0:
256,192,185302,1,0,0:0:0:0:
256,192,185655,1,0,0:0:0:0:
256,192,186007,1,0,0:0:0:0:
256,192,186360,1,12,0:0:0:0:
256,192,186537,1,0,0:0:0:0:
256,192,186713,1,8,0:0:0:0:
256,192,187066,1,0,0:0:0:0:
256,192,187419,1,0,0:0:0:0:
256,192,187772,1,0,0:0:0:0:
256,192,188125,1,0,0:0:0:0:
256,192,188478,1,0,0:0:0:0:
256,192,188831,1,0,0:0:0:0:
256,192,189184,1,12,0:0:0:0:
256,192,189360,1,0,0:0:0:0:
256,192,189537,1,8,0:0:0:0:
256,192,189890,1,0,0:0:0:0:
256,192,190243,1,0,0:0:0:0:
256,192,190596,1,0,0:0:0:0:
256,192,191125,1,0,0:0:0:0:
256,192,191213,1,0,0:0:0:0:
256,192,191302,1,8,0:0:0:0:
256,192,191390,1,8,0:0:0:0:
256,192,191478,1,0,0:0:0:0:
256,192,191566,1,0,0:0:0:0:
256,192,191655,1,8,0:0:0:0:
256,192,191743,1,0,0:0:0:0:
256,192,191831,1,8,0:0:0:0:
256,192,192007,5,4,0:0:0:0:
256,192,192184,1,0,0:0:0:0:
256,192,192360,1,8,0:0:0:0:
256,192,192537,1,0,0:0:0:0:
256,192,192625,1,0,0:0:0:0:
256,192,192713,1,8,0:0:0:0:
256,192,192802,1,8,0:0:0:0:
256,192,192890,1,8,0:0:0:0:
256,192,192978,1,0,0:0:0:0:
256,192,193066,1,8,0:0:0:0:
256,192,193243,1,0,0:0:0:0:
256,192,193331,1,0,0:0:0:0:
256,192,193419,1,0,0:0:0:0:
256,192,193596,1,0,0:0:0:0:
256,192,193772,1,8,0:0:0:0:
256,192,193949,1,8,0:0:0:0:
256,192,194037,1,8,0:0:0:0:
256,192,194125,1,8,0:0:0:0:
256,192,194213,1,0,0:0:0:0:
256,192,194302,1,0,0:0:0:0:
256,192,194390,1,0,0:0:0:0:
256,192,194478,1,8,0:0:0:0:
256,192,194655,1,8,0:0:0:0:
256,192,194831,1,4,0:0:0:0:
256,192,195007,1,0,0:0:0:0:
256,192,195184,1,8,0:0:0:0:
256,192,195360,1,8,0:0:0:0:
256,192,195449,1,0,0:0:0:0:
256,192,195537,1,8,0:0:0:0:
256,192,195625,1,8,0:0:0:0:
256,192,195713,1,0,0:0:0:0:
256,192,195802,1,0,0:0:0:0:
256,192,195890,1,8,0:0:0:0:
256,192,195978,1,8,0:0:0:0:
256,192,196066,1,0,0:0:0:0:
256,192,196155,1,0,0:0:0:0:
256,192,196243,1,8,0:0:0:0:
256,192,196419,1,0,0:0:0:0:
256,192,196596,1,8,0:0:0:0:
256,192,196772,1,8,0:0:0:0:
256,192,196860,1,8,0:0:0:0:
256,192,196949,1,0,0:0:0:0:
256,192,197037,1,0,0:0:0:0:
256,192,197125,1,0,0:0:0:0:
256,192,197302,1,8,0:0:0:0:
256,192,197390,1,0,0:0:0:0:
256,192,197478,1,8,0:0:0:0:
256,192,197566,1,8,0:0:0:0:
256,192,197655,1,4,0:0:0:0:
256,192,197831,1,0,0:0:0:0:
256,192,198007,1,8,0:0:0:0:
256,192,198184,1,8,0:0:0:0:
256,192,198272,1,0,0:0:0:0:
256,192,198360,1,8,0:0:0:0:
256,192,198449,1,8,0:0:0:0:
256,192,198537,1,0,0:0:0:0:
256,192,198625,1,0,0:0:0:0:
256,192,198713,1,8,0:0:0:0:
256,192,198802,1,8,0:0:0:0:
256,192,198890,1,8,0:0:0:0:
256,192,198978,1,0,0:0:0:0:
256,192,199066,1,0,0:0:0:0:
256,192,199243,1,0,0:0:0:0:
256,192,199419,1,8,0:0:0:0:
256,192,199596,1,0,0:0:0:0:
256,192,199684,1,8,0:0:0:0:
256,192,199772,1,0,0:0:0:0:
256,192,199860,1,8,0:0:0:0:
256,192,199949,1,0,0:0:0:0:
256,192,200037,1,0,0:0:0:0:
256,192,200125,1,8,0:0:0:0:
256,192,200213,1,0,0:0:0:0:
256,192,200302,1,8,0:0:0:0:
256,192,200478,1,4,0:0:0:0:
256,192,200655,1,0,0:0:0:0:
256,192,200831,1,8,0:0:0:0:
256,192,201007,1,0,0:0:0:0:
256,192,201096,1,8,0:0:0:0:
256,192,201184,1,8,0:0:0:0:
256,192,201272,1,0,0:0:0:0:
256,192,201360,1,0,0:0:0:0:
256,192,201449,1,8,0:0:0:0:
256,192,201537,1,8,0:0:0:0:
256,192,201625,1,0,0:0:0:0:
256,192,201713,1,0,0:0:0:0:
256,192,201802,1,0,0:0:0:0:
256,192,201890,1,8,0:0:0:0:
256,192,202066,1,0,0:0:0:0:
256,192,202243,1,8,0:0:0:0:
256,192,202331,1,0,0:0:0:0:
256,192,202419,1,8,0:0:0:0:
256,192,202507,1,8,0:0:0:0:
256,192,202596,1,0,0:0:0:0:
256,192,202684,1,8,0:0:0:0:
256,192,202772,1,0,0:0:0:0:
256,192,202890,1,8,0:0:0:0:
256,192,202949,1,8,0:0:0:0:
256,192,203125,1,0,0:0:0:0:
256,192,203302,5,4,0:0:0:0:
256,192,203478,1,0,0:0:0:0:
256,192,203655,1,8,0:0:0:0:
256,192,203831,1,8,0:0:0:0:
256,192,203919,1,0,0:0:0:0:
256,192,204007,1,8,0:0:0:0:
256,192,204096,1,8,0:0:0:0:
256,192,204184,1,0,0:0:0:0:
256,192,204360,1,8,0:0:0:0:
256,192,204449,1,0,0:0:0:0:
256,192,204537,1,0,0:0:0:0:
256,192,204625,1,0,0:0:0:0:
256,192,204713,1,8,0:0:0:0:
256,192,204890,1,0,0:0:0:0:
256,192,205066,1,8,0:0:0:0:
256,192,205243,1,8,0:0:0:0:
256,192,205331,1,0,0:0:0:0:
256,192,205419,1,8,0:0:0:0:
256,192,205507,1,8,0:0:0:0:
256,192,205596,1,0,0:0:0:0:
256,192,205684,1,0,0:0:0:0:
256,192,205772,1,8,0:0:0:0:
256,192,205949,1,8,0:0:0:0:
256,192,206125,1,4,0:0:0:0:
256,192,206302,1,0,0:0:0:0:
256,192,206478,1,8,0:0:0:0:
256,192,206655,1,8,0:0:0:0:
256,192,206743,1,0,0:0:0:0:
256,192,206831,1,8,0:0:0:0:
256,192,206919,1,8,0:0:0:0:
256,192,207007,1,0,0:0:0:0:
256,192,207096,1,0,0:0:0:0:
256,192,207184,1,8,0:0:0:0:
256,192,207272,1,8,0:0:0:0:
256,192,207360,1,8,0:0:0:0:
256,192,207449,1,0,0:0:0:0:
256,192,207537,1,8,0:0:0:0:
256,192,207713,1,0,0:0:0:0:
256,192,207890,1,8,0:0:0:0:
256,192,208066,1,8,0:0:0:0:
256,192,208155,1,0,0:0:0:0:
256,192,208243,1,8,0:0:0:0:
256,192,208331,1,0,0:0:0:0:
256,192,208419,1,0,0:0:0:0:
256,192,208596,1,8,0:0:0:0:
256,192,208684,1,0,0:0:0:0:
256,192,208772,1,8,0:0:0:0:
256,192,208860,1,8,0:0:0:0:
256,192,208949,1,4,0:0:0:0:
256,192,209125,1,0,0:0:0:0:
256,192,209302,1,8,0:0:0:0:
256,192,209478,1,8,0:0:0:0:
256,192,209566,1,0,0:0:0:0:
256,192,209655,1,0,0:0:0:0:
256,192,209743,1,8,0:0:0:0:
256,192,209831,1,8,0:0:0:0:
256,192,209919,1,0,0:0:0:0:
256,192,210007,1,8,0:0:0:0:
256,192,210096,1,0,0:0:0:0:
256,192,210184,1,8,0:0:0:0:
256,192,210272,1,8,0:0:0:0:
256,192,210360,1,8,0:0:0:0:
256,192,210537,1,0,0:0:0:0:
256,192,210713,1,8,0:0:0:0:
256,192,210890,1,8,0:0:0:0:
256,192,210978,1,0,0:0:0:0:
256,192,211066,1,8,0:0:0:0:
256,192,211155,1,8,0:0:0:0:
256,192,211243,1,0,0:0:0:0:
256,192,211331,1,0,0:0:0:0:
256,192,211419,1,8,0:0:0:0:
256,192,211596,1,8,0:0:0:0:
256,192,211772,1,4,0:0:0:0:
256,192,211949,1,0,0:0:0:0:
256,192,212125,1,8,0:0:0:0:
256,192,212302,1,8,0:0:0:0:
256,192,212390,1,0,0:0:0:0:
256,192,212478,1,8,0:0:0:0:
256,192,212566,1,0,0:0:0:0:
256,192,212655,1,0,0:0:0:0:
256,192,212743,1,0,0:0:0:0:
256,192,212831,1,8,0:0:0:0:
256,192,212919,1,8,0:0:0:0:
256,192,213007,1,0,0:0:0:0:
256,192,213096,1,8,0:0:0:0:
256,192,213184,1,8,0:0:0:0:
256,192,213537,1,0,0:0:0:0:
256,192,213890,1,0,0:0:0:0:
256,192,214184,1,8,0:0:0:0:
256,192,214243,1,8,0:0:0:0:
256,192,214419,1,0,0:0:0:0:
256,192,214596,5,4,0:0:0:0:
256,192,214772,1,0,0:0:0:0:
256,192,214949,1,8,0:0:0:0:
256,192,215125,1,0,0:0:0:0:
256,192,215213,1,8,0:0:0:0:
256,192,215302,1,0,0:0:0:0:
256,192,215390,1,8,0:0:0:0:
256,192,215478,1,0,0:0:0:0:
256,192,215655,1,8,0:0:0:0:
256,192,215743,1,0,0:0:0:0:
256,192,215831,1,8,0:0:0:0:
256,192,215919,1,0,0:0:0:0:
256,192,216007,1,8,0:0:0:0:
256,192,216184,1,0,0:0:0:0:
256,192,216360,1,8,0:0:0:0:
256,192,216537,1,0,0:0:0:0:
256,192,216625,1,8,0:0:0:0:
256,192,216713,1,0,0:0:0:0:
256,192,216802,1,0,0:0:0:0:
256,192,216890,1,8,0:0:0:0:
256,192,216978,1,0,0:0:0:0:
256,192,217066,1,8,0:0:0:0:
256,192,217243,1,8,0:0:0:0:
256,192,217419,1,4,0:0:0:0:
256,192,217596,1,0,0:0:0:0:
256,192,217772,1,8,0:0:0:0:
256,192,217949,1,0,0:0:0:0:
256,192,218037,1,0,0:0:0:0:
256,192,218125,1,8,0:0:0:0:
256,192,218213,1,8,0:0:0:0:
256,192,218302,1,0,0:0:0:0:
256,192,218390,1,0,0:0:0:0:
256,192,218478,1,8,0:0:0:0:
256,192,218566,1,8,0:0:0:0:
256,192,218655,1,0,0:0:0:0:
256,192,218743,1,0,0:0:0:0:
256,192,218831,1,8,0:0:0:0:
256,192,219007,1,0,0:0:0:0:
256,192,219184,1,8,0:0:0:0:
256,192,219360,1,8,0:0:0:0:
256,192,219449,1,0,0:0:0:0:
256,192,219537,1,8,0:0:0:0:
256,192,219625,1,0,0:0:0:0:
256,192,219713,1,0,0:0:0:0:
256,192,219890,1,8,0:0:0:0:
256,192,219978,1,0,0:0:0:0:
256,192,220066,1,8,0:0:0:0:
256,192,220155,1,8,0:0:0:0:
256,192,220243,1,4,0:0:0:0:
256,192,220419,1,0,0:0:0:0:
256,192,220596,1,8,0:0:0:0:
256,192,220772,1,0,0:0:0:0:
256,192,220860,1,8,0:0:0:0:
256,192,220949,1,0,0:0:0:0:
256,192,221037,1,8,0:0:0:0:
256,192,221125,1,8,0:0:0:0:
256,192,221213,1,0,0:0:0:0:
256,192,221302,1,8,0:0:0:0:
256,192,221390,1,0,0:0:0:0:
256,192,221478,1,8,0:0:0:0:
256,192,221566,1,0,0:0:0:0:
256,192,221655,1,8,0:0:0:0:
256,192,221831,1,0,0:0:0:0:
256,192,222007,1,8,0:0:0:0:
256,192,222184,1,8,0:0:0:0:
256,192,222272,1,0,0:0:0:0:
256,192,222360,1,8,0:0:0:0:
256,192,222449,1,0,0:0:0:0:
256,192,222537,1,0,0:0:0:0:
256,192,222625,1,0,0:0:0:0:
256,192,222713,1,8,0:0:0:0:
256,192,222890,1,8,0:0:0:0:
256,192,223066,1,4,0:0:0:0:
256,192,223243,1,0,0:0:0:0:
256,192,223419,1,8,0:0:0:0:
256,192,223596,1,8,0:0:0:0:
256,192,223684,1,0,0:0:0:0:
256,192,223772,1,8,0:0:0:0:
256,192,223860,1,8,0:0:0:0:
256,192,223949,1,0,0:0:0:0:
256,192,224037,1,0,0:0:0:0:
256,192,224125,1,8,0:0:0:0:
256,192,224213,1,0,0:0:0:0:
256,192,224302,1,8,0:0:0:0:
256,192,224390,1,8,0:0:0:0:
256,192,224478,1,8,0:0:0:0:
256,192,224655,1,0,0:0:0:0:
256,192,224831,1,8,0:0:0:0:
256,192,224919,1,8,0:0:0:0:
256,192,225007,1,0,0:0:0:0:
256,192,225096,1,0,0:0:0:0:
256,192,225184,1,8,0:0:0:0:
256,192,225272,1,8,0:0:0:0:
256,192,225360,1,0,0:0:0:0:
256,192,225478,1,8,0:0:0:0:
256,192,225537,1,8,0:0:0:0:
256,192,225713,1,0,0:0:0:0:
256,192,225890,5,4,0:0:0:0:
256,192,226066,1,0,0:0:0:0:
256,192,226243,1,8,0:0:0:0:
256,192,226419,1,0,0:0:0:0:
256,192,226507,1,0,0:0:0:0:
256,192,226596,1,8,0:0:0:0:
256,192,226684,1,8,0:0:0:0:
256,192,226772,1,0,0:0:0:0:
256,192,226949,1,8,0:0:0:0:
256,192,227037,1,8,0:0:0:0:
256,192,227125,1,0,0:0:0:0:
256,192,227213,1,0,0:0:0:0:
256,192,227302,1,8,0:0:0:0:
256,192,227478,1,0,0:0:0:0:
256,192,227655,1,8,0:0:0:0:
256,192,227831,1,0,0:0:0:0:
256,192,227919,1,8,0:0:0:0:
256,192,228007,1,8,0:0:0:0:
256,192,228096,1,0,0:0:0:0:
256,192,228184,1,0,0:0:0:0:
256,192,228272,1,0,0:0:0:0:
256,192,228360,1,8,0:0:0:0:
256,192,228537,1,8,0:0:0:0:
256,192,228713,1,4,0:0:0:0:
256,192,228890,1,0,0:0:0:0:
256,192,229066,1,8,0:0:0:0:
256,192,229243,1,8,0:0:0:0:
256,192,229331,1,0,0:0:0:0:
256,192,229419,1,8,0:0:0:0:
256,192,229507,1,8,0:0:0:0:
256,192,229596,1,0,0:0:0:0:
256,192,229684,1,0,0:0:0:0:
256,192,229772,1,8,0:0:0:0:
256,192,229860,1,8,0:0:0:0:
256,192,229949,1,0,0:0:0:0:
256,192,230037,1,0,0:0:0:0:
256,192,230125,1,8,0:0:0:0:
256,192,230302,1,0,0:0:0:0:
256,192,230478,1,8,0:0:0:0:
256,192,230655,1,8,0:0:0:0:
256,192,230743,1,0,0:0:0:0:
256,192,230831,1,8,0:0:0:0:
256,192,230919,1,0,0:0:0:0:
256,192,231007,1,0,0:0:0:0:
256,192,231184,1,8,0:0:0:0:
256,192,231272,1,0,0:0:0:0:
256,192,231360,1,8,0:0:0:0:
256,192,231449,1,8,0:0:0:0:
256,192,231537,1,4,0:0:0:0:
256,192,231713,1,0,0:0:0:0:
256,192,231890,1,8,0:0:0:0:
256,192,232066,1,8,0:0:0:0:
256,192,232155,1,0,0:0:0:0:
256,192,232243,1,0,0:0:0:0:
256,192,232331,1,8,0:0:0:0:
256,192,232419,1,8,0:0:0:0:
256,192,232507,1,0,0:0:0:0:
256,192,232596,1,8,0:0:0:0:
256,192,232684,1,0,0:0:0:0:
256,192,232772,1,0,0:0:0:0:
256,192,232860,1,0,0:0:0:0:
256,192,232949,1,8,0:0:0:0:
256,192,233125,1,0,0:0:0:0:
256,192,233302,1,8,0:0:0:0:
256,192,233478,1,8,0:0:0:0:
256,192,233566,1,0,0:0:0:0:
256,192,233655,1,8,0:0:0:0:
256,192,233743,1,8,0:0:0:0:
256,192,233831,1,0,0:0:0:0:
256,192,233919,1,8,0:0:0:0:
256,192,234007,1,8,0:0:0:0:
256,192,234184,1,8,0:0:0:0:
256,192,234360,1,4,0:0:0:0:
256,192,234713,5,8,0:0:0:0:
256,192,234890,1,0,0:0:0:0:
256,192,235066,1,0,0:0:0:0:
256,192,235419,1,8,0:0:0:0:
256,192,235596,1,0,0:0:0:0:
256,192,235772,1,0,0:0:0:0:
256,192,236125,1,8,0:0:0:0:
256,192,236302,1,0,0:0:0:0:
256,192,236478,1,0,0:0:0:0:
256,192,236655,1,8,0:0:0:0:
256,192,236831,1,8,0:0:0:0:
256,192,237007,1,0,0:0:0:0:
256,192,237184,5,4,0:0:0:0:
256,192,237360,1,0,0:0:0:0:
256,192,237537,1,8,0:0:0:0:
256,192,237713,1,8,0:0:0:0:
256,192,237802,1,0,0:0:0:0:
256,192,237890,1,8,0:0:0:0:
256,192,237978,1,8,0:0:0:0:
256,192,238066,1,8,0:0:0:0:
256,192,238155,1,0,0:0:0:0:
256,192,238243,1,8,0:0:0:0:
256,192,238331,1,0,0:0:0:0:
256,192,238419,1,8,0:0:0:0:
256,192,238507,1,8,0:0:0:0:
256,192,238596,1,8,0:0:0:0:
256,192,238772,1,0,0:0:0:0:
256,192,238949,1,8,0:0:0:0:
256,192,239125,1,8,0:0:0:0:
256,192,239213,1,0,0:0:0:0:
256,192,239302,1,8,0:0:0:0:
256,192,239390,1,8,0:0:0:0:
256,192,239478,1,0,0:0:0:0:
256,192,239566,1,0,0:0:0:0:
256,192,239655,1,8,0:0:0:0:
256,192,239831,1,8,0:0:0:0:
256,192,240007,1,4,0:0:0:0:
256,192,240184,1,0,0:0:0:0:
256,192,240360,1,8,0:0:0:0:
256,192,240537,1,8,0:0:0:0:
256,192,240625,1,0,0:0:0:0:
256,192,240713,1,0,0:0:0:0:
256,192,240802,1,8,0:0:0:0:
256,192,240890,1,8,0:0:0:0:
256,192,240978,1,0,0:0:0:0:
256,192,241066,1,0,0:0:0:0:
256,192,241155,1,8,0:0:0:0:
256,192,241243,1,8,0:0:0:0:
256,192,241331,1,0,0:0:0:0:
256,192,241419,1,8,0:0:0:0:
256,192,241596,1,0,0:0:0:0:
256,192,241772,1,8,0:0:0:0:
256,192,241949,1,8,0:0:0:0:
256,192,242037,1,0,0:0:0:0:
256,192,242125,1,8,0:0:0:0:
256,192,242213,1,8,0:0:0:0:
256,192,242302,1,0,0:0:0:0:
256,192,242478,1,0,0:0:0:0:
256,192,242566,1,8,0:0:0:0:
256,192,242655,1,8,0:0:0:0:
256,192,242743,1,8,0:0:0:0:
256,192,242831,1,4,0:0:0:0:
256,192,243007,1,0,0:0:0:0:
256,192,243184,1,8,0:0:0:0:
256,192,243360,1,8,0:0:0:0:
256,192,243449,1,0,0:0:0:0:
256,192,243537,1,0,0:0:0:0:
256,192,243625,1,8,0:0:0:0:
256,192,243713,1,8,0:0:0:0:
256,192,243802,1,0,0:0:0:0:
256,192,243890,1,8,0:0:0:0:
256,192,243978,1,0,0:0:0:0:
256,192,244066,1,8,0:0:0:0:
256,192,244155,1,8,0:0:0:0:
256,192,244243,1,8,0:0:0:0:
256,192,244419,1,0,0:0:0:0:
256,192,244596,1,8,0:0:0:0:
256,192,244772,1,0,0:0:0:0:
256,192,244860,1,0,0:0:0:0:
256,192,244949,1,8,0:0:0:0:
256,192,245037,1,0,0:0:0:0:
256,192,245125,1,0,0:0:0:0:
256,192,245213,1,8,0:0:0:0:
256,192,245302,1,8,0:0:0:0:
256,192,245390,1,0,0:0:0:0:
256,192,245478,1,8,0:0:0:0:
256,192,245655,1,4,0:0:0:0:
256,192,245831,1,0,0:0:0:0:
256,192,246007,1,8,0:0:0:0:
256,192,246184,1,0,0:0:0:0:
256,192,246272,1,8,0:0:0:0:
256,192,246360,1,8,0:0:0:0:
256,192,246449,1,0,0:0:0:0:
256,192,246537,1,0,0:0:0:0:
256,192,246625,1,8,0:0:0:0:
256,192,246713,1,8,0:0:0:0:
256,192,246802,1,0,0:0:0:0:
256,192,246890,1,0,0:0:0:0:
256,192,246978,1,8,0:0:0:0:
256,192,247066,1,8,0:0:0:0:
256,192,247243,1,0,0:0:0:0:
256,192,247419,1,8,0:0:0:0:
256,192,247507,1,0,0:0:0:0:
256,192,247596,1,8,0:0:0:0:
256,192,247684,1,8,0:0:0:0:
256,192,247772,1,0,0:0:0:0:
256,192,247860,1,8,0:0:0:0:
256,192,247949,1,0,0:0:0:0:
256,192,248066,1,8,0:0:0:0:
256,192,248125,1,8,0:0:0:0:
256,192,248302,1,0,0:0:0:0:
256,192,248478,5,4,0:0:0:0:
256,192,248655,1,0,0:0:0:0:
256,192,248831,1,8,0:0:0:0:
256,192,249007,1,8,0:0:0:0:
256,192,249096,1,8,0:0:0:0:
256,192,249184,1,0,0:0:0:0:
256,192,249272,1,8,0:0:0:0:
256,192,249360,1,8,0:0:0:0:
256,192,249449,1,0,0:0:0:0:
256,192,249537,1,8,0:0:0:0:
256,192,249625,1,0,0:0:0:0:
256,192,249713,1,8,0:0:0:0:
256,192,249802,1,0,0:0:0:0:
256,192,249890,1,8,0:0:0:0:
256,192,250066,1,0,0:0:0:0:
256,192,250243,1,8,0:0:0:0:
256,192,250419,1,8,0:0:0:0:
256,192,250507,1,0,0:0:0:0:
256,192,250596,1,8,0:0:0:0:
256,192,250684,1,0,0:0:0:0:
256,192,250772,1,0,0:0:0:0:
256,192,250860,1,0,0:0:0:0:
256,192,250949,1,8,0:0:0:0:
256,192,251125,1,8,0:0:0:0:
256,192,251302,1,4,0:0:0:0:
256,192,251478,1,0,0:0:0:0:
256,192,251655,1,8,0:0:0:0:
256,192,251831,1,8,0:0:0:0:
256,192,251919,1,0,0:0:0:0:
256,192,252007,1,0,0:0:0:0:
256,192,252096,1,0,0:0:0:0:
256,192,252184,1,8,0:0:0:0:
256,192,252272,1,8,0:0:0:0:
256,192,252360,1,0,0:0:0:0:
256,192,252449,1,0,0:0:0:0:
256,192,252537,1,8,0:0:0:0:
256,192,252625,1,0,0:0:0:0:
256,192,252713,1,8,0:0:0:0:
256,192,252890,1,0,0:0:0:0:
256,192,253066,1,8,0:0:0:0:
256,192,253243,1,8,0:0:0:0:
256,192,253331,1,0,0:0:0:0:
256,192,253419,1,0,0:0:0:0:
256,192,253507,1,8,0:0:0:0:
256,192,253596,1,0,0:0:0:0:
256,192,253772,1,8,0:0:0:0:
256,192,253860,1,0,0:0:0:0:
256,192,253949,1,8,0:0:0:0:
256,192,254037,1,8,0:0:0:0:
256,192,254125,1,4,0:0:0:0:
256,192,254302,1,0,0:0:0:0:
256,192,254478,1,8,0:0:0:0:
256,192,254655,1,0,0:0:0:0:
256,192,254743,1,0,0:0:0:0:
256,192,254831,1,0,0:0:0:0:
256,192,254919,1,8,0:0:0:0:
256,192,255007,1,8,0:0:0:0:
256,192,255096,1,0,0:0:0:0:
256,192,255184,1,0,0:0:0:0:
256,192,255272,1,8,0:0:0:0:
256,192,255360,1,8,0:0:0:0:
256,192,255449,1,0,0:0:0:0:
256,192,255537,1,8,0:0:0:0:
256,192,255713,1,0,0:0:0:0:
256,192,255890,1,8,0:0:0:0:
256,192,256066,1,8,0:0:0:0:
256,192,256155,1,0,0:0:0:0:
256,192,256243,1,0,0:0:0:0:
256,192,256331,1,8,0:0:0:0:
256,192,256419,1,0,0:0:0:0:
256,192,256507,1,0,0:0:0:0:
256,192,256596,1,8,0:0:0:0:
256,192,256772,1,8,0:0:0:0:
256,192,256949,1,4,0:0:0:0:
256,192,257125,1,0,0:0:0:0:
256,192,257302,1,8,0:0:0:0:
256,192,257478,1,0,0:0:0:0:
256,192,257566,1,0,0:0:0:0:
256,192,257655,1,8,0:0:0:0:
256,192,257743,1,8,0:0:0:0:
256,192,257831,1,0,0:0:0:0:
256,192,257919,1,8,0:0:0:0:
256,192,258007,1,8,0:0:0:0:
256,192,258096,1,0,0:0:0:0:
256,192,258184,1,0,0:0:0:0:
256,192,258272,1,8,0:0:0:0:
256,192,258360,1,8,0:0:0:0:
256,192,258537,1,0,0:0:0:0:
256,192,258713,1,8,0:0:0:0:
256,192,258802,1,0,0:0:0:0:
256,192,258890,1,8,0:0:0:0:
256,192,258978,1,0,0:0:0:0:
256,192,259066,1,8,0:0:0:0:
256,192,259155,1,8,0:0:0:0:
256,192,259243,1,0,0:0:0:0:
256,192,259360,1,8,0:0:0:0:
256,192,259419,1,8,0:0:0:0:
256,192,259596,1,0,0:0:0:0:
256,192,259772,5,4,0:0:0:0:
256,192,260125,1,8,0:0:0:0:
256,192,260302,1,8,0:0:0:0:
256,192,260390,1,8,0:0:0:0:
256,192,260478,1,0,0:0:0:0:
256,192,260566,1,8,0:0:0:0:
256,192,260655,1,0,0:0:0:0:
256,192,260831,1,8,0:0:0:0:
256,192,261007,1,8,0:0:0:0:
256,192,261184,1,8,0:0:0:0:
256,192,261360,1,0,0:0:0:0:
256,192,261537,1,8,0:0:0:0:
256,192,261713,1,8,0:0:0:0:
256,192,261802,1,8,0:0:0:0:
256,192,261890,1,0,0:0:0:0:
256,192,261978,1,8,0:0:0:0:
256,192,262066,1,0,0:0:0:0:
256,192,262155,1,0,0:0:0:0:
256,192,262243,1,8,0:0:0:0:
256,192,262419,1,8,0:0:0:0:
256,192,262596,1,4,0:0:0:0:
256,192,262949,1,8,0:0:0:0:
256,192,263125,1,8,0:0:0:0:
256,192,263213,1,0,0:0:0:0:
256,192,263302,1,0,0:0:0:0:
256,192,263390,1,8,0:0:0:0:
256,192,263478,1,0,0:0:0:0:
256,192,263655,1,8,0:0:0:0:
256,192,263831,1,8,0:0:0:0:
256,192,264007,1,8,0:0:0:0:
256,192,264184,1,0,0:0:0:0:
256,192,264360,1,8,0:0:0:0:
256,192,264537,1,8,0:0:0:0:
256,192,264625,1,0,0:0:0:0:
256,192,264713,1,0,0:0:0:0:
256,192,264802,1,8,0:0:0:0:
256,192,264890,1,0,0:0:0:0:
256,192,265066,1,8,0:0:0:0:
256,192,265155,1,0,0:0:0:0:
256,192,265243,1,8,0:0:0:0:
256,192,265331,1,8,0:0:0:0:
256,192,265419,1,4,0:0:0:0:
256,192,265772,1,8,0:0:0:0:
256,192,265949,1,8,0:0:0:0:
256,192,266037,1,0,0:0:0:0:
256,192,266125,1,8,0:0:0:0:
256,192,266213,1,8,0:0:0:0:
256,192,266302,1,0,0:0:0:0:
256,192,266478,1,8,0:0:0:0:
256,192,266655,1,8,0:0:0:0:
256,192,266831,1,8,0:0:0:0:
256,192,267007,1,0,0:0:0:0:
256,192,267184,1,8,0:0:0:0:
256,192,267360,1,8,0:0:0:0:
256,192,267449,1,0,0:0:0:0:
256,192,267537,1,8,0:0:0:0:
256,192,267625,1,8,0:0:0:0:
256,192,267713,1,0,0:0:0:0:
256,192,267802,1,0,0:0:0:0:
256,192,267890,1,8,0:0:0:0:
256,192,268066,1,8,0:0:0:0:
256,192,268243,1,4,0:0:0:0:
256,192,268596,1,8,0:0:0:0:
256,192,268772,1,8,0:0:0:0:
256,192,268860,1,0,0:0:0:0:
256,192,268949,1,8,0:0:0:0:
256,192,269037,1,8,0:0:0:0:
256,192,269125,1,0,0:0:0:0:
256,192,269302,1,8,0:0:0:0:
256,192,269478,1,8,0:0:0:0:
256,192,269655,1,8,0:0:0:0:
256,192,269831,1,0,0:0:0:0:
256,192,270007,1,8,0:0:0:0:
256,192,270184,1,8,0:0:0:0:
256,192,270272,1,0,0:0:0:0:
256,192,270360,1,0,0:0:0:0:
256,192,270449,1,8,0:0:0:0:
256,192,270537,1,0,0:0:0:0:
256,192,270713,1,8,0:0:0:0:
256,192,270802,1,8,0:0:0:0:
256,192,270890,1,8,0:0:0:0:
256,192,270978,1,8,0:0:0:0:
256,192,271066,5,4,0:0:0:0:
256,192,271419,1,8,0:0:0:0:
256,192,271596,1,8,0:0:0:0:
256,192,271684,1,8,0:0:0:0:
256,192,271772,1,0,0:0:0:0:
256,192,271860,1,8,0:0:0:0:
256,192,271949,1,0,0:0:0:0:
256,192,272125,1,8,0:0:0:0:
256,192,272302,1,8,0:0:0:0:
256,192,272478,1,8,0:0:0:0:
256,192,272655,1,0,0:0:0:0:
256,192,272831,1,8,0:0:0:0:
256,192,273007,1,8,0:0:0:0:
256,192,273096,1,8,0:0:0:0:
256,192,273184,1,0,0:0:0:0:
256,192,273272,1,8,0:0:0:0:
256,192,273360,1,0,0:0:0:0:
256,192,273449,1,0,0:0:0:0:
256,192,273537,1,8,0:0:0:0:
256,192,273713,1,8,0:0:0:0:
256,192,273890,1,4,0:0:0:0:
256,192,274243,1,8,0:0:0:0:
256,192,274419,1,8,0:0:0:0:
256,192,274507,1,0,0:0:0:0:
256,192,274596,1,0,0:0:0:0:
256,192,274684,1,8,0:0:0:0:
256,192,274772,1,0,0:0:0:0:
256,192,274949,1,8,0:0:0:0:
256,192,275125,1,8,0:0:0:0:
256,192,275302,1,8,0:0:0:0:
256,192,275478,1,0,0:0:0:0:
256,192,275655,1,8,0:0:0:0:
256,192,275831,1,8,0:0:0:0:
256,192,275919,1,0,0:0:0:0:
256,192,276007,1,0,0:0:0:0:
256,192,276096,1,8,0:0:0:0:
256,192,276184,1,0,0:0:0:0:
256,192,276360,1,8,0:0:0:0:
256,192,276449,1,0,0:0:0:0:
256,192,276537,1,8,0:0:0:0:
256,192,276625,1,8,0:0:0:0:
256,192,276713,1,4,0:0:0:0:
256,192,277066,1,8,0:0:0:0:
256,192,277243,1,8,0:0:0:0:
256,192,277331,1,0,0:0:0:0:
256,192,277419,1,8,0:0:0:0:
256,192,277507,1,8,0:0:0:0:
256,192,277596,1,0,0:0:0:0:
256,192,277772,1,8,0:0:0:0:
256,192,277949,1,8,0:0:0:0:
256,192,278125,1,8,0:0:0:0:
256,192,278302,1,0,0:0:0:0:
256,192,278478,1,8,0:0:0:0:
256,192,278655,1,8,0:0:0:0:
256,192,278743,1,0,0:0:0:0:
256,192,278831,1,8,0:0:0:0:
256,192,278919,1,8,0:0:0:0:
256,192,279007,1,0,0:0:0:0:
256,192,279096,1,0,0:0:0:0:
256,192,279184,1,8,0:0:0:0:
256,192,279360,1,8,0:0:0:0:
256,192,279537,1,4,0:0:0:0:
256,192,279890,1,8,0:0:0:0:
256,192,280066,1,8,0:0:0:0:
256,192,280155,1,0,0:0:0:0:
256,192,280243,1,8,0:0:0:0:
256,192,280331,1,8,0:0:0:0:
256,192,280419,1,0,0:0:0:0:
256,192,280596,1,8,0:0:0:0:
256,192,280772,1,8,0:0:0:0:
256,192,280949,1,8,0:0:0:0:
256,192,281125,1,0,0:0:0:0:
256,192,281302,1,8,0:0:0:0:
256,192,281478,1,8,0:0:0:0:
256,192,281566,1,0,0:0:0:0:
256,192,281655,1,0,0:0:0:0:
256,192,281743,1,8,0:0:0:0:
256,192,281831,1,0,0:0:0:0:
256,192,282007,1,8,0:0:0:0:
256,192,282096,1,8,0:0:0:0:
256,192,282184,1,8,0:0:0:0:
256,192,282272,1,8,0:0:0:0:
256,192,282360,5,4,0:0:0:0:
256,192,282713,1,8,0:0:0:0:
256,192,282890,1,0,0:0:0:0:
256,192,282978,1,8,0:0:0:0:
256,192,283066,1,0,0:0:0:0:
256,192,283155,1,8,0:0:0:0:
256,192,283243,1,0,0:0:0:0:
256,192,283419,1,8,0:0:0:0:
256,192,283596,1,0,0:0:0:0:
256,192,283772,1,0,0:0:0:0:
256,192,284125,1,8,0:0:0:0:
256,192,284302,1,0,0:0:0:0:
256,192,284390,1,8,0:0:0:0:
256,192,284478,1,0,0:0:0:0:
256,192,284566,1,8,0:0:0:0:
256,192,284655,1,8,0:0:0:0:
256,192,284831,1,8,0:0:0:0:
256,192,285007,1,0,0:0:0:0:
256,192,285184,1,12,0:0:0:0:
256,192,285537,1,8,0:0:0:0:
256,192,285713,1,0,0:0:0:0:
256,192,285802,1,8,0:0:0:0:
256,192,285890,1,0,0:0:0:0:
256,192,285978,1,0,0:0:0:0:
256,192,286066,1,0,0:0:0:0:
256,192,286243,1,8,0:0:0:0:
256,192,286419,1,0,0:0:0:0:
256,192,286596,1,0,0:0:0:0:
256,192,286949,1,8,0:0:0:0:
256,192,287125,1,8,0:0:0:0:
256,192,287213,1,8,0:0:0:0:
256,192,287302,1,0,0:0:0:0:
256,192,287390,1,8,0:0:0:0:
256,192,287478,1,0,0:0:0:0:
256,192,287655,1,8,0:0:0:0:
256,192,287831,1,0,0:0:0:0:
256,192,288007,1,12,0:0:0:0:
256,192,288360,1,8,0:0:0:0:
256,192,288537,1,0,0:0:0:0:
256,192,288625,1,8,0:0:0:0:
256,192,288713,1,0,0:0:0:0:
256,192,288802,1,8,0:0:0:0:
256,192,288890,1,0,0:0:0:0:
256,192,289066,1,8,0:0:0:0:
256,192,289243,1,0,0:0:0:0:
256,192,289419,1,0,0:0:0:0:
256,192,289772,1,8,0:0:0:0:
256,192,289949,1,0,0:0:0:0:
256,192,290037,1,8,0:0:0:0:
256,192,290125,1,0,0:0:0:0:
256,192,290213,1,8,0:0:0:0:
256,192,290302,1,8,0:0:0:0:
256,192,290478,1,8,0:0:0:0:
256,192,290655,1,0,0:0:0:0:
256,192,290831,1,12,0:0:0:0:
256,192,291184,1,8,0:0:0:0:
256,192,291360,1,0,0:0:0:0:
256,192,291449,1,8,0:0:0:0:
256,192,291537,1,0,0:0:0:0:
256,192,291625,1,0,0:0:0:0:
256,192,291713,1,0,0:0:0:0:
256,192,291890,1,8,0:0:0:0:
256,192,292066,1,0,0:0:0:0:
256,192,292243,1,0,0:0:0:0:
256,192,292596,1,8,0:0:0:0:
256,192,292772,1,8,0:0:0:0:
256,192,292860,1,8,0:0:0:0:
256,192,292949,1,0,0:0:0:0:
256,192,293037,1,8,0:0:0:0:
256,192,293125,1,0,0:0:0:0:
256,192,293302,1,8,0:0:0:0:
256,192,293390,1,0,0:0:0:0:
256,192,293478,1,8,0:0:0:0:
256,192,293655,5,4,0:0:0:0:
256,192,294007,1,8,0:0:0:0:
256,192,294184,1,0,0:0:0:0:
256,192,294272,1,8,0:0:0:0:
256,192,294360,1,0,0:0:0:0:
256,192,294449,1,0,0:0:0:0:
256,192,294713,1,8,0:0:0:0:
256,192,294890,1,0,0:0:0:0:
256,192,295066,1,4,0:0:0:0:
256,192,295419,1,8,0:0:0:0:
256,192,295596,1,12,0:0:0:0:
256,192,295772,1,0,0:0:0:0:
256,192,295949,1,8,0:0:0:0:
256,192,296125,1,8,0:0:0:0:
256,192,296302,1,0,0:0:0:0:
256,192,296478,1,12,0:0:0:0:
256,192,296831,1,8,0:0:0:0:
256,192,297007,1,0,0:0:0:0:
256,192,297096,1,8,0:0:0:0:
256,192,297184,1,0,0:0:0:0:
256,192,297272,1,0,0:0:0:0:
256,192,297537,1,8,0:0:0:0:
256,192,297713,1,0,0:0:0:0:
256,192,297890,1,0,0:0:0:0:
256,192,298243,1,8,0:0:0:0:
256,192,298419,1,4,0:0:0:0:
256,192,298596,1,0,0:0:0:0:
256,192,298684,1,0,0:0:0:0:
256,192,298772,1,8,0:0:0:0:
256,192,298949,1,8,0:0:0:0:
256,192,299125,1,0,0:0:0:0:
256,192,299302,1,12,0:0:0:0:
256,192,299655,1,8,0:0:0:0:
256,192,299831,1,0,0:0:0:0:
256,192,299919,1,8,0:0:0:0:
256,192,300007,1,0,0:0:0:0:
256,192,300096,1,0,0:0:0:0:
256,192,300360,1,8,0:0:0:0:
256,192,300537,1,0,0:0:0:0:
256,192,300713,1,0,0:0:0:0:
256,192,301066,1,8,0:0:0:0:
256,192,301243,1,0,0:0:0:0:
256,192,301331,1,8,0:0:0:0:
256,192,301419,1,0,0:0:0:0:
256,192,301507,1,0,0:0:0:0:
256,192,301596,1,8,0:0:0:0:
256,192,301772,1,8,0:0:0:0:
256,192,301949,1,0,0:0:0:0:
256,192,302125,1,12,0:0:0:0:
256,192,302478,1,8,0:0:0:0:
256,192,302655,1,0,0:0:0:0:
256,192,302743,1,8,0:0:0:0:
256,192,302831,1,0,0:0:0:0:
256,192,302919,1,0,0:0:0:0:
256,192,303184,1,8,0:0:0:0:
256,192,303360,1,0,0:0:0:0:
256,192,303537,1,0,0:0:0:0:
256,192,303890,1,8,0:0:0:0:
256,192,304066,1,0,0:0:0:0:
256,192,304155,1,8,0:0:0:0:
256,192,304243,1,0,0:0:0:0:
256,192,304331,1,0,0:0:0:0:
256,192,304419,1,8,0:0:0:0:
256,192,304596,1,8,0:0:0:0:
256,192,304772,1,0,0:0:0:0:
