osu file format v14

[General]
AudioFilename: audio.mp3
AudioLeadIn: 0
PreviewTime: 131171
Countdown: 0
SampleSet: Soft
StackLeniency: 0.2
Mode: 0
LetterboxInBreaks: 0
EpilepsyWarning: 1
WidescreenStoryboard: 1

[Editor]
Bookmarks: 767,11865,22963,45160,67356,89553,111749,122847,131171,133946,145044,156142,167240,178339,189437,200535,211634,222732,233830,244928,256027,267125
DistanceSpacing: 0.9
BeatDivisor: 16
GridSize: 32
TimelineZoom: 3.099999

[Metadata]
Title:Lullaby (Cut Ver.)
TitleUnicode:Lullaby (Cut Ver.)
Artist:Receptor & K.I.R.A
ArtistUnicode:Receptor & K.I.R.A
Creator:Shmiklak
Version:Sleepless
Source:osu!
Tags:fa featured artist marvollo m_a_r_v_o_l_l_o wajinshu mappers' guild russian electronic русская электроника dnb drum and bass kira neurofunk Burning Up Horror Darkside рецептор кира колыбельная тили бом
BeatmapID:2541356
BeatmapSetID:1221743

[Difficulty]
HPDrainRate:7
CircleSize:4
OverallDifficulty:9
ApproachRate:9.6
SliderMultiplier:1.6
SliderTickRate:1

[Events]
//Background and Video events
0,0,"young-girl-1149701.jpg",0,0
//Break Periods
2,23163,44651
2,111949,122338
2,222932,233321
//Storyboard Layer 0 (Background)
Sprite,Background,Centre,"sb\etc\l.png",0,0 C,0,767,,126,169,128 M,0,767,810,136,402,134.6819,382.0477 F,2,767,1227,1,0 S,2,767,1227,1.5,0.3 P,0,767,1227,A M,0,810,853,134.6819,382.0477,132.3573,362.1891 M,0,853,897,132.3573,362.1891,129.063,342.4684 M,0,897,940,129.063,342.4684,124.6704,322.9623 M,0,940,983,124.6704,322.9623,119.3476,303.6891 M,0,983,1027,119.3476,303.6891,112.9883,284.7305
Sprite,Background,Centre,"sb\etc\l.png",0,0 C,0,1113,,126,169,128 M,0,1113,1156,198,167,194.4572,186.6827 F,2,1113,1486,1,0 S,2,1113,1486,1.5,0.3 P,0,1113,1486,A M,0,1156,1199,194.4572,186.6827,191.4008,206.4464 M,0,1199,1243,191.4008,206.4464,188.8265,226.2785 M,0,1243,1286,188.8265,226.2785,186.7876,246.1729
Sprite,Background,Centre,"sb\etc\l.png",186,246 C,0,1373,,126,169,128 F,2,1373,1573,1,0 S,2,1373,1573,1.5,0.3 P,0,1373,1573,A
Sprite,Background,Centre,"sb\etc\l.png",186,246 C,0,1460,,126,169,128 F,2,1460,1660,1,0 S,2,1460,1660,1.5,0.3 P,0,1460,1660,A
Sprite,Background,Centre,"sb\etc\l.png",258,363 C,0,1634,,126,169,128 F,2,1634,1834,1,0 S,2,1634,1834,1.5,0.3 P,0,1634,1834,A
Sprite,Background,Centre,"sb\etc\l.png",0,0 C,0,1807,,126,169,128 M,0,1807,1850,385,220,366.1228,213.393 F,2,1807,2180,1,0 S,2,1807,2180,1.5,0.3 P,0,1807,2180,A M,0,1850,1893,366.1228,213.393,347.2457,206.786 M,0,1893,1937,347.2457,206.786,328.4599,212.0759 M,0,1937,1980,328.4599,212.0759,309.6865,218.9723
Sprite,Background,Centre,"sb\etc\l.png",0,0 C,0,2154,,136,176,200 M,0,2154,2197,425,395,442.5275,404.4323 F,2,2154,2614,1,0 S,2,2154,2614,1.5,0.3 P,0,2154,2614,A M,0,2197,2240,442.5275,404.4323,461.7631,409.414 M,0,2240,2284,461.7631,409.414,481.6215,409.8098 M,0,2284,2327,481.6215,409.8098,500.9013,404.978 M,0,2327,2370,500.9013,404.978,518.5818,395.8952 M,0,2370,2414,518.5818,395.8952,533.2042,382.4216
Sprite,Background,Centre,"sb\etc\l.png",0,0 C,0,2501,,136,176,200 M,0,2501,2544,576,245,572.9589,225.2326 F,2,2501,2874,1,0 S,2,2501,2874,1.5,0.3 P,0,2501,2874,A M,0,2544,2587,572.9589,225.2326,569.9177,205.4651 M,0,2587,2631,569.9177,205.4651,566.8766,185.6977 M,0,2631,2674,566.8766,185.6977,563.8354,165.9303
Sprite,Background,Centre,"sb\etc\l.png",563,165 C,0,2761,,136,176,200 F,2,2761,2961,1,0 S,2,2761,2961,1.5,0.3 P,0,2761,2961,A
Sprite,Background,Centre,"sb\etc\l.png",563,165 C,0,2847,,136,176,200 F,2,2847,3047,1,0 S,2,2847,3047,1.5,0.3 P,0,2847,3047,A
Sprite,Background,Centre,"sb\etc\l.png",478,74 C,0,3021,,136,176,200 F,2,3021,3221,1,0 S,2,3021,3221,1.5,0.3 P,0,3021,3221,A
Sprite,Background,Centre,"sb\etc\l.png",0,0 C,0,3194,,136,176,200 M,0,3194,3237,373,233,391.9189,239.4865 F,2,3194,3567,1,0 S,2,3194,3567,1.5,0.3 P,0,3194,3567,A M,0,3237,3280,391.9189,239.4865,410.8316,244.0089 M,0,3280,3324,410.8316,244.0089,429.7087,237.4019 M,0,3324,3367,429.7087,237.4019,448,231
Sprite,Background,Centre,"sb\etc\l.png",0,0 C,0,3541,,190,143,145 M,0,3541,3584,328,112,308.0468,112.5689 F,2,3541,4001,1,0 S,2,3541,4001,1.5,0.3 P,0,3541,4001,A M,0,3584,3627,308.0468,112.5689,288.8438,107.4096 M,0,3627,3671,288.8438,107.4096,272.3057,96.23824 M,0,3671,3714,272.3057,96.23824,255.2806,85.9031 M,0,3714,3757,255.2806,85.9031,235.6417,82.83633 M,0,3757,3801,235.6417,82.83633,215.8341,85.36517
Sprite,Background,Centre,"sb\etc\l.png",0,0 C,0,3888,,190,143,145 M,0,3888,3931,146,186,165.5795,189.2867 F,2,3888,4261,1,0 S,2,3888,4261,1.5,0.3 P,0,3888,4261,A M,0,3931,3974,165.5795,189.2867,185.1911,186.5877 M,0,3974,4018,185.1911,186.5877,203.3267,178.5532 M,0,4018,4061,203.3267,178.5532,217.6645,164.8445
Sprite,Background,Centre,"sb\etc\l.png",217,164 C,0,4148,,190,143,145 F,2,4148,4348,1,0 S,2,4148,4348,1.5,0.3 P,0,4148,4348,A
Sprite,Background,Centre,"sb\etc\l.png",217,164 C,0,4235,,190,143,145 F,2,4235,4435,1,0 S,2,4235,4435,1.5,0.3 P,0,4235,4435,A
Sprite,Background,Centre,"sb\etc\l.png",176,283 C,0,4408,,190,143,145 F,2,4408,4608,1,0 S,2,4408,4608,1.5,0.3 P,0,4408,4608,A
Sprite,Background,Centre,"sb\etc\l.png",0,0 C,0,4582,,190,143,145 M,0,4582,4625,69,182,72.56615,162.3277 F,2,4582,4955,1,0 S,2,4582,4955,1.5,0.3 P,0,4582,4955,A M,0,4625,4668,72.56615,162.3277,74.85249,142.4683 M,0,4668,4712,74.85249,142.4683,75.85958,122.5043 M,0,4712,4755,75.85958,122.5043,75.45819,102.5177
Sprite,Background,Centre,"sb\etc\l.png",0,0 C,0,4928,,206,203,140 M,0,4928,4971,217,164,236.9532,164.5689 F,2,4928,5388,1,0 S,2,4928,5388,1.5,0.3 P,0,4928,5388,A M,0,4971,5014,236.9532,164.5689,256.1562,159.4096 M,0,5014,5058,256.1562,159.4096,272.6943,148.2382 M,0,5058,5101,272.6943,148.2382,289.7194,137.9031 M,0,5101,5144,289.7194,137.9031,309.3583,134.8363 M,0,5144,5188,309.3583,134.8363,329.1659,137.3652
Sprite,Background,Centre,"sb\etc\l.png",0,0 C,0,5275,,206,203,140 M,0,5275,5318,399,238,379.4205,241.2867 F,2,5275,5648,1,0 S,2,5275,5648,1.5,0.3 P,0,5275,5648,A M,0,5318,5361,379.4205,241.2867,359.8089,238.5877 M,0,5361,5405,359.8089,238.5877,341.6732,230.5532 M,0,5405,5448,341.6732,230.5532,327.3355,216.8445
Sprite,Background,Centre,"sb\etc\l.png",328,216 C,0,5535,,206,203,140 F,2,5535,5735,1,0 S,2,5535,5735,1.5,0.3 P,0,5535,5735,A
Sprite,Background,Centre,"sb\etc\l.png",328,216 C,0,5622,,206,203,140 F,2,5622,5822,1,0 S,2,5622,5822,1.5,0.3 P,0,5622,5822,A
Sprite,Background,Centre,"sb\etc\l.png",380,332 C,0,5795,,206,203,140 F,2,5795,5995,1,0 S,2,5795,5995,1.5,0.3 P,0,5795,5995,A
Sprite,Background,Centre,"sb\etc\l.png",0,0 C,0,5969,,206,203,140 M,0,5969,6012,489,223,484.2209,203.5883 F,2,5969,6342,1,0 S,2,5969,6342,1.5,0.3 P,0,5969,6342,A M,0,6012,6055,484.2209,203.5883,480.923,183.8743 M,0,6055,6099,480.923,183.8743,479.1245,163.9697 M,0,6099,6142,479.1245,163.9697,478.7004,143.9842
Sprite,Background,Centre,"sb\etc\l.png",0,0 C,0,6316,,126,169,128 M,0,6316,6359,286,78,285.4487,97.9918 F,2,6316,6776,1,0 S,2,6316,6776,1.5,0.3 P,0,6316,6776,A M,0,6359,6402,285.4487,97.9918,284.5116,117.969 M,0,6402,6446,284.5116,117.969,283.2159,137.9263 M,0,6446,6489,283.2159,137.9263,281.482,157.8503 M,0,6489,6532,281.482,157.8503,279.3638,177.7369 M,0,6532,6576,279.3638,177.7369,276.8888,197.5825
Sprite,Background,Centre,"sb\etc\l.png",0,0 C,0,6662,,126,169,128 M,0,6662,6705,188,273,168.5973,268.2086 F,2,6662,7035,1,0 S,2,6662,7035,1.5,0.3 P,0,6662,7035,A M,0,6705,6748,168.5973,268.2086,148.8378,265.2452 M,0,6748,6792,148.8378,265.2452,128.8926,264.0773 M,0,6792,6835,128.8926,264.0773,108.9189,264.8477
Sprite,Background,Centre,"sb\etc\l.png",108,264 C,0,6923,,126,169,128 F,2,6923,7123,1,0 S,2,6923,7123,1.5,0.3 P,0,6923,7123,A
Sprite,Background,Centre,"sb\etc\l.png",108,264 C,0,7009,,126,169,128 F,2,7009,7209,1,0 S,2,7009,7209,1.5,0.3 P,0,7009,7209,A
Sprite,Background,Centre,"sb\etc\l.png",174,383 C,0,7183,,126,169,128 F,2,7183,7383,1,0 S,2,7183,7383,1.5,0.3 P,0,7183,7383,A
Sprite,Background,Centre,"sb\etc\l.png",0,0 C,0,7356,,126,169,128 M,0,7356,7399,312,299,330.8692,292.3703 F,2,7356,7729,1,0 S,2,7356,7729,1.5,0.3 P,0,7356,7729,A M,0,7399,7442,330.8692,292.3703,349.6971,286.356 M,0,7442,7486,349.6971,286.356,367.5092,295.4515 M,0,7486,7529,367.5092,295.4515,385.3213,304.547
Sprite,Background,Centre,"sb\etc\l.png",0,0 C,0,7703,,136,176,200 M,0,7703,7746,576,267,558.2076,275.8585 F,2,7703,8163,1,0 S,2,7703,8163,1.5,0.3 P,0,7703,8163,A M,0,7746,7789,558.2076,275.8585,538.7234,279.5482 M,0,7789,7833,538.7234,279.5482,518.9558,278.0157 M,0,7833,7876,518.9558,278.0157,500.5511,270.6024 M,0,7876,7919,500.5511,270.6024,484.6327,258.7334 M,0,7919,7963,484.6327,258.7334,473.1309,242.5472
Sprite,Background,Centre,"sb\etc\l.png",0,0 C,0,8050,,136,176,200 M,0,8050,8093,411,146,412.392,126.0485 F,2,8050,8423,1,0 S,2,8050,8423,1.5,0.3 P,0,8050,8423,A M,0,8093,8136,412.392,126.0485,413.7839,106.097 M,0,8136,8180,413.7839,106.097,415.1759,86.14549 M,0,8180,8223,415.1759,86.14549,416.5679,66.19399
Sprite,Background,Centre,"sb\etc\l.png",416,66 C,0,8310,,136,176,200 F,2,8310,8510,1,0 S,2,8310,8510,1.5,0.3 P,0,8310,8510,A
Sprite,Background,Centre,"sb\etc\l.png",416,66 C,0,8397,,136,176,200 F,2,8397,8597,1,0 S,2,8397,8597,1.5,0.3 P,0,8397,8597,A
Sprite,Background,Centre,"sb\etc\l.png",328,185 C,0,8570,,136,176,200 F,2,8570,8770,1,0 S,2,8570,8770,1.5,0.3 P,0,8570,8770,A
Sprite,Background,Centre,"sb\etc\l.png",0,0 C,0,8743,,136,176,200 M,0,8743,8786,189,100,206.6984,90.68507 F,2,8743,9116,1,0 S,2,8743,9116,1.5,0.3 P,0,8743,9116,A M,0,8786,8829,206.6984,90.68507,224.3967,81.37014 M,0,8829,8873,224.3967,81.37014,242.8381,86.33525 M,0,8873,8916,242.8381,86.33525,261.4077,93.76306
Sprite,Background,Centre,"sb\etc\l.png",0,0 C,0,9090,,190,143,145 M,0,9090,9133,166,254,146.0389,252.7524 F,2,9090,9463,1,0 S,2,9090,9463,1.5,0.3 P,0,9090,9463,A M,0,9133,9176,146.0389,252.7524,126.0779,251.5049 M,0,9176,9220,126.0779,251.5049,106.1168,250.2573 M,0,9220,9263,106.1168,250.2573,86.15579,249.0097
Sprite,Background,Centre,"sb\etc\l.png",183,333 C,0,9437,,190,143,145 F,2,9437,9637,1,0 S,2,9437,9637,1.5,0.3 P,0,9437,9637,A
Sprite,Background,Centre,"sb\etc\l.png",206,327 C,0,9523,,190,143,145 F,2,9523,9723,1,0 S,2,9523,9723,1.5,0.3 P,0,9523,9723,A
Sprite,Background,Centre,"sb\etc\l.png",226,314 C,0,9610,,190,143,145 F,2,9610,9810,1,0 S,2,9610,9810,1.5,0.3 P,0,9610,9810,A
Sprite,Background,Centre,"sb\etc\l.png",241,296 C,0,9697,,190,143,145 F,2,9697,9897,1,0 S,2,9697,9897,1.5,0.3 P,0,9697,9897,A
Sprite,Background,Centre,"sb\etc\l.png",0,0 C,0,9784,,190,143,145 M,0,9784,9827,248,273,248.0259,253.0041 F,2,9784,10157,1,0 S,2,9784,10157,1.5,0.3 P,0,9784,10157,A M,0,9827,9870,248.0259,253.0041,247.0683,233.0325 M,0,9870,9914,247.0683,233.0325,245.1506,213.1306 M,0,9914,9957,245.1506,213.1306,242.2277,193.3486
Sprite,Background,Centre,"sb\etc\l.png",0,0 C,0,10131,,190,143,145 M,0,10131,10174,363,311,360.0087,330.7711 F,2,10131,10504,1,0 S,2,10131,10504,1.5,0.3 P,0,10131,10504,A M,0,10174,10217,360.0087,330.7711,358.0283,350.6673 M,0,10217,10261,358.0283,350.6673,357.0637,370.6375 M,0,10261,10304,357.0637,370.6375,357,390
Sprite,Background,Centre,"sb\etc\l.png",0,0 C,0,10477,,206,203,140 M,0,10477,10520,485,261,484.9365,241.0039 F,2,10477,10850,1,0 S,2,10477,10850,1.5,0.3 P,0,10477,10850,A M,0,10520,10563,484.9365,241.0039,483.9226,221.0347 M,0,10563,10607,483.9226,221.0347,481.966,201.1365 M,0,10607,10650,481.966,201.1365,479.0583,181.352
Sprite,Background,Centre,"sb\etc\l.png",573,285 C,0,10824,,206,203,140 F,2,10824,11024,1,0 S,2,10824,11024,1.5,0.3 P,0,10824,11024,A
Sprite,Background,Centre,"sb\etc\l.png",567,308 C,0,10910,,206,203,140 F,2,10910,11110,1,0 S,2,10910,11110,1.5,0.3 P,0,10910,11110,A
Sprite,Background,Centre,"sb\etc\l.png",554,328 C,0,10997,,206,203,140 F,2,10997,11197,1,0 S,2,10997,11197,1.5,0.3 P,0,10997,11197,A
Sprite,Background,Centre,"sb\etc\l.png",536,343 C,0,11084,,206,203,140 F,2,11084,11284,1,0 S,2,11084,11284,1.5,0.3 P,0,11084,11284,A
Sprite,Background,Centre,"sb\etc\l.png",0,0 C,0,11171,,206,203,140 M,0,11171,11214,512,348,492.0476,347.3906 F,2,11171,11457,1,0 S,2,11171,11457,1.5,0.3 P,0,11171,11457,A M,0,11214,11257,492.0476,347.3906,472.4463,343.6029
Sprite,Background,Centre,"sb\etc\l.png",0,0 C,0,11345,,206,203,140 M,0,11345,11388,301,397,320.2979,391.9773 F,2,11345,11631,1,0 S,2,11345,11631,1.5,0.3 P,0,11345,11631,A M,0,11388,11431,320.2979,391.9773,340,392
Sprite,Background,Centre,"sb\etc\l.png",474,428 C,0,11518,,206,203,140 F,2,11518,11718,1,0 S,2,11518,11718,1.5,0.3 P,0,11518,11718,A
Sprite,Background,Centre,"sb\etc\l.png",0,0 C,0,11865,,126,169,128 M,0,11865,11908,474,428,472.3849,408.0812 F,2,11865,12411,1,0 S,2,11865,12411,1.5,0.3 P,0,11865,12411,A M,0,11908,11951,472.3849,408.0812,468.8244,388.4227 M,0,11951,11995,468.8244,388.4227,463.4486,369.1802 M,0,11995,12038,463.4486,369.1802,455.986,350.6455 M,0,12038,12081,455.986,350.6455,446.8869,332.8516 M,0,12081,12125,446.8869,332.8516,435.829,316.2061 M,0,12125,12168,435.829,316.2061,423.1951,300.73 M,0,12168,12211,423.1951,300.73,409.1689,286.5028
Sprite,Background,Centre,"sb\etc\l.png",174,171 C,0,12472,,126,169,128 F,2,12472,12672,1,0 S,2,12472,12672,1.5,0.3 P,0,12472,12672,A
Sprite,Background,Centre,"sb\etc\l.png",0,0 C,0,12558,,126,169,128 M,0,12558,12601,174,171,175.8962,190.9099 F,2,12558,12931,1,0 S,2,12558,12931,1.5,0.3 P,0,12558,12931,A M,0,12601,12644,175.8962,190.9099,177.7924,210.8198 M,0,12644,12688,177.7924,210.8198,179.6885,230.7297 M,0,12688,12731,179.6885,230.7297,181.5847,250.6396
Sprite,Background,Centre,"sb\etc\l.png",0,0 C,0,12905,,136,176,200 M,0,12905,12948,83,306,84.1652,294.0567 F,2,12905,13365,1,0 S,2,12905,13365,1.5,0.3 P,0,12905,13365,A M,0,12948,12991,84.1652,294.0567,85.3304,282.1134 M,0,12991,13035,85.3304,282.1134,86.4956,270.1701 M,0,13035,13078,86.4956,270.1701,87.6608,258.2268 M,0,13078,13121,87.6608,258.2268,88.826,246.2835 M,0,13121,13165,88.826,246.2835,89.9912,234.3402
Sprite,Background,Centre,"sb\etc\l.png",0,0 C,0,13252,,190,143,145 M,0,13252,13295,140,94,159.9188,95.61514 F,2,13252,13798,1,0 S,2,13252,13798,1.5,0.3 P,0,13252,13798,A M,0,13295,13338,159.9188,95.61514,179.5773,99.17558 M,0,13338,13382,179.5773,99.17558,198.8198,104.5514 M,0,13382,13425,198.8198,104.5514,217.3545,112.014 M,0,13425,13468,217.3545,112.014,235.1484,121.1131 M,0,13468,13512,235.1484,121.1131,251.794,132.171 M,0,13512,13555,251.794,132.171,267.27,144.8049 M,0,13555,13598,267.27,144.8049,281.4972,158.8311
Sprite,Background,Centre,"sb\etc\l.png",397,394 C,0,13859,,190,143,145 F,2,13859,14059,1,0 S,2,13859,14059,1.5,0.3 P,0,13859,14059,A
Sprite,Background,Centre,"sb\etc\l.png",0,0 C,0,13945,,190,143,145 M,0,13945,13988,397,394,377.0901,392.1038 F,2,13945,14318,1,0 S,2,13945,14318,1.5,0.3 P,0,13945,14318,A M,0,13988,14031,377.0901,392.1038,357.1802,390.2076 M,0,14031,14075,357.1802,390.2076,337.2703,388.3115 M,0,14075,14118,337.2703,388.3115,317.3604,386.4153
Sprite,Background,Centre,"sb\etc\l.png",0,0 C,0,14293,,206,203,140 M,0,14293,14336,427,305,438.9433,303.8348 F,2,14293,14753,1,0 S,2,14293,14753,1.5,0.3 P,0,14293,14753,A M,0,14336,14379,438.9433,303.8348,450.8866,302.6696 M,0,14379,14423,450.8866,302.6696,462.8299,301.5044 M,0,14423,14466,462.8299,301.5044,474.7732,300.3392 M,0,14466,14509,474.7732,300.3392,486.7165,299.174 M,0,14509,14553,486.7165,299.174,498.6598,298.0088
Sprite,Background,Centre,"sb\etc\l.png",0,0 C,0,14639,,126,169,128 M,0,14639,14682,565,177,545.0322,176.185 F,2,14639,15185,1,0 S,2,14639,15185,1.5,0.3 P,0,14639,15185,A M,0,14682,14725,545.0322,176.185,525.2564,178.87 M,0,14725,14769,525.2564,178.87,506.9235,186.675 M,0,14769,14812,506.9235,186.675,490.9365,198.6603 M,0,14812,14855,490.9365,198.6603,474.8528,210.5095 M,0,14855,14899,474.8528,210.5095,456.3951,218.0183 M,0,14899,14942,456.3951,218.0183,436.5882,220.4838 M,0,14942,14985,436.5882,220.4838,416.6249,219.5484
Sprite,Background,Centre,"sb\etc\l.png",193,135 C,0,15246,,126,169,128 F,2,15246,15446,1,0 S,2,15246,15446,1.5,0.3 P,0,15246,15446,A
Sprite,Background,Centre,"sb\etc\l.png",0,0 C,0,15333,,126,169,128 M,0,15333,15376,193,135,195.1307,154.8862 F,2,15333,15706,1,0 S,2,15333,15706,1.5,0.3 P,0,15333,15706,A M,0,15376,15419,195.1307,154.8862,197.2613,174.7724 M,0,15419,15463,197.2613,174.7724,199.392,194.6585 M,0,15463,15506,199.392,194.6585,201.5226,214.5447
Sprite,Background,Centre,"sb\etc\l.png",0,0 C,0,15680,,136,176,200 M,0,15680,15723,298,326,299.1454,314.0548 F,2,15680,16140,1,0 S,2,15680,16140,1.5,0.3 P,0,15680,16140,A M,0,15723,15766,299.1454,314.0548,300.2909,302.1096 M,0,15766,15810,300.2909,302.1096,301.4363,290.1644 M,0,15810,15853,301.4363,290.1644,302.5817,278.2192 M,0,15853,15896,302.5817,278.2192,303.7272,266.274 M,0,15896,15940,303.7272,266.274,304.8726,254.3288
Sprite,Background,Centre,"sb\etc\l.png",0,0 C,0,233830,,136,176,200 M,0,233830,233873,472,409,471.7621,389.0358 F,2,233830,234290,1,0 S,2,233830,234290,1.5,0.3 P,0,233830,234290,A M,0,233873,233916,471.7621,389.0358,468.6252,369.3315 M,0,233916,233960,468.6252,369.3315,462.8358,350.2313 M,0,233960,234003,462.8358,350.2313,453.9779,332.3446 M,0,234003,234046,453.9779,332.3446,442.6184,315.9449 M,0,234046,234090,442.6184,315.9449,429.08,301.2918
Sprite,Background,Centre,"sb\etc\l.png",0,0 C,0,234177,,136,176,200 M,0,234177,234220,330,226,327.6632,245.863 F,2,234177,234550,1,0 S,2,234177,234550,1.5,0.3 P,0,234177,234550,A M,0,234220,234263,327.6632,245.863,325.3264,265.726 M,0,234263,234307,325.3264,265.726,322.9895,285.5891 M,0,234307,234350,322.9895,285.5891,320.6527,305.4521
Sprite,Background,Centre,"sb\etc\l.png",321,306 C,0,234437,,136,176,200 F,2,234437,234637,1,0 S,2,234437,234637,1.5,0.3 P,0,234437,234637,A
Sprite,Background,Centre,"sb\etc\l.png",321,306 C,0,234524,,136,176,200 F,2,234524,234724,1,0 S,2,234524,234724,1.5,0.3 P,0,234524,234724,A
Sprite,Background,Centre,"sb\etc\l.png",147,404 C,0,234697,,136,176,200 F,2,234697,234897,1,0 S,2,234697,234897,1.5,0.3 P,0,234697,234897,A
Sprite,Background,Centre,"sb\etc\l.png",147,404 C,0,234784,,136,176,200 F,2,234784,234984,1,0 S,2,234784,234984,1.5,0.3 P,0,234784,234984,A
Sprite,Background,Centre,"sb\etc\l.png",0,0 C,0,234871,,136,176,200 M,0,234871,234914,147,403,144.5193,383.1544 F,2,234871,235244,1,0 S,2,234871,235244,1.5,0.3 P,0,234871,235244,A M,0,234914,234957,144.5193,383.1544,142.0386,363.3089 M,0,234957,235001,142.0386,363.3089,139.5579,343.4633 M,0,235001,235044,139.5579,343.4633,137.0772,323.6178
Sprite,Background,Centre,"sb\etc\l.png",0,0 C,0,235217,,190,143,145 M,0,235217,235260,71,115,89.63155,122.2709 F,2,235217,235677,1,0 S,2,235217,235677,1.5,0.3 P,0,235217,235677,A M,0,235260,235303,89.63155,122.2709,108.2631,129.5417 M,0,235303,235347,108.2631,129.5417,127.469,126.957 M,0,235347,235390,127.469,126.957,146.819,121.8996 M,0,235390,235433,146.819,121.8996,166.169,116.8422 M,0,235433,235477,166.169,116.8422,185.519,111.7848
Sprite,Background,Centre,"sb\etc\l.png",0,0 C,0,235564,,190,143,145 M,0,235564,235607,305,77,303.0099,96.90074 F,2,235564,235937,1,0 S,2,235564,235937,1.5,0.3 P,0,235564,235937,A M,0,235607,235650,303.0099,96.90074,301.0198,116.8015 M,0,235650,235694,301.0198,116.8015,299.0298,136.7022 M,0,235694,235737,299.0298,136.7022,297.0397,156.603
Sprite,Background,Centre,"sb\etc\l.png",297,156 C,0,235824,,190,143,145 F,2,235824,236024,1,0 S,2,235824,236024,1.5,0.3 P,0,235824,236024,A
Sprite,Background,Centre,"sb\etc\l.png",297,156 C,0,235911,,190,143,145 F,2,235911,236111,1,0 S,2,235911,236111,1.5,0.3 P,0,235911,236111,A
Sprite,Background,Centre,"sb\etc\l.png",484,242 C,0,236084,,190,143,145 F,2,236084,236284,1,0 S,2,236084,236284,1.5,0.3 P,0,236084,236284,A
Sprite,Background,Centre,"sb\etc\l.png",484,242 C,0,236171,,190,143,145 F,2,236171,236371,1,0 S,2,236171,236371,1.5,0.3 P,0,236171,236371,A
Sprite,Background,Centre,"sb\etc\l.png",0,0 C,0,236258,,190,143,145 M,0,236258,236301,484,242,482.0099,222.0993 F,2,236258,236631,1,0 S,2,236258,236631,1.5,0.3 P,0,236258,236631,A M,0,236301,236344,482.0099,222.0993,480.0198,202.1985 M,0,236344,236388,480.0198,202.1985,478.0298,182.2978 M,0,236388,236431,478.0298,182.2978,476.0397,162.397
Sprite,Background,Centre,"sb\etc\l.png",0,0 C,0,236605,,206,203,140 M,0,236605,236648,326,261,306.0468,261.5689 F,2,236605,237065,1,0 S,2,236605,237065,1.5,0.3 P,0,236605,237065,A M,0,236648,236691,306.0468,261.5689,286.8438,256.4096 M,0,236691,236735,286.8438,256.4096,270.3057,245.2382 M,0,236735,236778,270.3057,245.2382,253.2806,234.9031 M,0,236778,236821,253.2806,234.9031,233.6417,231.8363 M,0,236821,236865,233.6417,231.8363,213.8341,234.3652
Sprite,Background,Centre,"sb\etc\l.png",0,0 C,0,236951,,206,203,140 M,0,236951,236994,211,390,221.8645,373.3358 F,2,236951,237324,1,0 S,2,236951,237324,1.5,0.3 P,0,236951,237324,A M,0,236994,237037,221.8645,373.3358,228.1216,354.4952 M,0,237037,237081,228.1216,354.4952,229.6931,334.6903 M,0,237081,237124,229.6931,334.6903,225.5228,315.2598
Sprite,Background,Centre,"sb\etc\l.png",225,315 C,0,237212,,206,203,140 F,2,237212,237412,1,0 S,2,237212,237412,1.5,0.3 P,0,237212,237412,A
Sprite,Background,Centre,"sb\etc\l.png",225,315 C,0,237298,,206,203,140 F,2,237298,237498,1,0 S,2,237298,237498,1.5,0.3 P,0,237298,237498,A
Sprite,Background,Centre,"sb\etc\l.png",71,238 C,0,237472,,206,203,140 F,2,237472,237672,1,0 S,2,237472,237672,1.5,0.3 P,0,237472,237672,A
Sprite,Background,Centre,"sb\etc\l.png",71,238 C,0,237558,,206,203,140 F,2,237558,237758,1,0 S,2,237558,237758,1.5,0.3 P,0,237558,237758,A
Sprite,Background,Centre,"sb\etc\l.png",0,0 C,0,237646,,206,203,140 M,0,237646,237689,70,237,66.13138,256.515 F,2,237646,238019,1,0 S,2,237646,238019,1.5,0.3 P,0,237646,238019,A M,0,237689,237732,66.13138,256.515,67.48483,276.3208 M,0,237732,237776,67.48483,276.3208,73.95168,295.0623 M,0,237776,237819,73.95168,295.0623,84,311
Sprite,Background,Centre,"sb\etc\l.png",0,0 C,0,237992,,126,169,128 M,0,237992,238035,231,416,250.9948,416.4579 F,2,237992,238452,1,0 S,2,237992,238452,1.5,0.3 P,0,237992,238452,A M,0,238035,238078,250.9948,416.4579,270.9895,416.9158 M,0,238078,238122,270.9895,416.9158,290.9843,417.3737 M,0,238122,238165,290.9843,417.3737,310.979,417.8316 M,0,238165,238208,310.979,417.8316,330.9738,418.2895 M,0,238208,238252,330.9738,418.2895,350.9685,418.7474
Sprite,Background,Centre,"sb\etc\l.png",0,0 C,0,238339,,126,169,128 M,0,238339,238382,503,331,483.7533,325.7825 F,2,238339,238712,1,0 S,2,238339,238712,1.5,0.3 P,0,238339,238712,A M,0,238382,238425,483.7533,325.7825,463.8892,324.3054 M,0,238425,238469,463.8892,324.3054,444.0682,326.3751 M,0,238469,238512,444.0682,326.3751,425.1482,332.6431
Sprite,Background,Centre,"sb\etc\l.png",425,332 C,0,238599,,126,169,128 F,2,238599,238799,1,0 S,2,238599,238799,1.5,0.3 P,0,238599,238799,A
Sprite,Background,Centre,"sb\etc\l.png",425,332 C,0,238686,,126,169,128 F,2,238686,238886,1,0 S,2,238686,238886,1.5,0.3 P,0,238686,238886,A
Sprite,Background,Centre,"sb\etc\l.png",245,250 C,0,238859,,126,169,128 F,2,238859,239059,1,0 S,2,238859,239059,1.5,0.3 P,0,238859,239059,A
Sprite,Background,Centre,"sb\etc\l.png",245,250 C,0,238946,,126,169,128 F,2,238946,239146,1,0 S,2,238946,239146,1.5,0.3 P,0,238946,239146,A
Sprite,Background,Centre,"sb\etc\l.png",0,0 C,0,239033,,126,169,128 M,0,239033,239076,245,249,264.1025,254.7326 F,2,239033,239406,1,0 S,2,239033,239406,1.5,0.3 P,0,239033,239406,A M,0,239076,239119,264.1025,254.7326,283.9257,256.709 M,0,239119,239163,283.9257,256.709,303.7475,254.8637 M,0,239163,239206,303.7475,254.8637,322,250
Sprite,Background,Centre,"sb\etc\l.png",0,0 C,0,239379,,136,176,200 M,0,239379,239422,432,82,449.6459,72.72029 F,2,239379,239839,1,0 S,2,239379,239839,1.5,0.3 P,0,239379,239839,A M,0,239422,239465,449.6459,72.72029,468.7473,67.09329 M,0,239465,239509,468.7473,67.09329,488.5691,65.05028 M,0,239509,239552,488.5691,65.05028,508.3488,67.47906 M,0,239552,239595,508.3488,67.47906,527.2474,73.73886 M,0,239595,239639,527.2474,73.73886,544.6488,83.41993
Sprite,Background,Centre,"sb\etc\l.png",0,0 C,0,239726,,136,176,200 M,0,239726,239769,494,225,484.8639,207.2087 F,2,239726,240099,1,0 S,2,239726,240099,1.5,0.3 P,0,239726,240099,A M,0,239769,239812,484.8639,207.2087,475.7278,189.4173 M,0,239812,239856,475.7278,189.4173,481.5049,170.781 M,0,239856,239899,481.5049,170.781,488.573,152.0716
Sprite,Background,Centre,"sb\etc\l.png",488,152 C,0,239986,,136,176,200 F,2,239986,240186,1,0 S,2,239986,240186,1.5,0.3 P,0,239986,240186,A
Sprite,Background,Centre,"sb\etc\l.png",488,152 C,0,240073,,136,176,200 F,2,240073,240273,1,0 S,2,240073,240273,1.5,0.3 P,0,240073,240273,A
Sprite,Background,Centre,"sb\etc\l.png",568,337 C,0,240246,,136,176,200 F,2,240246,240446,1,0 S,2,240246,240446,1.5,0.3 P,0,240246,240446,A
Sprite,Background,Centre,"sb\etc\l.png",568,337 C,0,240333,,136,176,200 F,2,240333,240533,1,0 S,2,240333,240533,1.5,0.3 P,0,240333,240533,A
Sprite,Background,Centre,"sb\etc\l.png",0,0 C,0,240420,,136,176,200 M,0,240420,240463,568,337,574.9637,355.7485 F,2,240420,240793,1,0 S,2,240420,240793,1.5,0.3 P,0,240420,240793,A M,0,240463,240506,574.9637,355.7485,579.7832,374.3695 M,0,240506,240550,579.7832,374.3695,570.6471,392.1609 M,0,240550,240593,570.6471,392.1609,562,409
Sprite,Background,Centre,"sb\etc\l.png",0,0 C,0,240767,,190,143,145 M,0,240767,240810,343,439,343.3972,419.0065 F,2,240767,241227,1,0 S,2,240767,241227,1.5,0.3 P,0,240767,241227,A M,0,240810,240853,343.3972,419.0065,344.575,399.0446 M,0,240853,240897,344.575,399.0446,346.5048,379.1415 M,0,240897,240940,346.5048,379.1415,349.296,359.3405 M,0,240940,240983,349.296,359.3405,352.8141,339.6554 M,0,240983,241027,352.8141,339.6554,357.2003,320.1454
Sprite,Background,Centre,"sb\etc\l.png",0,0 C,0,241113,,190,143,145 M,0,241113,241156,272,199,279.5911,217.5034 F,2,241113,241486,1,0 S,2,241113,241486,1.5,0.3 P,0,241113,241486,A M,0,241156,241199,279.5911,217.5034,287.1823,236.0067 M,0,241199,241243,287.1823,236.0067,279.8647,253.8833 M,0,241243,241286,279.8647,253.8833,270.7471,271.6841
Sprite,Background,Centre,"sb\etc\l.png",270,271 C,0,241373,,190,143,145 F,2,241373,241573,1,0 S,2,241373,241573,1.5,0.3 P,0,241373,241573,A
Sprite,Background,Centre,"sb\etc\l.png",270,271 C,0,241460,,190,143,145 F,2,241460,241660,1,0 S,2,241460,241660,1.5,0.3 P,0,241460,241660,A
Sprite,Background,Centre,"sb\etc\l.png",143,394 C,0,241634,,190,143,145 F,2,241634,241834,1,0 S,2,241634,241834,1.5,0.3 P,0,241634,241834,A
Sprite,Background,Centre,"sb\etc\l.png",143,394 C,0,241721,,190,143,145 F,2,241721,241921,1,0 S,2,241721,241921,1.5,0.3 P,0,241721,241921,A
Sprite,Background,Centre,"sb\etc\l.png",0,0 C,0,241808,,190,143,145 M,0,241808,241851,143,394,133.6422,376.3242 F,2,241808,242181,1,0 S,2,241808,242181,1.5,0.3 P,0,241808,242181,A M,0,241851,241894,133.6422,376.3242,125.5804,358.5852 M,0,241894,241938,125.5804,358.5852,133.1716,340.0818 M,0,241938,241981,133.1716,340.0818,140.7627,321.5785
Sprite,Background,Centre,"sb\etc\l.png",0,0 C,0,242154,,206,203,140 M,0,242154,242197,287,189,306.8862,191.1307 F,2,242154,242614,1,0 S,2,242154,242614,1.5,0.3 P,0,242154,242614,A M,0,242197,242240,306.8862,191.1307,326.7724,193.2613 M,0,242240,242284,326.7724,193.2613,346.6585,195.392 M,0,242284,242327,346.6585,195.392,366.5447,197.5226 M,0,242327,242370,366.5447,197.5226,386.4309,199.6533 M,0,242370,242414,386.4309,199.6533,406.3171,201.784
Sprite,Background,Centre,"sb\etc\l.png",0,0 C,0,242501,,206,203,140 M,0,242501,242544,531,278,511.085,276.5505 F,2,242501,242874,1,0 S,2,242501,242874,1.5,0.3 P,0,242501,242874,A M,0,242544,242587,511.085,276.5505,491.173,277.8801 M,0,242587,242631,491.173,277.8801,471.6266,281.8893 M,0,242631,242674,471.6266,281.8893,452.9207,288.8474
Sprite,Background,Centre,"sb\etc\l.png",452,289 C,0,242761,,206,203,140 F,2,242761,242961,1,0 S,2,242761,242961,1.5,0.3 P,0,242761,242961,A
Sprite,Background,Centre,"sb\etc\l.png",452,289 C,0,242847,,206,203,140 F,2,242847,243047,1,0 S,2,242847,243047,1.5,0.3 P,0,242847,243047,A
Sprite,Background,Centre,"sb\etc\l.png",305,402 C,0,243021,,206,203,140 F,2,243021,243221,1,0 S,2,243021,243221,1.5,0.3 P,0,243021,243221,A
Sprite,Background,Centre,"sb\etc\l.png",305,402 C,0,243107,,206,203,140 F,2,243107,243307,1,0 S,2,243107,243307,1.5,0.3 P,0,243107,243307,A
Sprite,Background,Centre,"sb\etc\l.png",0,0 C,0,243194,,206,203,140 M,0,243194,243237,305,401,323.7936,407.7565 F,2,243194,243567,1,0 S,2,243194,243567,1.5,0.3 P,0,243194,243567,A M,0,243237,243280,323.7936,407.7565,343.3322,411.834 M,0,243280,243324,343.3322,411.834,363.2401,413.1566 M,0,243324,243367,363.2401,413.1566,383,412
Sprite,Background,Centre,"sb\etc\l.png",0,0 C,0,243541,,126,169,128 M,0,243541,243584,252,271,232.0468,271.5689 F,2,243541,244001,1,0 S,2,243541,244001,1.5,0.3 P,0,243541,244001,A M,0,243584,243627,232.0468,271.5689,212.8438,266.4096 M,0,243627,243671,212.8438,266.4096,196.3057,255.2382 M,0,243671,243714,196.3057,255.2382,179.2806,244.9031 M,0,243714,243757,179.2806,244.9031,159.6417,241.8363 M,0,243757,243801,159.6417,241.8363,139.8341,244.3652
Sprite,Background,Centre,"sb\etc\l.png",0,0 C,0,243888,,126,169,128 M,0,243888,243931,239,117,242.0341,136.7664 F,2,243888,244261,1,0 S,2,243888,244261,1.5,0.3 P,0,243888,244261,A M,0,243931,243974,242.0341,136.7664,244.3474,156.6292 M,0,243974,244018,244.3474,156.6292,245.9846,176.5594 M,0,244018,244061,245.9846,176.5594,246.7985,196.5404
Sprite,Background,Centre,"sb\etc\l.png",0,0 C,0,244235,,126,169,128 M,0,244235,244278,376,311,372.5353,330.6938 F,2,244235,244608,1,0 S,2,244235,244608,1.5,0.3 P,0,244235,244608,A M,0,244278,244321,372.5353,330.6938,370.0282,350.5307 M,0,244321,244365,370.0282,350.5307,368.4195,370.4614 M,0,244365,244408,368.4195,370.4614,367.9084,390.4505
Sprite,Background,Centre,"sb\etc\l.png",383,411 C,0,244495,,126,169,128 F,2,244495,244695,1,0 S,2,244495,244695,1.5,0.3 P,0,244495,244695,A
Sprite,Background,Centre,"sb\etc\l.png",471,146 C,0,244755,,126,169,128 F,2,244755,244955,1,0 S,2,244755,244955,1.5,0.3 P,0,244755,244955,A
Sprite,Background,Centre,"sb\etc\l.png",0,0 C,0,244928,,136,176,200 M,0,244928,244971,341,188,321.0477,189.3181 F,2,244928,245388,1,0 S,2,244928,245388,1.5,0.3 P,0,244928,245388,A M,0,244971,245014,321.0477,189.3181,301.1891,191.6427 M,0,245014,245058,301.1891,191.6427,281.4684,194.937 M,0,245058,245101,281.4684,194.937,261.9623,199.3296 M,0,245101,245144,261.9623,199.3296,242.6891,204.6524 M,0,245144,245188,242.6891,204.6524,223.7305,211.0117
Sprite,Background,Centre,"sb\etc\l.png",0,0 C,0,245275,,136,176,200 M,0,245275,245318,106,126,125.6827,129.5428 F,2,245275,245648,1,0 S,2,245275,245648,1.5,0.3 P,0,245275,245648,A M,0,245318,245361,125.6827,129.5428,145.4464,132.5992 M,0,245361,245405,145.4464,132.5992,165.2785,135.1735 M,0,245405,245448,165.2785,135.1735,185.1729,137.2124
Sprite,Background,Centre,"sb\etc\l.png",185,138 C,0,245534,,136,176,200 F,2,245534,245734,1,0 S,2,245534,245734,1.5,0.3 P,0,245534,245734,A
Sprite,Background,Centre,"sb\etc\l.png",185,138 C,0,245621,,136,176,200 F,2,245621,245821,1,0 S,2,245621,245821,1.5,0.3 P,0,245621,245821,A
Sprite,Background,Centre,"sb\etc\l.png",296,269 C,0,245795,,136,176,200 F,2,245795,245995,1,0 S,2,245795,245995,1.5,0.3 P,0,245795,245995,A
Sprite,Background,Centre,"sb\etc\l.png",0,0 C,0,245968,,136,176,200 M,0,245968,246011,153,343,146.393,324.1228 F,2,245968,246341,1,0 S,2,245968,246341,1.5,0.3 P,0,245968,246341,A M,0,246011,246054,146.393,324.1228,139.786,305.2457 M,0,246054,246098,139.786,305.2457,145.0759,286.4599 M,0,246098,246141,145.0759,286.4599,151.9723,267.6865
Sprite,Background,Centre,"sb\etc\l.png",0,0 C,0,246315,,190,143,145 M,0,246315,246358,272,123,289.5275,113.5677 F,2,246315,246775,1,0 S,2,246315,246775,1.5,0.3 P,0,246315,246775,A M,0,246358,246401,289.5275,113.5677,308.7631,108.586 M,0,246401,246445,308.7631,108.586,328.6215,108.1902 M,0,246445,246488,328.6215,108.1902,347.9013,113.022 M,0,246488,246531,347.9013,113.022,365.5818,122.1048 M,0,246531,246575,365.5818,122.1048,380.2042,135.5783
Sprite,Background,Centre,"sb\etc\l.png",0,0 C,0,246662,,190,143,145 M,0,246662,246705,423,273,419.9589,292.7675 F,2,246662,247035,1,0 S,2,246662,247035,1.5,0.3 P,0,246662,247035,A M,0,246705,246748,419.9589,292.7675,416.9177,312.5349 M,0,246748,246792,416.9177,312.5349,413.8766,332.3023 M,0,246792,246835,413.8766,332.3023,410.8354,352.0697
Sprite,Background,Centre,"sb\etc\l.png",410,353 C,0,246922,,190,143,145 F,2,246922,247122,1,0 S,2,246922,247122,1.5,0.3 P,0,246922,247122,A
Sprite,Background,Centre,"sb\etc\l.png",410,353 C,0,247008,,190,143,145 F,2,247008,247208,1,0 S,2,247008,247208,1.5,0.3 P,0,247008,247208,A
Sprite,Background,Centre,"sb\etc\l.png",501,179 C,0,247182,,190,143,145 F,2,247182,247382,1,0 S,2,247182,247382,1.5,0.3 P,0,247182,247382,A
Sprite,Background,Centre,"sb\etc\l.png",0,0 C,0,247356,,190,143,145 M,0,247356,247399,333,260,313.2599,263.2135 F,2,247356,247729,1,0 S,2,247356,247729,1.5,0.3 P,0,247356,247729,A M,0,247399,247442,313.2599,263.2135,293.5197,266.427 M,0,247442,247486,293.5197,266.427,275.1624,259.9345 M,0,247486,247529,275.1624,259.9345,257.1052,251.3358
Sprite,Background,Centre,"sb\etc\l.png",0,0 C,0,247702,,206,203,140 M,0,247702,247745,100,99,119.9532,99.56892 F,2,247702,248162,1,0 S,2,247702,248162,1.5,0.3 P,0,247702,248162,A M,0,247745,247788,119.9532,99.56892,139.1562,94.40964 M,0,247788,247832,139.1562,94.40964,155.6943,83.23824 M,0,247832,247875,155.6943,83.23824,172.7194,72.9031 M,0,247875,247918,172.7194,72.9031,192.3583,69.83633 M,0,247918,247962,192.3583,69.83633,212.1659,72.36517
Sprite,Background,Centre,"sb\etc\l.png",0,0 C,0,248049,,206,203,140 M,0,248049,248092,323,122,342.5795,125.2867 F,2,248049,248422,1,0 S,2,248049,248422,1.5,0.3 P,0,248049,248422,A M,0,248092,248135,342.5795,125.2867,362.1911,122.5877 M,0,248135,248179,362.1911,122.5877,380.3268,114.5532 M,0,248179,248222,380.3268,114.5532,394.6645,100.8445
Sprite,Background,Centre,"sb\etc\l.png",394,100 C,0,248309,,206,203,140 F,2,248309,248509,1,0 S,2,248309,248509,1.5,0.3 P,0,248309,248509,A
Sprite,Background,Centre,"sb\etc\l.png",394,100 C,0,248396,,206,203,140 F,2,248396,248596,1,0 S,2,248396,248596,1.5,0.3 P,0,248396,248596,A
Sprite,Background,Centre,"sb\etc\l.png",546,174 C,0,248569,,206,203,140 F,2,248569,248769,1,0 S,2,248569,248769,1.5,0.3 P,0,248569,248769,A
Sprite,Background,Centre,"sb\etc\l.png",0,0 C,0,248743,,206,203,140 M,0,248743,248786,447,298,443.4338,278.3277 F,2,248743,249116,1,0 S,2,248743,249116,1.5,0.3 P,0,248743,249116,A M,0,248786,248829,443.4338,278.3277,441.1475,258.4683 M,0,248829,248873,441.1475,258.4683,440.1404,238.5043 M,0,248873,248916,440.1404,238.5043,440.5418,218.5177
Sprite,Background,Centre,"sb\etc\l.png",0,0 C,0,249089,,126,169,128 M,0,249089,249132,548,361,528.0469,360.4311 F,2,249089,249549,1,0 S,2,249089,249549,1.5,0.3 P,0,249089,249549,A M,0,249132,249175,528.0469,360.4311,508.8439,365.5904 M,0,249175,249219,508.8439,365.5904,492.3057,376.7617 M,0,249219,249262,492.3057,376.7617,475.2806,387.0969 M,0,249262,249305,475.2806,387.0969,455.6416,390.1637 M,0,249305,249349,455.6416,390.1637,435.8341,387.6348
Sprite,Background,Centre,"sb\etc\l.png",0,0 C,0,249436,,126,169,128 M,0,249436,249479,266,293,285.5795,289.7133 F,2,249436,249809,1,0 S,2,249436,249809,1.5,0.3 P,0,249436,249809,A M,0,249479,249522,285.5795,289.7133,305.1911,292.4123 M,0,249522,249566,305.1911,292.4123,323.3268,300.4468 M,0,249566,249609,323.3268,300.4468,337.6645,314.1555
Sprite,Background,Centre,"sb\etc\l.png",337,315 C,0,249696,,126,169,128 F,2,249696,249896,1,0 S,2,249696,249896,1.5,0.3 P,0,249696,249896,A
Sprite,Background,Centre,"sb\etc\l.png",337,315 C,0,249783,,126,169,128 F,2,249783,249983,1,0 S,2,249783,249983,1.5,0.3 P,0,249783,249983,A
Sprite,Background,Centre,"sb\etc\l.png",248,167 C,0,249956,,126,169,128 F,2,249956,250156,1,0 S,2,249956,250156,1.5,0.3 P,0,249956,250156,A
Sprite,Background,Centre,"sb\etc\l.png",0,0 C,0,250130,,126,169,128 M,0,250130,250173,178,286,182.7791,305.4117 F,2,250130,250503,1,0 S,2,250130,250503,1.5,0.3 P,0,250130,250503,A M,0,250173,250216,182.7791,305.4117,186.077,325.1257 M,0,250216,250260,186.077,325.1257,187.8755,345.0303 M,0,250260,250303,187.8755,345.0303,188.2996,365.0158
Sprite,Background,Centre,"sb\etc\l.png",0,0 C,0,250477,,136,176,200 M,0,250477,250520,67,427,67.55127,407.0082 F,2,250477,250937,1,0 S,2,250477,250937,1.5,0.3 P,0,250477,250937,A M,0,250520,250563,67.55127,407.0082,68.48842,387.031 M,0,250563,250607,68.48842,387.031,69.78414,367.0737 M,0,250607,250650,69.78414,367.0737,71.51797,347.1497 M,0,250650,250693,71.51797,347.1497,73.63624,327.2631 M,0,250693,250737,73.63624,327.2631,76.11121,307.4175
Sprite,Background,Centre,"sb\etc\l.png",0,0 C,0,250824,,136,176,200 M,0,250824,250867,168,158,187.4027,162.7914 F,2,250824,251197,1,0 S,2,250824,251197,1.5,0.3 P,0,250824,251197,A M,0,250867,250910,187.4027,162.7914,207.1622,165.7548 M,0,250910,250954,207.1622,165.7548,227.1074,166.9227 M,0,250954,250997,227.1074,166.9227,247.0811,166.1523
Sprite,Background,Centre,"sb\etc\l.png",248,167 C,0,251084,,136,176,200 F,2,251084,251284,1,0 S,2,251084,251284,1.5,0.3 P,0,251084,251284,A
Sprite,Background,Centre,"sb\etc\l.png",248,167 C,0,251170,,136,176,200 F,2,251170,251370,1,0 S,2,251170,251370,1.5,0.3 P,0,251170,251370,A
Sprite,Background,Centre,"sb\etc\l.png",434,149 C,0,251344,,136,176,200 F,2,251344,251544,1,0 S,2,251344,251544,1.5,0.3 P,0,251344,251544,A
Sprite,Background,Centre,"sb\etc\l.png",0,0 C,0,251517,,136,176,200 M,0,251517,251560,345,269,338.3703,287.8692 F,2,251517,251890,1,0 S,2,251517,251890,1.5,0.3 P,0,251517,251890,A M,0,251560,251603,338.3703,287.8692,332.3559,306.697 M,0,251603,251647,332.3559,306.697,341.4515,324.5092 M,0,251647,251690,341.4515,324.5092,350.547,342.3213
Sprite,Background,Centre,"sb\etc\l.png",0,0 C,0,251864,,190,143,145 M,0,251864,251907,526,411,533.2117,392.3784 F,2,251864,252324,1,0 S,2,251864,252324,1.5,0.3 P,0,251864,252324,A M,0,251907,251950,533.2117,392.3784,537.786,372.9522 M,0,251950,251994,537.786,372.9522,539.8398,353.0934 M,0,251994,252037,539.8398,353.0934,538.7526,333.1577 M,0,252037,252080,538.7526,333.1577,534.9303,313.5718 M,0,252080,252124,534.9303,313.5718,528.5856,294.6486
Sprite,Background,Centre,"sb\etc\l.png",0,0 C,0,252211,,190,143,145 M,0,252211,252254,452,182,432.0485,183.392 F,2,252211,252584,1,0 S,2,252211,252584,1.5,0.3 P,0,252211,252584,A M,0,252254,252297,432.0485,183.392,412.097,184.7839 M,0,252297,252341,412.097,184.7839,392.1455,186.1759 M,0,252341,252384,392.1455,186.1759,372.194,187.5679
Sprite,Background,Centre,"sb\etc\l.png",372,187 C,0,252471,,190,143,145 F,2,252471,252671,1,0 S,2,252471,252671,1.5,0.3 P,0,252471,252671,A
Sprite,Background,Centre,"sb\etc\l.png",372,187 C,0,252558,,190,143,145 F,2,252558,252758,1,0 S,2,252558,252758,1.5,0.3 P,0,252558,252758,A
Sprite,Background,Centre,"sb\etc\l.png",243,263 C,0,252731,,190,143,145 F,2,252731,252931,1,0 S,2,252731,252931,1.5,0.3 P,0,252731,252931,A
Sprite,Background,Centre,"sb\etc\l.png",0,0 C,0,252905,,190,143,145 M,0,252905,252948,153,159,171.2762,150.8772 F,2,252905,253278,1,0 S,2,252905,253278,1.5,0.3 P,0,252905,253278,A M,0,252948,252991,171.2762,150.8772,189.5794,143.1726 M,0,252991,253035,189.5794,143.1726,208.7471,148.8821 M,0,253035,253078,208.7471,148.8821,227.9148,154.5916
Sprite,Background,Centre,"sb\etc\l.png",0,0 C,0,253252,,206,203,140 M,0,253252,253295,368,286,387.9845,285.35 F,2,253252,253712,1,0 S,2,253252,253712,1.5,0.3 P,0,253252,253712,A M,0,253295,253338,387.9845,285.35,407.9008,283.5991 M,0,253338,253382,407.9008,283.5991,427.6987,280.809 M,0,253382,253425,427.6987,280.809,447.286,276.7974 M,0,253425,253468,447.286,276.7974,466.6479,271.8035 M,0,253468,253512,466.6479,271.8035,485.6507,265.5834
Sprite,Background,Centre,"sb\etc\l.png",0,0 C,0,253599,,206,203,140 M,0,253599,253642,576,386,557.3258,378.9049 F,2,253599,253972,1,0 S,2,253599,253972,1.5,0.3 P,0,253599,253972,A M,0,253642,253685,557.3258,378.9049,537.9548,374.0555 M,0,253685,253729,537.9548,374.0555,518.1534,371.5098 M,0,253729,253772,518.1534,371.5098,498.1845,371.5099
Sprite,Background,Centre,"sb\etc\l.png",498,371 C,0,253859,,206,203,140 F,2,253859,254059,1,0 S,2,253859,254059,1.5,0.3 P,0,253859,254059,A
Sprite,Background,Centre,"sb\etc\l.png",498,371 C,0,253946,,206,203,140 F,2,253946,254146,1,0 S,2,253946,254146,1.5,0.3 P,0,253946,254146,A
Sprite,Background,Centre,"sb\etc\l.png",370,422 C,0,254119,,206,203,140 F,2,254119,254319,1,0 S,2,254119,254319,1.5,0.3 P,0,254119,254319,A
Sprite,Background,Centre,"sb\etc\l.png",0,0 C,0,254293,,206,203,140 M,0,254293,254336,255,338,256.1345,318.0322 F,2,254293,254666,1,0 S,2,254293,254666,1.5,0.3 P,0,254293,254666,A M,0,254336,254379,256.1345,318.0322,257.2691,298.0644 M,0,254379,254423,257.2691,298.0644,258.4036,278.0966 M,0,254423,254466,258.4036,278.0966,259.5381,258.1288
Sprite,Background,Centre,"sb\etc\l.png",0,0 C,0,254639,,126,169,128 M,0,254639,254682,128,124,136.7953,141.9566 F,2,254639,255099,1,0 S,2,254639,255099,1.5,0.3 P,0,254639,255099,A M,0,254682,254725,136.7953,141.9566,144.5841,160.3702 M,0,254725,254769,144.5841,160.3702,151.3771,179.1736 M,0,254769,254812,151.3771,179.1736,157.006,198.3583 M,0,254812,254855,157.006,198.3583,161.6242,217.8114 M,0,254855,254899,161.6242,217.8114,165.0191,237.5151
Sprite,Background,Centre,"sb\etc\l.png",0,0 C,0,254986,,126,169,128 M,0,254986,255029,65,359,67.64405,339.1811 F,2,254986,255359,1,0 S,2,254986,255359,1.5,0.3 P,0,254986,255359,A M,0,255029,255072,67.64405,339.1811,71.41679,319.5477 M,0,255072,255116,71.41679,319.5477,76.304,300.1627 M,0,255116,255159,76.304,300.1627,82.38441,281.1171
Sprite,Background,Centre,"sb\etc\l.png",83,280 C,0,255246,,126,169,128 F,2,255246,255446,1,0 S,2,255246,255446,1.5,0.3 P,0,255246,255446,A
Sprite,Background,Centre,"sb\etc\l.png",83,280 C,0,255333,,126,169,128 F,2,255333,255533,1,0 S,2,255333,255533,1.5,0.3 P,0,255333,255533,A
Sprite,Background,Centre,"sb\etc\l.png",185,397 C,0,255506,,126,169,128 F,2,255506,255706,1,0 S,2,255506,255706,1.5,0.3 P,0,255506,255706,A
Sprite,Background,Centre,"sb\etc\l.png",0,0 C,0,255680,,126,169,128 M,0,255680,255723,353,354,372.649,357.7308 F,2,255680,256053,1,0 S,2,255680,256053,1.5,0.3 P,0,255680,256053,A M,0,255723,255766,372.649,357.7308,392.2979,361.4616 M,0,255766,255810,392.2979,361.4616,411.9468,365.1924 M,0,255810,255853,411.9468,365.1924,431.5958,368.9232
//Storyboard Layer 1 (Fail)
//Storyboard Layer 2 (Pass)
//Storyboard Layer 3 (Foreground)
//Storyboard Layer 4 (Overlay)
//Storyboard Sound Samples

[TimingPoints]
767,346.820809248555,4,2,2,60,1,0
10477,-100,4,2,2,40,0,0
11258,-100,4,2,2,35,0,0
11345,-100,4,2,2,40,0,0
11865,-100,4,2,2,50,0,0
12905,-166.666666666667,4,2,2,60,0,0
13252,-100,4,2,2,45,0,0
14293,-166.666666666667,4,2,2,60,0,0
14639,-100,4,2,2,40,0,0
15680,-166.666666666667,4,2,2,60,0,0
16027,-100,4,2,2,40,0,0
17414,-100,4,2,2,45,0,0
18801,-100,4,2,2,50,0,0
20188,-100,4,2,2,55,0,0
21576,-100,4,2,2,60,0,0
22963,-100,4,2,2,80,0,0
45160,-250,4,2,2,25,0,0
53483,-250,4,2,2,35,0,0
64582,-250,4,2,2,5,0,0
67356,-250,4,2,2,35,0,0
77761,-250,4,2,2,40,0,0
78454,-250,4,2,2,35,0,0
88859,-250,4,2,2,45,0,0
95795,-250,4,2,2,54,0,0
97876,-250,4,2,2,45,0,0
106200,-250,4,2,2,55,0,0
108975,-250,4,2,2,60,0,0
122847,-1000,4,2,2,40,0,0
123541,-500,4,2,3,50,0,0
124235,-333.333333333333,4,2,2,55,0,0
124928,-250,4,2,3,70,0,0
125622,-1000,4,2,2,65,0,0
126316,-500,4,2,3,70,0,0
127009,-333.333333333333,4,2,2,75,0,0
127703,-250,4,2,3,80,0,0
128397,-142.857142857143,4,2,2,60,0,0
129090,-142.857142857143,4,2,3,70,0,0
129177,-142.857142857143,4,2,2,60,0,0
130477,-142.857142857143,4,2,3,80,0,0
130564,-142.857142857143,4,2,2,60,0,0
132905,-142.857142857143,4,2,2,30,0,0
133252,-142.857142857143,4,2,2,50,0,0
133946,-33.3333333333333,4,2,1,80,0,1
134553,-1000,4,2,1,80,0,1
134986,-50,4,2,1,80,0,1
135333,-50,4,2,1,80,0,1
135680,-40,4,2,1,80,0,1
136720,-33.3333333333333,4,2,1,80,0,1
137414,-1000,4,2,1,80,0,1
137761,-50,4,2,1,80,0,1
138108,-50,4,2,1,80,0,1
138454,-40,4,2,1,80,0,1
139321,-66.6666666666667,4,2,1,80,0,1
139495,-33.3333333333333,4,2,1,80,0,1
140188,-1000,4,2,1,80,0,1
140535,-40,4,2,1,80,0,1
140882,-40,4,2,1,80,0,1
142269,-55.5555555555556,4,2,1,80,0,0
142963,-52.6315789473684,4,2,1,80,0,0
143310,-1000,4,2,1,80,0,0
143657,-50,4,2,1,80,0,0
144003,-1000,4,2,1,80,0,0
144350,-45.4545454545455,4,2,1,80,0,0
145044,-33.3333333333333,4,2,1,80,0,1
146084,-50,4,2,1,80,0,1
146431,-50,4,2,1,80,0,1
146778,-40,4,2,1,80,0,1
147819,-33.3333333333333,4,2,1,80,0,1
148425,-55.5555555555556,4,2,1,80,0,1
148512,-142.857142857143,4,2,2,80,0,1
148599,-55.5555555555556,4,2,1,80,0,1
149206,-45.4545454545455,4,2,1,80,0,1
149553,-40,4,2,1,80,0,1
149899,-45.4545454545455,4,2,1,80,0,1
150246,-1000,4,2,1,80,0,1
150593,-33.3333333333333,4,2,1,80,0,1
151634,-50,4,2,1,80,0,1
151980,-50,4,2,1,80,0,1
152327,-40,4,2,1,80,0,1
153368,-50,4,2,1,80,0,0
153714,-1000,4,2,2,80,0,0
153975,-50,4,2,1,80,0,0
154408,-40,4,2,1,80,0,0
154755,-333.333333333333,4,2,1,80,0,0
155102,-500,4,2,1,80,0,0
155449,-1000,4,2,1,80,0,0
156142,-33.3333333333333,4,2,1,80,0,1
156836,-1000,4,2,1,80,0,1
157183,-50,4,2,1,80,0,1
157530,-50,4,2,1,80,0,1
157876,-40,4,2,1,80,0,1
158743,-66.6666666666667,4,2,1,80,0,1
158917,-33.3333333333333,4,2,1,80,0,1
159610,-33.3333333333333,4,2,1,80,0,1
159957,-50,4,2,1,80,0,1
160304,-50,4,2,1,80,0,1
160651,-40,4,2,1,80,0,1
161518,-66.6666666666667,4,2,1,80,0,1
161691,-33.3333333333333,4,2,1,80,0,1
162385,-1000,4,2,2,80,0,1
162472,-1000,4,2,1,80,0,1
162732,-40,4,2,1,80,0,1
163079,-40,4,2,1,80,0,1
164293,-66.6666666666667,4,2,1,80,0,1
164466,-55.5555555555556,4,2,1,80,0,0
165160,-52.6315789473684,4,2,1,80,0,0
165506,-1000,4,2,1,80,0,0
165767,-66.6666666666667,4,2,1,80,0,0
167240,-33.3333333333333,4,2,1,80,0,1
168281,-50,4,2,1,80,0,1
168628,-50,4,2,1,80,0,1
168975,-40,4,2,1,80,0,1
170015,-33.3333333333333,4,2,1,80,0,1
171056,-50,4,2,1,80,0,1
171402,-50,4,2,1,80,0,1
171749,-40,4,2,1,80,0,1
172790,-33.3333333333333,4,2,1,80,0,1
173830,-50,4,2,1,80,0,1
174177,-50,4,2,1,80,0,1
174524,-40,4,2,1,80,0,1
175564,-40,4,2,1,80,0,0
175911,-1000,4,2,3,80,0,0
176258,-50,4,2,1,80,0,0
176605,-1000,4,2,3,80,0,0
176951,-50,4,2,1,80,0,0
177298,-1000,4,2,3,80,0,0
177645,-50,4,2,1,80,0,0
177992,-1000,4,2,3,80,0,0
178339,-66.6666666666667,4,2,1,80,0,1
178599,-66.6666666666667,4,2,1,80,0,0
182240,-333.333333333333,4,2,1,80,0,0
182501,-66.6666666666667,4,2,1,80,0,0
182847,-142.857142857143,4,2,1,80,0,0
183108,-66.6666666666667,4,2,1,80,0,0
183628,-333.333333333333,4,2,1,80,0,0
183888,-66.6666666666667,4,2,1,80,0,0
186662,-45.4545454545455,4,2,1,80,0,0
187009,-1000,4,2,3,80,0,0
187356,-45.4545454545455,4,2,1,80,0,0
187703,-1000,4,2,3,80,0,0
188050,-45.4545454545455,4,2,1,80,0,0
188397,-1000,4,2,3,80,0,0
188743,-45.4545454545455,4,2,1,80,0,0
189090,-45.4545454545455,4,2,1,80,0,0
189437,-66.6666666666667,4,2,1,80,0,1
189697,-66.6666666666667,4,2,1,80,0,0
193339,-333.333333333333,4,2,1,80,0,0
193599,-66.6666666666667,4,2,1,80,0,0
193946,-142.857142857143,4,2,1,80,0,0
194206,-66.6666666666667,4,2,1,80,0,0
194726,-333.333333333333,4,2,1,80,0,0
194986,-66.6666666666667,4,2,1,80,0,0
197761,-45.4545454545455,4,2,1,80,0,0
198108,-66.6666666666667,4,2,1,80,0,0
200535,-66.6666666666667,4,2,1,80,0,1
200795,-66.6666666666667,4,2,1,80,0,0
204437,-333.333333333333,4,2,1,80,0,0
204697,-66.6666666666667,4,2,1,80,0,0
205824,-333.333333333333,4,2,1,80,0,0
206084,-66.6666666666667,4,2,1,80,0,0
209899,-333.333333333333,4,2,1,80,0,0
210160,-66.6666666666667,4,2,1,80,0,0
210593,-333.333333333333,4,2,1,80,0,0
210853,-66.6666666666667,4,2,1,80,0,0
211287,-1000,4,2,2,80,0,0
211634,-66.6666666666667,4,2,1,80,0,1
211894,-66.6666666666667,4,2,1,80,0,0
213368,-66.6666666666667,4,2,1,80,0,0
213454,-66.6666666666667,4,2,1,80,0,0
213628,-66.6666666666667,4,2,1,80,0,0
213714,-66.6666666666667,4,2,1,80,0,0
213888,-66.6666666666667,4,2,1,80,0,0
213974,-66.6666666666667,4,2,1,80,0,0
214148,-66.6666666666667,4,2,1,80,0,0
214234,-66.6666666666667,4,2,1,80,0,0
215535,-333.333333333333,4,2,1,80,0,0
215795,-66.6666666666667,4,2,1,80,0,0
216923,-333.333333333333,4,2,1,80,0,0
217183,-66.6666666666667,4,2,1,80,0,0
233830,-100,4,2,2,60,0,0
244928,-100,4,2,2,50,0,0

[Colours]
Combo1 : 206,203,140
Combo2 : 126,169,128
Combo3 : 136,176,200
Combo4 : 190,143,145

[HitObjects]
72,346,767,6,0,P|60:264|48:226,1,120,4|0,0:1|0:0,0:0:0:0:
134,111,1113,2,0,P|127:153|122:199,1,80,8|0,0:0|3:0,0:0:0:0:
122,190,1373,1,4,0:3:0:0:
122,190,1460,1,2,3:0:0:0:
194,307,1634,1,2,3:0:0:0:
321,164,1807,2,0,B|281:150|281:150|232:168,1,80,8|0,0:0|3:0,0:0:0:0:
361,339,2154,6,0,P|418:354|476:318,1,120,4|0,3:0|0:0,0:0:0:0:
512,189,2501,2,0,L|498:98,1,80,8|0,0:0|3:0,0:0:0:0:
499,109,2761,1,4,3:0:0:0:
499,109,2847,1,2,3:0:0:0:
414,18,3021,1,2,3:0:0:0:
309,177,3194,2,0,B|344:189|344:189|384:175,1,80,8|0,0:0|3:0,0:0:0:0:
264,56,3541,6,0,B|200:64|217:14|149:30,1,120,4|0,3:0|0:0,0:0:0:0:
82,130,3888,2,0,P|143:120|161:98,1,80,8|0,0:0|3:0,0:0:0:0:
153,108,4148,1,4,3:0:0:0:
153,108,4235,1,2,3:0:0:0:
112,227,4408,1,2,3:0:0:0:
5,126,4582,2,0,P|11:86|11:38,1,80,8|0,0:0|3:0,0:0:0:0:
153,108,4928,6,0,B|217:116|200:66|268:82,1,120,4|0,3:0|0:0,0:0:0:0:
335,182,5275,2,0,P|274:172|256:150,1,80,8|0,0:0|3:0,0:0:0:0:
264,160,5535,1,4,3:0:0:0:
264,160,5622,1,2,3:0:0:0:
316,276,5795,1,2,3:0:0:0:
425,167,5969,2,0,P|416:121|415:80,1,80,8|0,0:0|3:0,0:0:0:0:
222,22,6316,6,0,P|217:107|212:148,1,120,4|0,3:0|0:0,0:0:0:0:
124,217,6662,2,0,P|84:209|43:209,1,80,8|0,0:0|3:0,0:0:0:0:
44,208,6923,1,4,3:0:0:0:
44,208,7009,1,2,3:0:0:0:
110,327,7183,1,2,3:0:0:0:
248,243,7356,2,0,B|285:230|285:230|332:254,1,80,8|0,0:0|0:0,0:0:0:0:
512,211,7703,6,0,P|467:224|402:168,1,120,4|0,3:0|0:0,0:0:0:0:
347,90,8050,2,0,L|353:4,1,80,8|0,0:0|3:0,0:0:0:0:
352,10,8310,1,4,3:0:0:0:
352,10,8397,1,2,3:0:0:0:
264,129,8570,1,2,3:0:0:0:
125,44,8743,2,0,B|163:24|163:24|208:42,1,80,8|0,0:0|0:0,0:0:0:0:
102,198,9090,6,0,L|22:193,1,80,4|0,3:0|0:0,0:0:0:0:
119,277,9437,1,8,0:0:0:0:
142,271,9523,1,0,3:0:0:0:
162,258,9610,1,0,3:0:0:0:
177,240,9697,1,4,3:0:0:0:
184,217,9784,2,0,P|183:175|178:136,1,80,2|2,3:0|3:0,0:0:0:0:
299,255,10131,2,0,P|294:294|293:334,1,80,8|0,0:0|0:0,0:0:0:0:
421,205,10477,6,0,P|420:165|415:125,1,80,4|0,3:0|0:0,0:0:0:0:
509,229,10824,1,8,0:0:0:0:
503,252,10910,1,0,3:0:0:0:
490,272,10997,1,0,3:0:0:0:
472,287,11084,1,4,3:0:0:0:
448,292,11171,2,0,P|424:291|403:286,1,40,2|8,3:0|0:1,0:0:0:0:
237,341,11345,2,0,P|256:336|276:336,1,40,2|0,3:0|0:0,0:0:0:0:
410,372,11518,1,8,0:0:0:0:
410,372,11865,6,0,P|402:321|334:221,1,160,4|8,3:0|0:0,0:0:0:0:
110,115,12472,1,4,3:0:0:0:
110,115,12558,2,0,L|118:199,1,80,2|2,3:0|3:0,0:0:0:0:
19,250,12905,6,0,L|27:168,1,71.9999978027344,8|0,0:0|0:0,0:0:0:0:
76,38,13252,6,0,P|127:46|227:114,1,160,4|8,3:0|0:0,0:0:0:0:
333,338,13859,1,4,3:0:0:0:
333,338,13945,2,0,L|249:330,1,80,2|2,3:0|3:0,0:0:0:0:
363,249,14293,6,0,L|445:241,1,71.9999978027344,8|0,0:0|0:0,0:0:0:0:
501,121,14639,6,0,B|414:112|440:175|348:163,1,160,4|8,3:0|0:0,0:0:0:0:
129,79,15246,1,4,3:0:0:0:
129,79,15333,2,0,L|138:163,1,80,2|2,3:0|3:0,0:0:0:0:
234,270,15680,6,0,L|241:197,1,71.9999978027344,8|0,0:0|0:0,0:0:0:0:
256,192,16027,12,12,22963,0:0:0:0:
471,100,45160,5,2,0:0:0:0:
471,100,45853,1,10,0:1:0:0:
471,100,46547,2,0,B|398:85|428:142|346:125,1,128,2|8,0:1|0:1,0:0:0:0:
221,61,47587,5,2,0:1:0:0:
237,204,47934,2,0,L|243:275,1,64,2|2,0:1|0:0,0:0:0:0:
81,366,48628,2,0,L|86:302,1,64,2|2,0:1|0:0,0:0:0:0:
105,163,49321,1,2,0:1:0:0:
6,246,49668,1,2,0:1:0:0:
160,328,50015,2,0,P|192:326|225:302,1,64,8|0,0:1|0:0,0:0:0:0:
367,180,50709,6,0,L|371:246,1,64,2|8,0:1|0:1,0:0:0:0:
475,345,51402,2,0,L|471:281,1,64,2|8,0:1|0:1,0:0:0:0:
453,131,52096,1,2,0:0:0:0:
354,241,52443,1,8,0:1:0:0:
292,63,52790,2,0,P|323:63|350:80,1,64,2|8,0:1|0:1,0:0:0:0:
432,280,53483,5,2,0:1:0:0:
311,323,53829,1,8,0:1:0:0:
185,296,54176,1,0,0:0:0:0:
108,193,54524,2,0,L|115:129,2,64,2|2|0,0:1|0:1|0:0,0:0:0:0:
5,276,55564,2,0,L|0:208,1,64,0|8,0:0|0:1,0:0:0:0:
193,56,56258,5,2,0:1:0:0:
193,56,56951,1,2,0:1:0:0:
193,56,57645,2,0,L|201:130,1,64,2|0,0:1|0:0,0:0:0:0:
147,226,58339,1,8,0:1:0:0:
266,168,58686,1,2,0:0:0:0:
391,292,59032,6,0,L|319:296,1,64,2|0,0:1|0:0,0:0:0:0:
408,183,59726,2,0,L|471:179,1,64,10|0,0:1|0:0,0:0:0:0:
356,88,60420,1,2,0:1:0:0:
268,185,60766,1,2,0:0:0:0:
148,102,61113,2,0,P|154:77|180:41,1,64,8|0,0:1|0:0,0:0:0:0:
348,5,61807,5,2,0:0:0:0:
451,96,62154,1,2,0:0:0:0:
313,155,62501,2,0,P|281:158|251:148,1,64,2|0,0:1|0:0,0:0:0:0:
114,91,63194,1,2,0:0:0:0:
11,182,63541,1,2,0:0:0:0:
149,241,63888,2,0,P|180:244|210:234,1,64,2|0,0:1|0:0,0:0:0:0:
256,192,64582,12,0,67009,0:0:0:0:
279,326,67356,5,6,0:0:0:0:
279,326,68050,1,2,0:0:0:0:
279,326,68743,2,0,P|267:271|201:243,1,128,2|8,0:0|0:1,0:0:0:0:
108,280,69784,1,0,0:0:0:0:
7,197,70131,5,4,0:3:0:0:
130,108,70477,2,0,L|123:173,1,64,2|2,0:0|0:0,0:0:0:0:
105,316,71171,1,2,0:0:0:0:
268,366,71518,2,0,L|261:303,2,64,4|2|8,0:3|0:0|0:1,0:0:0:0:
268,366,72905,5,4,0:3:0:0:
356,314,73252,1,8,0:1:0:0:
394,218,73599,1,2,0:1:0:0:
358,121,73946,1,2,0:1:0:0:
226,39,74292,2,0,L|223:109,2,64,2|0|2,0:1|0:0|0:1,0:0:0:0:
226,39,75680,5,4,3:0:0:0:
127,65,76027,1,2,0:0:0:0:
102,164,76373,1,2,0:0:0:0:
138,259,76720,1,2,0:0:0:0:
233,295,77067,1,4,3:0:0:0:
332,270,77414,1,8,0:1:0:0:
416,212,77761,5,8,1:3:0:0:
416,212,78021,5,8,1:3:0:0:
416,212,78281,5,8,1:3:0:0:
321,112,78454,5,4,3:0:0:0:
321,112,79148,1,2,0:0:0:0:
321,112,79842,2,0,B|248:97|278:154|196:137,1,128,2|8,0:0|0:1,0:0:0:0:
84,72,80882,1,8,0:1:0:0:
11,202,81229,6,0,P|3:237|11:271,1,64,4|2,0:3|0:0,0:0:0:0:
129,359,81923,2,0,P|133:327|126:296,1,64,2|2,0:0|0:0,0:0:0:0:
241,211,82616,1,4,3:0:0:0:
372,337,82963,2,0,L|300:328,1,64,2|8,0:0|0:1,0:0:0:0:
241,211,84003,6,0,L|245:142,1,64,4|2,3:0|0:0,0:0:0:0:
352,80,84697,2,0,L|355:143,1,64,2|2,0:1|0:0,0:0:0:0:
455,242,85391,2,0,P|462:204|456:174,2,64,4|2|2,3:0|0:0|0:0,0:0:0:0:
190,351,86778,5,4,3:0:0:0:
134,264,87125,1,2,0:0:0:0:
182,173,87472,1,2,0:0:0:0:
279,141,87818,1,2,0:0:0:0:
379,191,88165,1,4,3:0:0:0:
396,291,88512,1,2,0:0:0:0:
190,353,88859,2,0,L|123:347,1,64,2|2,0:0|0:0,0:0:0:0:
23,216,89553,6,0,P|22:191|40:151,1,64,4|2,3:0|0:0,0:0:0:0:
144,81,90246,2,0,P|157:109|157:141,1,64,8|2,1:3|0:0,0:0:0:0:
271,252,90940,2,0,L|254:115,1,128,4|8,3:0|1:3,0:0:0:0:
363,35,91980,1,2,0:0:0:0:
512,182,92327,6,0,L|449:176,1,64,2|2,0:1|0:0,0:0:0:0:
368,273,93021,2,0,L|431:267,1,64,8|2,1:3|0:0,0:0:0:0:
508,374,93714,2,0,L|445:368,2,64,4|2|8,3:0|0:0|1:3,0:0:0:0:
321,192,95102,6,0,P|296:190|256:199,1,64,4|2,3:0|0:0,0:0:0:0:
130,255,95795,2,0,P|105:257|65:248,1,64,2|2,1:0|0:1,0:0:0:0:
0,139,96489,1,2,0:1:0:0:
124,167,96836,1,2,0:1:0:0:
8,219,97183,1,8,1:3:0:0:
8,219,97876,5,4,3:0:0:0:
108,274,98223,1,2,0:0:0:0:
224,200,98570,2,0,P|232:175|234:135,1,64,8|2,1:3|0:0,0:0:0:0:
356,280,99264,2,0,P|347:255|346:215,1,64,4|2,3:0|0:0,0:0:0:0:
440,101,99957,1,4,1:0:0:0:
440,101,100651,6,0,P|415:100|375:118,1,64,4|2,3:0|0:0,0:0:0:0:
305,222,101344,2,0,P|333:235|365:235,1,64,8|2,1:3|0:0,0:0:0:0:
476,349,102038,2,0,L|339:332,1,128,2|8,0:0|1:3,0:0:0:0:
186,313,103079,1,2,0:0:0:0:
67,210,103425,6,0,P|63:176|68:146,1,64,4|2,3:0|0:0,0:0:0:0:
189,49,104119,2,0,P|193:80|189:112,1,64,8|2,1:3|0:0,0:0:0:0:
301,231,104813,2,0,P|297:197|302:167,2,64,4|2|8,3:0|0:0|1:3,0:0:0:0:
96,349,106200,6,0,P|98:324|89:284,1,64,2|2,0:1|0:1,0:0:0:0:
19,162,106893,2,0,P|44:164|84:155,1,64,2|0,1:0|0:0,0:0:0:0:
222,93,107587,1,2,0:1:0:0:
177,215,107934,1,2,0:1:0:0:
112,88,108281,1,2,1:1:0:0:
112,88,108975,5,2,0:1:0:0:
186,162,109321,1,2,0:1:0:0:
260,87,109668,1,2,1:1:0:0:
334,161,110015,1,2,0:1:0:0:
261,259,110362,2,0,P|261:295|272:326,1,64,2|0,0:1|0:0,0:0:0:0:
420,372,111056,2,0,P|429:341|428:309,1,64,8|0,1:3|0:0,0:0:0:0:
345,123,111749,5,4,0:0:0:0:
427,319,122847,6,0,P|432:307|431:294,1,24,4|0,3:0|0:0,0:0:0:0:
427,319,123541,6,0,P|423:293|408:271,1,48,8|0,0:0|0:0,0:0:0:0:
427,319,124235,6,0,P|403:288|368:271,1,71.9999978027344,4|0,3:0|0:0,0:0:0:0:
427,319,124928,6,0,P|378:298|324:302,1,96,8|0,0:0|0:0,0:0:0:0:
85,166,125622,6,0,P|97:171|110:170,1,24,4|0,3:0|0:0,0:0:0:0:
85,166,126316,6,0,P|110:162|132:147,1,48,8|0,0:0|0:0,0:0:0:0:
85,166,127010,6,0,P|115:142|132:107,1,71.9999978027344,4|0,3:0|0:0,0:0:0:0:
85,166,127703,6,0,P|105:117|101:63,1,96,8|0,0:0|0:0,0:0:0:0:
355,158,128397,6,0,L|424:143,1,55.9999982910157,4|0,0:3|0:0,0:0:0:0:
245,280,128743,2,0,L|176:265,1,55.9999982910157,4|0,0:3|0:0,0:0:0:0:
372,233,129090,6,0,L|432:218,1,55.9999982910157,8|0,0:0|0:0,0:0:0:0:
207,347,129436,2,0,L|138:332,1,55.9999982910157,4|0,0:3|0:0,0:0:0:0:
32,117,129784,6,0,P|24:89|22:49,1,55.9999982910157,4|0,0:3|0:0,0:0:0:0:
195,200,130131,2,0,P|192:227|184:254,1,55.9999982910157,4|0,0:3|0:0,0:0:0:0:
98,74,130477,6,0,P|90:46|88:6,1,55.9999982910157,8|0,0:0|0:0,0:0:0:0:
269,227,130824,2,0,P|266:254|258:281,1,55.9999982910157,4|0,0:3|0:0,0:0:0:0:
456,48,131171,5,4,3:0:0:0:
333,356,132905,6,0,L|336:370,20,13.9999995727539
429,294,133946,6,0,B|491:334|548:262|490:174|396:192|357:238|357:238|315:286|256:260,1,360.000013732911,4|0,0:1|0:0,0:0:0:0:
222,140,134293,2,0,P|272:85|257:187,1,240.000009155274,8|0,0:0|0:0,0:0:0:0:
107,217,134553,6,0,L|89:214,1,16,6|0,0:3|0:0,0:0:0:0:
0,340,134986,6,0,B|111:299|111:299|231:353,1,240,8|0,0:0|0:0,0:0:0:0:
469,361,135333,6,0,P|397:359|446:311,1,160,4|2,0:3|0:3,0:0:0:0:
503,213,135593,5,0,0:3:0:0:
503,213,135680,2,0,L|497:109,1,100,8|0,0:0|0:0,0:0:0:0:
307,71,135853,2,0,B|304:112|304:112|312:122|312:122|303:128|303:128|301:171,1,100,0|4,0:0|0:3,0:0:0:0:
147,289,136027,6,0,B|192:258|205:337|147:357|49:337|137:229|57:172|-7:213|-28:233|-13:268|11:279|26:273|52:238,1,300,2|0,0:0|0:0,0:0:0:0:
194,102,136373,2,0,B|149:71|136:150|194:170|292:150|204:42|284:-15|348:26|369:46|354:81|330:92|315:86|289:51,1,300,8|0,0:0|0:0,0:0:0:0:
177,14,136720,6,0,P|109:48|254:183,1,360.000013732911,6|0,0:3|0:0,0:0:0:0:
385,128,137067,2,0,P|440:127|368:212,1,240.000009155274,8|0,0:0|0:0,0:0:0:0:
192,108,137327,5,4,0:3:0:0:
192,108,137414,2,0,L|195:121,1,12,4|0,0:0|0:0,0:0:0:0:
160,281,137761,6,0,B|295:302|244:196|396:228,1,240,8|0,0:0|0:0,0:0:0:0:
485,136,138108,6,0,P|472:56|433:112,1,160,4|2,0:3|0:3,0:0:0:0:
263,158,138368,5,2,0:3:0:0:
263,158,138455,2,0,L|159:152,1,100,8|0,0:0|0:0,0:0:0:0:
279,32,138628,2,0,B|320:29|320:29|330:37|330:37|336:28|336:28|379:26,1,100,2|4,0:0|0:3,0:0:0:0:
500,224,138801,6,0,B|455:329|315:311|287:165|378:172|433:232|403:265,1,300
250,349,139148,5,8,0:0:0:0:
214,350,139234,1,0,0:0:0:0:
185,331,139321,2,0,P|176:299|177:270,1,60.0000022888184,4|0,0:3|0:0,0:0:0:0:
159,85,139495,6,0,B|252:-6|350:-17|414:86|355:158|248:135|247:94|295:70,1,360.000013732911,6|0,0:3|0:0,0:0:0:0:
99,181,139842,2,0,P|32:214|86:130,1,240.000009155274,8|0,0:0|0:0,0:0:0:0:
243,211,140102,5,4,0:3:0:0:
351,239,140188,2,0,L|360:236,1,8,2|0,0:1|0:0,0:0:0:0:
338,35,140449,5,4,3:0:0:0:
284,88,140535,2,0,B|103:126|154:-6|-2:46,1,300,8|0,0:0|0:0,0:0:0:0:
113,325,140882,5,4,3:0:0:0:
115,315,140968,1,0,3:0:0:0:
153,252,141055,1,0,3:0:0:0:
151,244,141142,1,0,3:0:0:0:
83,216,141229,6,0,L|69:112,1,100,10|0,0:0|0:0,0:0:0:0:
225,269,141402,2,0,B|215:308|215:308|221:320|221:320|211:324|211:324|201:366,1,100,2|4,0:0|3:0,0:0:0:0:
443,160,141576,6,0,B|468:168|499:126|464:56|424:65|378:85|342:120|341:182|378:222|418:238|449:242,1,300,2|0,0:0|0:0,0:0:0:0:
379,337,141923,2,0,B|371:362|413:393|472:370|474:318|454:272|413:238|352:233|322:273|301:312|291:344,1,300,8|0,0:0|0:0,0:0:0:0:
83,363,142269,6,0,P|101:297|96:219,1,143.999995605469,4|2,3:0|0:1,0:0:0:0:
0,93,142530,1,0,0:0:0:0:
24,101,142616,2,0,L|99:85,1,71.9999978027344,4|0,0:3|0:0,0:0:0:0:
321,27,142790,5,0,1:0:0:0:
285,19,142876,1,0,1:0:0:0:
250,11,142963,2,0,B|189:88|231:171|312:175|340:139,1,227.999993911743,4|0,3:0|0:0,0:0:0:0:
502,75,143310,6,0,L|503:88,1,12,10|0,0:0|0:0,0:0:0:0:
504,293,143657,6,0,B|370:313|421:207|282:237,1,240,4|0,3:0|0:0,0:0:0:0:
75,343,144003,6,0,L|89:340,1,12,10|0,0:0|0:0,0:0:0:0:
191,206,144350,6,0,B|237:160|192:90|139:137|87:128|70:51|141:-11|186:42|138:98,1,264.000008056641,4|0,3:0|0:0,0:0:0:0:
48,132,144697,5,10,0:0:0:0:
284,223,144871,1,4,3:0:0:0:
18,364,145044,6,0,B|-1:284|91:206|239:242|253:343|142:380|94:352|123:279,1,360.000013732911,4|0,1:0|0:0,0:0:0:0:
284,223,145391,2,0,P|332:310|265:236,1,240.000009155274,8|0,0:0|0:0,0:0:0:0:
251,143,145651,5,0,3:0:0:0:
315,103,145738,5,0,3:0:0:0:
326,107,145825,1,0,3:0:0:0:
393,77,145911,1,0,3:0:0:0:
407,71,145997,1,0,3:0:0:0:
450,137,146084,2,0,B|491:248|491:248|437:368,1,240,10|0,0:0|0:0,0:0:0:0:
254,284,146431,6,0,L|247:121,1,160,4|0,3:0|0:0,0:0:0:0:
0,172,146691,5,0,0:0:0:0:
0,172,146778,2,0,L|104:178,1,100,10|0,0:0|0:0,0:0:0:0:
188,358,146951,2,0,B|147:361|147:361|137:353|137:353|131:362|131:362|88:364,1,100,2|4,0:0|3:0,0:0:0:0:
345,289,147125,6,0,B|406:309|423:250|513:224|550:309|516:359|471:388|437:363|423:315,1,300,6|0,3:0|0:0,0:0:0:0:
360,180,147472,2,0,B|314:117|401:105|427:15|342:-21|292:12|263:57|288:91|322:100,1,300,10|0,0:0|0:0,0:0:0:0:
210,225,147819,6,0,B|117:242|81:122|81:122|167:139|128:195|95:172|54:155|22:214,1,360.000013732911,4|0,1:0|0:0,0:0:0:0:
177,297,148165,2,0,P|279:266|244:154,1,240.000009155274,8|0,0:0|0:0,0:0:0:0:
107,57,148425,5,4,3:0:0:0:
94,46,148512,2,0,L|65:45,2,27.9999991455078,0|0|0,1:0|3:0|3:0,0:0:0:0:
254,11,148772,5,4,0:3:0:0:
312,67,148859,2,0,B|423:88|389:-13|517:24,1,215.999993408203,8|0,0:0|0:0,0:0:0:0:
444,189,149206,6,0,P|381:223|383:144,1,176.000005371094,4|0,3:0|0:0,0:0:0:0:
490,321,149466,5,0,0:0:0:0:
490,321,149553,2,0,L|386:327,1,100,10|0,0:0|0:0,0:0:0:0:
196,242,149726,2,0,B|231:244|231:244|238:239|238:239|242:245|242:245|296:248,1,100,2|4,0:0|3:0,0:0:0:0:
186,99,149899,6,0,B|123:169|59:110|-2:61|-23:129|5:176|41:185|66:146,1,264.000008056641,6|0,3:0|0:0,0:0:0:0:
120,19,150246,6,0,L|121:32,1,12,8|0,0:0|0:0,0:0:0:0:
284,183,150593,6,0,B|342:211|400:174|400:174|488:111|556:190|537:247|485:258|452:244|448:223|458:199|495:196,1,360.000013732911,4|0,1:0|0:0,0:0:0:0:
373,68,150940,2,0,P|328:24|361:102,1,240.000009155274,8|0,0:0|0:0,0:0:0:0:
340,293,151200,5,0,3:0:0:0:
273,333,151287,5,0,3:0:0:0:
267,325,151374,1,0,3:0:0:0:
194,292,151460,1,0,3:0:0:0:
186,302,151546,1,0,3:0:0:0:
119,275,151634,2,0,B|59:269|8:316|8:316|39:247|3:203,1,240,8|0,0:0|0:0,0:0:0:0:
135,60,151980,6,0,P|193:28|185:99,1,160,4|0,3:0|0:0,0:0:0:0:
264,203,152240,5,0,0:0:0:0:
264,203,152327,2,0,L|368:197,1,100,10|0,0:0|0:0,0:0:0:0:
452,43,152500,2,0,B|411:40|411:40|401:48|401:48|395:39|395:39|352:37,1,100,2|4,0:0|3:0,0:0:0:0:
138,164,152674,6,0,B|88:190|18:191|-32:117|28:52|86:67|98:125|77:180|51:218,1,300,2|0,3:0|0:0,0:0:0:0:
0,342,153021,2,0,B|50:368|120:369|170:295|110:230|52:245|40:303|61:358|87:396,1,300,8|0,0:0|0:0,0:0:0:0:
276,270,153368,6,0,B|408:238|349:343|501:309,1,240,4|0,0:3|0:0,0:0:0:0:
453,170,153714,6,0,L|455:180,1,8,2|0,1:0|0:0,0:0:0:0:
296,61,153975,5,4,3:0:0:0:
282,32,154061,2,0,P|246:14|204:16,1,80,4|0,3:0|0:0,0:0:0:0:
255,171,154235,2,0,P|252:130|229:95,1,80,0|0,3:0|0:0,0:0:0:0:
9,175,154408,6,0,B|82:237|243:217|221:110|75:85|128:204,1,300,10|0,0:0|0:0,0:0:0:0:
191,348,154755,6,0,L|229:345,1,35.9999989013672,4|0,0:3|0:0,0:0:0:0:
506,277,155102,6,0,L|479:273,1,24,4|0,0:3|0:0,0:0:0:0:
221,237,155449,6,0,L|229:236,3,8,6|0|0|0,0:3|3:0|3:0|3:0,0:0:0:0:
316,100,156142,6,0,B|286:84|282:35|354:-22|442:36|428:133|378:169|378:169|332:212|351:270,1,360.000013732911,4|0,1:0|0:0,0:0:0:0:
480,309,156489,2,0,P|522:249|423:280,1,240.000009155274,8|0,0:0|0:0,0:0:0:0:
257,357,156749,5,4,0:3:0:0:
257,357,156836,2,0,L|254:346,1,12,2|0,3:0|0:0,0:0:0:0:
196,101,157183,6,0,B|186:20|63:-14|28:43|60:94|104:94|114:58,1,240,10|0,0:0|0:0,0:0:0:0:
89,249,157530,6,0,P|53:281|63:210,1,160,4|0,0:3|0:0,0:0:0:0:
256,230,157790,5,0,0:0:0:0:
256,230,157877,2,0,L|250:334,1,100,10|0,0:0|0:0,0:0:0:0:
487,248,158050,2,0,B|484:207|484:207|492:197|492:197|483:191|483:191|481:148,1,100,2|4,0:0|0:3,0:0:0:0:
325,51,158223,6,0,B|370:82|383:3|325:-17|227:3|315:111|235:168|171:127|150:107|165:72|189:61|204:67|230:102,1,300,2|0,0:0|0:0,0:0:0:0:
353,178,158570,5,8,0:0:0:0:
384,195,158656,1,0,0:0:0:0:
399,226,158743,2,0,P|390:258|374:282,1,60.0000022888184,4|0,0:3|0:0,0:0:0:0:
90,315,158917,6,0,B|26:202|157:185|122:61|35:62|-27:104|-5:181|63:182,1,360.000013732911,4|0,1:0|0:0,0:0:0:0:
183,258,159264,2,0,P|271:285|239:168,1,240.000009155274,8|0,0:0|0:0,0:0:0:0:
426,66,159524,5,4,0:3:0:0:
455,51,159610,2,0,B|485:42|485:42|521:54,6,60.0000022888184,0|0|0|0|0|0|0,3:0|3:0|3:0|3:0|3:0|3:0|3:0,3:0:0:0:
265,173,159957,6,0,B|129:190|178:83|42:114,1,240,8|0,0:0|0:0,0:0:0:0:
80,304,160304,6,0,P|154:334|223:295,1,160,4|0,3:0|0:0,0:0:0:0:
355,192,160564,5,0,0:0:0:0:
355,192,160651,2,0,L|361:296,1,100,10|0,0:0|0:0,0:0:0:0:
493,130,160824,2,0,B|496:89|496:89|488:79|488:79|497:73|497:73|499:30,1,100,2|4,0:0|0:3,0:0:0:0:
241,77,160998,6,0,B|165:81|123:162|123:162|133:72|61:27,1,300,2|0,0:0|0:0,0:0:0:0:
2,196,161345,5,8,0:0:0:0:
1,232,161431,1,0,3:0:0:0:
20,261,161518,2,0,P|52:270|81:269,1,60.0000022888184,0|0,3:0|3:0,0:0:0:0:
369,326,161691,6,0,B|383:282|479:315|415:452|320:418|306:286|237:272|178:293|150:359,1,360.000013732911,4|0,0:1|0:0,0:0:0:0:
271,232,162038,2,0,P|272:139|194:207,1,240.000009155274,8|0,0:0|0:0,0:0:0:0:
396,219,162298,5,4,3:0:0:0:
460,270,162385,2,0,L|458:258,1,12,8|0,1:0|0:0,0:0:0:0:
506,66,162732,6,0,B|467:131|379:109|379:109|362:28|258:19,1,300,8|0,0:0|0:0,0:0:0:0:
93,17,163079,5,4,3:3:0:0:
92,30,163165,1,0,3:0:0:0:
33,74,163252,1,0,3:0:0:0:
34,84,163339,1,0,3:0:0:0:
60,152,163426,6,0,L|74:256,1,100,8|0,0:0|0:0,0:0:0:0:
153,354,163599,2,0,B|163:315|163:315|157:303|157:303|167:299|167:299|177:257,1,100,0|4,0:0|3:0,0:0:0:0:
254,82,163772,6,0,B|340:44|339:170|456:171|487:50|453:18|366:26|379:110,1,300,0|0,3:0|0:0,0:0:0:0:
273,217,164119,5,8,0:0:0:0:
256,248,164205,1,0,3:0:0:0:
261,282,164293,2,0,P|286:303|313:314,1,60.0000022888184,0|0,3:0|3:0,3:0:0:0:
498,254,164466,6,0,P|432:236|354:241,1,143.999995605469,4|0,3:0|0:0,0:0:0:0:
188,354,164727,1,0,0:0:0:0:
128,317,164813,2,0,L|144:242,1,71.9999978027344,8|0,0:0|0:0,0:0:0:0:
60,58,164987,5,0,3:0:0:0:
68,94,165073,1,0,3:0:0:0:
88,118,165160,2,0,B|158:147|219:60|283:93|251:194|187:126,1,227.999993911743,4|0,3:0|0:0,0:0:0:0:
328,15,165507,6,0,L|329:25,1,8,10|0,0:0|0:0,0:0:0:0:
305,171,165767,5,0,3:0:0:0:
291,203,165853,1,0,3:0:0:0:
262,224,165940,1,0,3:0:0:0:
227,226,166027,2,0,P|185:218|159:204,1,60.0000022888184,4|0,3:0|3:0,0:0:0:0:
1,292,166200,5,10,0:0:0:0:
33,266,166286,1,4,3:0:0:0:
74,259,166373,1,0,3:0:0:0:
112,272,166460,1,4,3:0:0:0:
142,302,166547,2,0,P|150:328|154:364,1,60.0000022888184,6|4,3:0|3:0,0:0:0:0:
209,148,166720,6,0,P|212:118|221:89,1,60.0000022888184,6|0,3:0|3:0,0:0:0:0:
383,22,166894,1,8,0:0:0:0:
430,79,166980,2,0,P|438:107|442:137,1,60.0000022888184,6|0,3:0|3:0,0:0:0:0:
357,358,167154,5,0,3:0:0:0:
357,358,167240,2,0,B|239:390|163:266|190:193|281:169|338:258|295:309|268:320,1,360.000013732911,4|0,1:0|0:0,0:0:0:0:
114,358,167587,2,0,P|22:334|42:201,1,240.000009155274,8|0,0:0|0:0,0:0:0:0:
173,88,167847,5,0,3:0:0:0:
244,48,167934,5,0,3:0:0:0:
248,64,168021,1,0,3:0:0:0:
313,106,168108,1,0,3:0:0:0:
319,92,168194,1,0,3:0:0:0:
382,140,168281,2,0,B|412:179|391:230|391:230|438:194|495:207|520:272,1,240,8|0,0:0|0:0,0:0:0:0:
453,0,168628,6,0,L|290:12,1,160,4|0,3:0|3:0,0:0:0:0:
40,94,168888,5,0,3:0:0:0:
40,94,168975,2,0,L|46:198,1,100,10|0,0:0|0:0,0:0:0:0:
134,361,169148,2,0,B|137:320|137:320|129:310|129:310|138:304|138:304|140:261,1,100,2|4,3:0|3:0,0:0:0:0:
303,157,169321,6,0,B|381:125|451:124|561:195|435:249|391:159,1,300,2|0,3:0|0:0,0:0:0:0:
271,70,169668,2,0,B|193:102|123:103|13:32|139:-22|183:68,1,300,8|0,0:0|0:0,0:0:0:0:
56,197,170015,6,0,B|39:290|159:326|159:326|142:240|86:279|109:312|126:353|67:385,1,360.000013732911,4|0,1:0|0:0,0:0:0:0:
172,210,170362,2,0,P|243:161|214:268,1,240.000009155274,8|0,0:0|0:0,0:0:0:0:
366,366,170622,5,0,3:0:0:0:
433,333,170709,5,0,3:0:0:0:
428,325,170795,1,0,3:0:0:0:
371,273,170882,1,0,3:0:0:0:
378,268,170968,1,0,3:0:0:0:
410,198,171056,2,0,B|433:155|396:91|396:91|440:125|516:94|504:41,1,240,10|0,0:0|0:0,0:0:0:0:
292,132,171402,6,0,B|201:110|235:185|132:160,1,160,4|0,3:0|0:0,0:0:0:0:
0,336,171662,5,0,0:0:0:0:
0,336,171749,2,0,L|104:330,1,100,10|0,0:0|0:0,0:0:0:0:
280,248,171922,2,0,B|239:245|239:245|229:253|229:253|223:244|223:244|180:242,1,100,2|4,3:0|3:0,0:0:0:0:
34,83,172096,6,0,B|-19:109|-51:71|-52:8|42:-19|65:49|107:135|180:72,1,300,2|0,3:0|0:0,0:0:0:0:
364,12,172443,2,0,B|311:70|397:112|466:136|438:230|374:230|337:198|363:144,1,300,8|0,0:0|0:0,0:0:0:0:
116,199,172790,6,0,B|260:204|251:356|251:356|305:317|278:243,1,360.000013732911,4|0,1:0|0:0,0:0:0:0:
123,381,173136,2,0,P|79:296|172:318,1,240.000009155274,8|0,0:0|0:0,0:0:0:0:
380,359,173397,5,0,3:0:0:0:
457,356,173483,5,0,3:0:0:0:
468,351,173570,1,0,3:0:0:0:
512,293,173657,1,0,3:0:0:0:
503,287,173743,1,0,3:0:0:0:
445,235,173830,2,0,B|396:192|419:119|419:119|348:100|301:155,1,240,10|0,0:0|0:0,0:0:0:0:
30,248,174177,6,0,P|15:175|73:96,1,160,4|0,3:0|3:0,0:0:0:0:
196,19,174437,5,0,3:0:0:0:
196,19,174524,2,0,L|202:123,1,100,10|0,0:0|0:0,0:0:0:0:
329,336,174697,2,0,B|332:295|332:295|324:285|324:285|333:279|333:279|335:236,1,100,2|4,3:0|3:0,0:0:0:0:
475,79,174871,6,0,B|520:110|533:31|475:11|377:31|465:139|385:196|321:155|300:135|315:100|339:89|354:95|380:130,1,300,2|0,3:0|0:0,0:0:0:0:
175,282,175217,2,0,B|220:251|233:330|175:350|77:330|165:222|85:165|21:206|0:226|15:261|39:272|54:266|80:231,1,300,8|0,0:0|0:0,0:0:0:0:
200,163,175564,6,0,B|274:58|209:-42|106:-6|118:94|175:92|220:54,1,300,6|0,3:0|0:0,0:0:0:0:
386,17,175911,6,0,L|398:23,1,12,8|0,0:0|0:0,0:0:0:0:
455,216,176258,6,0,B|349:294|244:197|343:119|381:182,1,240,2|0,3:0|0:0,0:0:0:0:
467,365,176605,6,0,L|455:363,1,12,8|0,0:0|0:0,0:0:0:0:
226,268,176951,6,0,B|137:243|163:318|59:305|13:286|-10:242,1,240,2|0,3:0|0:0,0:0:0:0:
86,134,177298,6,0,L|88:122,1,12,8|0,0:0|0:0,0:0:0:0:
226,38,177645,6,0,B|176:167|276:129|226:270,1,240,2|0,3:0|0:0,0:0:0:0:
401,368,177992,6,0,L|398:355,1,12,8|0,0:0|0:0,0:0:0:0:
327,92,178339,6,0,P|359:45|380:124,1,180.000006866455,4|0,1:0|0:0,0:0:0:0:
210,307,178686,5,4,1:0:0:0:
241,338,178772,1,0,3:0:0:0:
272,307,178859,1,0,3:0:0:0:
241,277,178946,1,4,3:0:0:0:
210,307,179032,6,0,L|129:312,1,60.0000022888184,2|0,3:0|3:0,0:0:0:0:
29,229,179206,1,0,3:0:0:0:
90,184,179293,6,0,L|171:189,1,60.0000022888184,6|8,3:0|0:0,0:0:0:0:
271,106,179467,1,0,3:0:0:0:
193,68,179553,6,0,P|182:94|196:75,1,60.0000022888184,2|0,3:0|3:0,0:0:0:0:
315,244,179726,6,0,P|311:208|301:171,1,60.0000022888184,4|0,3:0|3:0,0:0:0:0:
411,338,179899,2,0,P|413:308|420:278,1,60.0000022888184,2|0,3:0|3:0,0:0:0:0:
480,124,180073,5,8,0:0:0:0:
471,95,180160,1,0,3:0:0:0:
408,55,180246,5,0,3:0:0:0:
399,84,180333,1,4,3:0:0:0:
333,129,180420,6,0,P|293:131|262:119,1,60.0000022888184,6|0,3:0|3:0,0:0:0:0:
91,63,180593,1,0,3:0:0:0:
135,132,180680,6,0,P|137:172|125:203,1,60.0000022888184,6|8,3:0|0:0,0:0:0:0:
16,313,180853,1,0,3:0:0:0:
79,361,180940,6,0,P|90:335|76:354,1,60.0000022888184,2|0,3:0|3:0,0:0:0:0:
230,227,181113,6,0,B|329:245|295:172|406:190,1,180.000006866455,4|0,1:0|3:0,0:0:0:0:
383,344,181460,6,0,P|372:297|371:272,1,60.0000022888184,8|0,0:0|3:0,0:0:0:0:
264,68,181634,1,0,3:0:0:0:
264,92,181720,2,0,P|260:121|252:150,1,60.0000022888184,4|0,3:0|3:0,0:0:0:0:
105,303,181894,1,4,3:0:0:0:
105,279,181980,2,0,P|101:250|93:221,1,60.0000022888184,4|0,3:0|3:0,0:0:0:0:
27,78,182154,5,8,0:0:0:0:
90,111,182240,2,0,L|123:102,1,23.9999992675781,6|0,3:0|3:0,0:0:0:0:
314,32,182501,6,0,B|410:16|353:97|457:73|448:21|385:-8,1,180.000006866455,4|0,3:0|3:0,0:0:0:0:
323,124,182847,6,0,P|330:159|342:191,1,55.9999982910157,8|0,0:0|0:0,0:0:0:0:
426,355,183108,6,0,P|431:325|429:283,1,60.0000022888184,8|0,0:0|0:0,0:0:0:0:
226,197,183281,5,8,0:0:0:0:
218,221,183368,2,0,P|217:251|223:281,1,60.0000022888184,4|0,0:3|0:0,0:0:0:0:
94,378,183541,5,8,0:0:0:0:
31,331,183628,2,0,L|32:305,1,23.9999992675781,4|0,3:0|0:0,0:0:0:0:
72,190,183888,6,0,B|56:142|78:95|78:95|54:70|5:83|40:127,1,180.000006866455,4|0,1:0|3:0,0:0:0:0:
175,151,184235,5,8,0:0:0:0:
233,153,184321,1,0,3:0:0:0:
279,116,184408,1,0,3:0:0:0:
289,58,184495,1,4,3:0:0:0:
273,0,184581,6,0,P|304:7|352:8,1,60.0000022888184,2|0,3:0|3:0,0:0:0:0:
512,0,184755,1,0,3:0:0:0:
512,80,184842,6,0,P|482:82|452:88,1,60.0000022888184,6|8,3:0|0:0,0:0:0:0:
283,133,185016,1,0,3:0:0:0:
335,191,185102,6,0,P|342:213|313:208,1,60.0000022888184,2|0,3:0|3:0,0:0:0:0:
166,168,185275,6,0,P|130:172|93:182,1,60.0000022888184,4|0,3:0|3:0,0:0:0:0:
0,302,185449,2,0,P|36:306|73:316,1,60.0000022888184,0|0,3:0|3:0,0:0:0:0:
256,359,185622,5,8,0:0:0:0:
285,350,185709,1,0,3:0:0:0:
325,287,185795,5,0,3:0:0:0:
296,278,185882,1,4,3:0:0:0:
251,212,185969,6,0,P|249:172|261:141,1,60.0000022888184,6|0,3:0|3:0,0:0:0:0:
124,36,186142,1,0,3:0:0:0:
168,105,186229,6,0,P|170:145|158:176,1,60.0000022888184,6|8,3:0|0:0,0:0:0:0:
57,245,186402,1,0,0:0:0:0:
106,314,186489,6,0,P|117:288|103:307,1,60.0000022888184,2|0,3:0|0:0,0:0:0:0:
261,140,186662,6,0,B|302:43|431:59|457:194|373:187|322:132|350:102,1,264.000008056641,4|0,1:0|0:0,0:0:0:0:
458,32,187009,6,0,L|457:43,1,12,14|4,0:0|3:0,0:0:0:0:
424,236,187356,6,0,B|382:332|253:316|227:181|311:188|362:243|334:273,1,264.000008056641,0|0,3:0|0:0,0:0:0:0:
227,344,187703,6,0,L|228:333,1,12,14|0,0:0|0:0,0:0:0:0:
261,140,188050,6,0,B|302:168|313:96|261:77|171:96|251:194|178:246|120:209|101:191|114:159|136:149|150:154|174:186,1,264.000008056641,0|0,3:0|0:0,0:0:0:0:
42,71,188397,6,0,L|44:82,1,12,14|0,0:0|0:0,0:0:0:0:
93,283,188743,6,0,P|119:324|317:297,1,264.000008056641,4|0,3:0|0:0,0:0:0:0:
375,175,189090,5,4,3:0:0:0:
396,108,189177,1,4,3:0:0:0:
467,108,189264,1,4,3:0:0:0:
488,175,189350,1,4,3:0:0:0:
431,216,189437,6,0,B|420:278|425:353|496:344|526:302|421:289,1,180.000006866455,4|0,1:0|0:0,0:0:0:0:
303,242,189784,5,8,0:0:0:0:
272,273,189870,1,0,3:0:0:0:
241,242,189957,1,0,3:0:0:0:
272,212,190044,1,4,3:0:0:0:
303,242,190130,6,0,L|301:307,1,60.0000022888184,2|0,3:0|3:0,0:0:0:0:
152,192,190304,1,0,3:0:0:0:
169,269,190391,6,0,L|171:334,1,60.0000022888184,6|8,3:0|0:0,0:0:0:0:
280,131,190565,1,0,0:0:0:0:
216,89,190651,6,0,P|205:115|219:96,1,60.0000022888184,2|0,3:0|0:0,0:0:0:0:
384,249,190824,6,0,P|420:245|457:235,1,60.0000022888184,4|0,3:0|3:0,0:0:0:0:
290,345,190997,2,0,P|320:347|350:354,1,60.0000022888184,0|0,3:0|3:0,0:0:0:0:
239,246,191171,5,8,0:0:0:0:
230,217,191258,1,0,3:0:0:0:
167,177,191344,5,0,3:0:0:0:
158,206,191431,1,4,3:0:0:0:
92,251,191518,6,0,P|52:253|21:241,1,60.0000022888184,4|0,3:0|3:0,0:0:0:0:
187,348,191691,1,0,3:0:0:0:
257,296,191778,6,0,P|297:294|328:306,1,60.0000022888184,6|8,3:0|0:0,0:0:0:0:
467,245,191951,1,0,0:0:0:0:
408,185,192038,6,0,P|397:211|411:192,1,60.0000022888184,2|0,3:0|0:0,0:0:0:0:
241,134,192211,6,0,B|340:152|306:79|417:97,1,180.000006866455,4|0,1:0|3:0,0:0:0:0:
253,0,192558,6,0,P|264:47|265:72,1,60.0000022888184,8|0,0:0|3:0,0:0:0:0:
135,212,192732,1,0,3:0:0:0:
135,188,192818,2,0,P|139:159|147:130,1,60.0000022888184,4|0,3:0|3:0,0:0:0:0:
17,26,192992,1,4,3:0:0:0:
17,50,193078,2,0,P|21:79|29:108,1,60.0000022888184,4|0,3:0|3:0,0:0:0:0:
164,285,193252,5,8,0:0:0:0:
227,318,193339,2,0,L|260:309,1,23.9999992675781,4|0,3:0|0:0,0:0:0:0:
392,227,193599,6,0,P|408:168|325:88,1,180.000006866455,4|0,3:0|3:0,0:0:0:0:
177,53,193946,6,0,P|212:46|244:34,1,55.9999982910157,8|0,0:0|0:0,0:0:0:0:
433,0,194206,6,0,P|466:7|499:10,1,60.0000022888184,4|0,3:0|0:0,0:0:0:0:
327,178,194379,5,4,3:0:0:0:
304,175,194466,2,0,P|274:175|242:179,1,60.0000022888184,4|0,3:0|0:0,0:0:0:0:
409,82,194639,5,8,0:0:0:0:
417,159,194726,2,0,L|422:184,1,23.9999992675781,4|0,3:0|0:0,0:0:0:0:
512,329,194986,6,0,B|478:345|445:323|445:323|395:287|356:333|367:365|430:369|391:336,1,180.000006866455,4|0,1:0|0:0,0:0:0:0:
493,204,195333,5,8,0:0:0:0:
495,146,195419,1,0,0:0:0:0:
458,100,195506,1,0,0:0:0:0:
400,90,195593,1,4,3:0:0:0:
350,107,195680,6,0,P|323:122|302:159,1,60.0000022888184,2|0,3:0|3:0,0:0:0:0:
257,335,195853,1,0,3:0:0:0:
196,292,195940,6,0,L|198:223,1,60.0000022888184,6|8,3:0|0:0,0:0:0:0:
91,73,196113,1,0,0:0:0:0:
46,134,196200,6,0,P|39:156|68:151,1,60.0000022888184,6|0,3:0|0:0,0:0:0:0:
249,50,196373,6,0,P|285:46|322:36,1,60.0000022888184,4|0,3:0|3:0,0:0:0:0:
508,124,196547,2,0,P|472:120|435:110,1,60.0000022888184,0|0,3:0|3:0,0:0:0:0:
278,192,196720,5,8,0:0:0:0:
269,221,196807,1,0,3:0:0:0:
206,261,196893,5,0,3:0:0:0:
197,232,196980,1,4,3:0:0:0:
131,187,197067,6,0,P|91:185|60:197,1,60.0000022888184,2|0,3:0|3:0,0:0:0:0:
0,365,197240,1,0,3:0:0:0:
69,321,197327,6,0,P|109:319|140:331,1,60.0000022888184,6|8,3:0|0:0,0:0:0:0:
302,377,197500,1,0,0:0:0:0:
374,349,197587,6,0,P|362:323|366:346,1,60.0000022888184,2|0,3:0|0:0,0:0:0:0:
237,204,197761,6,0,B|197:158|189:39|277:33|307:71|289:120|246:139|215:120,1,264.000008056641,4|0,1:0|3:0,0:0:0:0:
91,74,198108,5,8,0:0:0:0:
67,64,198194,1,4,3:0:0:0:
0,247,198368,5,8,0:0:0:0:
33,235,198454,1,8,0:0:0:0:
66,222,198541,1,8,0:0:0:0:
99,207,198628,2,0,L|96:279,1,60.0000022888184,4|0,3:0|0:0,0:0:0:0:
217,343,198801,5,8,0:0:0:0:
250,358,198888,2,0,L|245:230,1,120.000004577637,4|0,3:0|0:0,0:0:0:0:
367,106,199148,6,0,P|425:118|362:185,1,180.000006866455,6|0,3:0|0:0,0:0:0:0:
250,375,199495,6,0,P|192:324|260:288,1,180.000006866455,10|8,0:0|0:0,0:0:0:0:
88,212,199842,5,8,0:0:0:0:
107,275,199928,1,8,0:0:0:0:
53,312,200015,1,4,3:0:0:0:
1,273,200102,1,2,0:0:0:0:
22,211,200188,1,8,0:0:0:0:
88,212,200275,2,0,P|123:185|150:157,1,60.0000022888184,4|2,3:0|0:0,0:0:0:0:
256,29,200449,5,8,0:0:0:0:
194,68,200535,2,0,B|87:79|140:15|8:32,1,180.000006866455,4|0,1:0|0:0,0:0:0:0:
262,149,200882,5,8,0:0:0:0:
266,140,200969,1,4,3:0:0:0:
183,234,201142,1,8,0:0:0:0:
179,225,201229,1,4,3:0:0:0:
278,324,201402,1,8,0:0:0:0:
282,315,201489,1,2,3:0:0:0:
369,163,201662,5,8,0:0:0:0:
378,167,201749,1,4,3:0:0:0:
387,170,201836,1,2,3:0:0:0:
440,210,201923,2,0,B|488:265|490:336|424:352|401:319|441:283,1,180.000006866455,4|0,1:0|0:0,0:0:0:0:
448,117,202269,5,8,0:0:0:0:
452,108,202356,1,2,3:0:0:0:
331,47,202530,1,8,0:0:0:0:
335,56,202617,1,4,3:0:0:0:
219,114,202790,1,8,0:0:0:0:
223,105,202877,1,2,3:0:0:0:
80,58,203050,5,10,0:0:0:0:
83,67,203137,1,2,3:0:0:0:
85,75,203224,1,2,0:0:0:0:
91,144,203310,2,0,P|63:199|33:120,1,180.000006866455,4|0,1:0|0:0,0:0:0:0:
178,242,203657,6,0,P|208:233|253:234,1,60.0000022888184,8|0,0:0|0:0,0:0:0:0:
385,298,203830,5,2,0:0:0:0:
332,343,203917,2,0,P|297:333|273:310,1,60.0000022888184,8|2,0:0|0:0,0:0:0:0:
414,196,204090,5,8,0:0:0:0:
473,241,204177,2,0,P|487:274|485:307,1,60.0000022888184,4|2,3:0|0:0,0:0:0:0:
317,204,204350,5,8,0:0:0:0:
298,137,204437,2,0,L|302:103,1,23.9999992675781,4|0,3:0|0:0,0:0:0:0:
190,16,204697,5,4,3:0:0:0:
149,5,204783,1,0,3:0:0:0:
109,15,204870,1,2,3:0:0:0:
79,44,204957,1,2,3:0:0:0:
63,116,205044,6,0,B|71:167|71:167|67:186|67:186|77:245,1,120.000004577637,8|0,0:0|0:0,0:0:0:0:
195,331,205304,2,0,L|123:325,1,60.0000022888184,8|2,0:0|0:0,0:0:0:0:
246,239,205477,5,8,0:0:0:0:
303,288,205564,2,0,P|313:317|310:360,1,60.0000022888184,4|0,3:0|0:0,0:0:0:0:
388,235,205738,5,8,0:0:0:0:
433,177,205824,2,0,L|436:148,1,23.9999992675781,0|0,3:0|0:0,0:0:0:0:
285,47,206084,6,0,B|336:108|290:183|263:157|258:115|317:105|350:111,1,180.000006866455,4|0,1:0|0:0,0:0:0:0:
207,28,206431,5,8,0:0:0:0:
201,42,206518,1,2,0:0:0:0:
63,126,206691,1,8,0:0:0:0:
69,140,206778,1,4,3:0:0:0:
164,287,206951,1,8,0:0:0:0:
158,301,207038,1,0,3:0:0:0:
311,216,207212,5,8,0:0:0:0:
320,219,207299,1,4,3:0:0:0:
328,221,207386,1,2,3:0:0:0:
395,240,207472,2,0,B|472:259|519:184|484:172|444:185|461:243|481:270,1,180.000006866455,4|0,1:0|0:0,0:0:0:0:
409,113,207819,5,8,0:0:0:0:
395,119,207906,1,2,0:0:0:0:
263,166,208079,1,8,0:0:0:0:
249,160,208166,1,6,3:0:0:0:
128,104,208339,1,8,0:0:0:0:
114,110,208426,1,2,3:0:0:0:
8,236,208599,5,2,3:0:0:0:
15,241,208686,1,8,0:0:0:0:
22,245,208773,1,2,0:0:0:0:
83,282,208859,2,0,P|169:274|183:186,1,180.000006866455,4|0,1:0|0:0,0:0:0:0:
99,318,209206,6,0,P|158:351|223:341,1,120.000004577637,8|0,0:0|0:0,0:0:0:0:
372,276,209466,6,0,L|382:341,1,60.0000022888184,4|2,3:0|0:0,0:0:0:0:
494,198,209639,2,0,L|484:257,1,60.0000022888184,4|2,3:0|0:0,0:0:0:0:
363,134,209813,5,4,3:0:0:0:
425,90,209899,2,0,L|434:117,1,23.9999992675781,8|0,0:0|0:0,0:0:0:0:
313,24,210160,5,4,3:0:0:0:
295,79,210246,1,2,0:0:0:0:
244,107,210333,2,0,P|213:108|173:95,1,60.0000022888184,4|0,3:0|0:0,0:0:0:0:
19,145,210506,5,4,3:0:0:0:
84,176,210593,2,0,L|116:165,1,23.9999992675781,8|0,0:0|0:0,0:0:0:0:
232,275,210853,6,0,P|185:281|157:272,1,60.0000022888184,4|2,3:0|0:0,0:0:0:0:
383,354,211027,2,0,P|336:348|308:357,1,60.0000022888184,4|2,3:0|0:0,0:0:0:0:
454,206,211200,5,4,3:0:0:0:
507,263,211287,2,0,L|509:275,1,12,12|0,0:1|0:0,0:0:0:0:
302,362,211634,6,0,B|195:373|248:309|116:326,1,180.000006866455,4|0,3:0|0:0,0:0:0:0:
27,222,211980,5,4,1:0:0:0:
30,229,212067,1,2,3:0:0:0:
161,194,212240,1,8,0:0:0:0:
158,201,212327,1,4,3:0:0:0:
278,262,212501,1,8,0:0:0:0:
275,269,212588,1,4,3:0:0:0:
397,184,212761,5,8,0:0:0:0:
390,181,212848,1,6,3:0:0:0:
384,179,212934,1,2,3:0:0:0:
321,153,213021,2,0,B|249:131|221:58|283:14|330:30|317:81|284:85,1,180.000006866455,4|0,1:0|0:0,0:0:0:0:
170,160,213368,6,0,B|109:180|109:180|41:147,1,120.000004577637,10|0,0:0|0:0,0:0:0:0:
58,321,213628,1,8,0:0:0:0:
58,321,213714,2,0,B|53:257,1,60.0000022888184,10|0,0:0|0:0,0:0:0:0:
170,358,213888,1,8,0:0:0:0:
170,358,213974,2,0,B|175:294,1,60.0000022888184,10|0,0:0|0:0,0:0:0:0:
305,342,214148,1,8,0:0:0:0:
305,342,214234,2,0,B|300:278,1,60.0000022888184,10|0,0:0|0:0,0:0:0:0:
306,97,214408,6,0,P|334:42|364:121,1,180.000006866455,4|0,1:0|0:0,0:0:0:0:
226,224,214755,6,0,P|194:221|153:204,1,60.0000022888184,8|2,0:0|0:0,0:0:0:0:
46,83,214928,5,2,0:0:0:0:
118,74,215015,2,0,P|147:95|161:125,1,60.0000022888184,8|2,0:0|0:0,0:0:0:0:
88,281,215188,5,8,0:0:0:0:
69,208,215275,2,0,P|78:173|100:148,1,60.0000022888184,4|2,3:0|0:0,0:0:0:0:
253,90,215448,5,8,0:0:0:0:
320,71,215535,2,0,L|354:75,1,23.9999992675781,4|0,3:0|0:0,0:0:0:0:
466,189,215795,5,4,3:0:0:0:
477,230,215881,1,2,3:0:0:0:
467,270,215968,1,2,3:0:0:0:
438,300,216055,1,2,3:0:0:0:
366,316,216142,6,0,B|315:308|315:308|296:312|296:312|237:302,1,120.000004577637,8|0,0:0|0:0,0:0:0:0:
79,247,216402,2,0,L|151:241,1,60.0000022888184,8|2,0:0|0:0,0:0:0:0:
280,179,216575,5,8,0:0:0:0:
223,130,216662,2,0,P|213:101|216:58,1,60.0000022888184,4|2,3:0|0:0,0:0:0:0:
395,25,216836,5,8,0:0:0:0:
431,90,216923,2,0,L|428:119,1,23.9999992675781,4|0,3:0|0:0,0:0:0:0:
300,288,217183,6,0,B|245:336|174:338|158:272|191:249|227:289,1,180.000006866455,4|0,1:0|0:0,0:0:0:0:
368,342,217530,5,8,0:0:0:0:
375,339,217617,1,2,3:0:0:0:
322,207,217790,1,8,0:0:0:0:
329,210,217876,1,0,3:0:0:0:
208,141,218051,1,8,0:0:0:0:
215,144,218136,1,2,3:0:0:0:
74,293,218310,5,8,0:0:0:0:
81,296,218397,1,0,3:0:0:0:
87,298,218483,1,2,3:0:0:0:
152,329,218570,2,0,B|259:340|206:276|338:293,1,180.000006866455,4|0,1:0|0:0,0:0:0:0:
478,345,218917,5,10,0:0:0:0:
480,337,219003,1,0,0:0:0:0:
501,265,219177,6,0,L|487:190,1,60.0000022888184,10|0,0:0|0:0,0:0:0:0:
509,193,219437,6,0,L|488:119,1,60.0000022888184,10|0,0:0|0:0,0:0:0:0:
512,117,219697,6,0,L|485:45,1,60.0000022888184,10|0,0:0|0:0,0:0:0:0:
343,11,219957,5,14,0:0:0:0:
256,192,220044,12,12,222732,0:0:0:0:
408,353,233830,6,0,P|398:292|354:236,1,120,4|0,0:1|0:0,0:0:0:0:
266,170,234177,2,0,L|256:255,1,80,8|0,0:0|3:0,0:0:0:0:
257,250,234437,1,4,3:0:0:0:
257,250,234524,1,2,3:0:0:0:
83,348,234697,1,2,3:0:0:0:
83,348,234784,1,0,0:0:0:0:
83,347,234871,2,0,L|73:267,1,80,8|0,0:0|3:0,0:0:0:0:
7,59,235217,6,0,B|48:75|48:75|136:52,1,120,4|0,3:0|0:0,0:0:0:0:
241,21,235564,2,0,L|233:101,1,80,8|0,0:0|3:0,0:0:0:0:
233,100,235824,1,4,3:0:0:0:
233,100,235911,1,2,0:0:0:0:
420,186,236084,1,2,3:0:0:0:
420,186,236171,1,0,0:0:0:0:
420,186,236258,2,0,L|412:106,1,80,8|0,0:0|3:0,0:0:0:0:
262,205,236605,6,0,B|198:213|215:163|147:179,1,120,4|0,3:0|0:0,0:0:0:0:
147,334,236951,2,0,P|166:283|157:248,1,80,8|0,0:0|3:0,0:0:0:0:
161,259,237212,1,4,3:0:0:0:
161,259,237298,1,2,3:0:0:0:
7,182,237472,1,2,3:0:0:0:
7,182,237558,1,0,0:0:0:0:
6,181,237646,2,0,P|3:220|20:255,1,80,8|0,0:0|3:0,0:0:0:0:
167,360,237992,6,0,L|298:363,1,120,4|0,3:0|0:0,0:0:0:0:
439,275,238339,2,0,P|399:268|350:282,1,80,8|4,0:0|3:0,0:0:0:0:
361,276,238599,1,4,3:0:0:0:
361,276,238686,1,2,3:0:0:0:
181,194,238859,1,2,3:0:0:0:
181,194,238946,1,0,0:0:0:0:
181,193,239033,2,0,P|219:201|258:194,1,80,8|0,0:0|3:0,0:0:0:0:
368,26,239379,6,0,P|426:9|498:43,1,120,4|0,3:0|0:0,0:0:0:0:
430,169,239726,2,0,B|411:132|411:132|428:87,1,80,8|0,0:0|3:0,0:0:0:0:
424,96,239986,1,4,3:0:0:0:
424,96,240073,1,2,3:0:0:0:
504,281,240246,1,2,3:0:0:0:
504,281,240333,1,0,0:0:0:0:
504,281,240420,2,0,B|517:316|517:316|498:353,1,80,8|0,0:0|3:0,0:0:0:0:
279,383,240767,6,0,P|287:293|296:253,1,120,4|0,3:0|0:0,0:0:0:0:
208,143,241113,2,0,B|224:182|224:182|203:223,1,80,8|0,0:0|3:0,0:0:0:0:
206,215,241373,1,4,3:0:0:0:
206,215,241460,1,2,3:0:0:0:
79,338,241634,1,2,3:0:0:0:
79,338,241721,1,0,0:0:0:0:
79,338,241808,2,0,B|61:304|61:304|77:265,1,80,8|0,0:0|3:0,0:0:0:0:
223,133,242154,6,0,L|363:148,1,120,4|0,3:0|0:0,0:0:0:0:
467,222,242501,2,0,P|419:223|380:237,1,80,8|0,0:0|3:0,0:0:0:0:
388,233,242761,1,4,3:0:0:0:
388,233,242847,1,2,3:0:0:0:
241,346,243021,1,2,3:0:0:0:
241,346,243107,1,0,0:0:0:0:
241,345,243194,2,0,P|279:356|319:356,1,80,8|0,0:0|3:0,0:0:0:0:
188,215,243541,6,0,B|124:223|141:173|73:189,1,120,4|0,3:0|0:0,0:0:0:0:
175,61,243888,2,0,P|181:107|183:153,1,80,4|0,3:0|3:0,0:0:0:0:
312,255,244235,2,0,P|306:294|304:347,1,80,4|0,3:0|3:0,0:0:0:0:
319,355,244495,1,4,3:0:0:0:
407,90,244755,1,4,3:0:0:0:
277,132,244928,6,0,P|195:144|157:156,1,120,4|0,3:0|0:0,0:0:0:0:
42,70,245275,2,0,P|84:77|130:82,1,80,8|0,0:0|3:0,0:0:0:0:
121,82,245534,1,4,3:0:0:0:
121,82,245621,1,2,3:0:0:0:
232,213,245795,1,2,3:0:0:0:
89,287,245968,2,0,B|75:247|75:247|93:198,1,80,8|0,0:0|3:0,0:0:0:0:
208,67,246315,6,0,P|265:52|323:88,1,120,4|0,3:0|0:0,0:0:0:0:
359,217,246662,2,0,L|345:308,1,80,8|0,0:0|3:0,0:0:0:0:
346,297,246922,1,4,3:0:0:0:
346,297,247008,1,2,3:0:0:0:
437,123,247182,1,2,3:0:0:0:
269,204,247356,2,0,B|226:211|226:211|184:191,1,80,8|0,0:0|3:0,0:0:0:0:
36,43,247702,6,0,B|100:51|83:1|151:17,1,120,4|0,3:0|0:0,0:0:0:0:
259,66,248049,2,0,P|320:56|338:34,1,80,8|0,0:0|3:0,0:0:0:0:
330,44,248309,1,4,3:0:0:0:
330,44,248396,1,2,3:0:0:0:
482,118,248569,1,2,3:0:0:0:
383,242,248743,2,0,P|377:202|377:154,1,80,8|0,0:0|3:0,0:0:0:0:
484,305,249089,6,0,B|420:297|437:347|369:331,1,120,4|0,3:0|0:0,0:0:0:0:
202,237,249436,2,0,P|263:247|281:269,1,80,8|0,0:0|3:0,0:0:0:0:
273,259,249696,1,4,3:0:0:0:
273,259,249783,1,2,3:0:0:0:
184,111,249956,1,2,3:0:0:0:
114,230,250130,2,0,P|123:276|124:317,1,80,8|0,0:0|3:0,0:0:0:0:
3,371,250477,6,0,P|8:286|13:245,1,120,4|0,3:0|0:0,0:0:0:0:
104,102,250824,2,0,P|144:110|185:110,1,80,8|0,0:0|3:0,0:0:0:0:
184,111,251084,1,4,3:0:0:0:
184,111,251170,1,2,3:0:0:0:
370,93,251344,1,2,3:0:0:0:
281,213,251517,2,0,B|268:250|268:250|292:297,1,80,8|0,0:0|3:0,0:0:0:0:
462,355,251864,6,0,P|475:310|458:225,1,120,4|0,3:0|0:0,0:0:0:0:
388,126,252211,2,0,L|302:132,1,80,8|0,0:0|3:0,0:0:0:0:
308,131,252471,1,4,3:0:0:0:
308,131,252558,1,2,3:0:0:0:
179,207,252731,1,2,3:0:0:0:
89,103,252905,2,0,B|125:87|125:87|172:101,1,80,8|0,0:0|3:0,0:0:0:0:
304,230,253252,6,0,P|387:220|434:205,1,120,4|0,3:0|0:0,0:0:0:0:
512,330,253599,2,0,P|469:317|426:316,1,80,8|0,0:0|3:0,0:0:0:0:
434,315,253859,1,4,3:0:0:0:
434,315,253946,1,2,3:0:0:0:
306,366,254119,1,2,3:0:0:0:
191,282,254293,2,0,L|196:194,1,80,8|0,0:0|3:0,0:0:0:0:
64,68,254639,6,0,P|85:116|104:209,1,120,4|0,3:0|0:0,0:0:0:0:
1,303,254986,2,0,P|7:265|24:210,1,80,8|0,0:0|3:0,0:0:0:0:
19,224,255246,1,4,3:0:0:0:
19,224,255333,1,2,3:0:0:0:
121,341,255506,1,2,3:0:0:0:
289,298,255680,2,0,L|368:313,1,80,8|0,0:0|3:0,0:0:0:0:
256,192,256027,12,0,267125,0:0:0:0:
