osu file format v14

[General]
AudioFilename: audio.mp3
AudioLeadIn: 0
PreviewTime: 131171
Countdown: 0
SampleSet: Soft
StackLeniency: 0.2
Mode: 0
LetterboxInBreaks: 0
EpilepsyWarning: 1
WidescreenStoryboard: 1

[Editor]
Bookmarks: 767,11865,22963,45160,67356,89553,111749,122847,131171,133946,145044,156142,167240,178339,189437,200535,211634,222732,233830,244928,256027,267125
DistanceSpacing: 0.5
BeatDivisor: 4
GridSize: 32
TimelineZoom: 2.4

[Metadata]
Title:Lullaby (Cut Ver.)
TitleUnicode:Lullaby (Cut Ver.)
Artist:Receptor & K.I.R.A
ArtistUnicode:Receptor & K.I.R.A
Creator:Shmiklak
Version:Insane
Source:osu!
Tags:fa featured artist marvollo m_a_r_v_o_l_l_o wajinshu mappers' guild russian electronic русская электроника dnb drum and bass kira neurofunk Burning Up Horror Darkside рецептор кира колыбельная тили бом
BeatmapID:2555959
BeatmapSetID:1221743

[Difficulty]
HPDrainRate:6
CircleSize:4
OverallDifficulty:8
ApproachRate:9
SliderMultiplier:1.4
SliderTickRate:1

[Events]
//Background and Video events
0,0,"young-girl-1149701.jpg",0,0
//Break Periods
2,23163,44560
2,111949,122247
2,222932,233230
//Storyboard Layer 0 (Background)
Sprite,Background,Centre,"sb\etc\l.png",0,0 C,0,767,,126,169,128 M,0,767,810,79,164,95.52847,158.3525 F,2,767,1313,1,0 S,2,767,1313,1.5,0.3 M,0,810,853,95.52847,158.3525,112.7535,155.537 M,0,853,897,112.7535,155.537,130.1968,155.6281 M,0,897,940,130.1968,155.6281,147.3744,158.6206 M,0,940,983,147.3744,158.6206,163.81,164.4298 M,0,983,1027,163.81,164.4298,179.1833,172.6843 M,0,1027,1070,179.1833,172.6843,192.7519,183.6717 M,0,1070,1113,192.7519,183.6717,204.2946,196.7559
Sprite,Background,Centre,"sb\etc\l.png",262,282 C,0,1287,,126,169,128 F,2,1287,1487,1,0 S,2,1287,1487,1.5,0.3
Sprite,Background,Centre,"sb\etc\l.png",262,282 C,0,1373,,126,169,128 F,2,1373,1573,1,0 S,2,1373,1573,1.5,0.3
Sprite,Background,Centre,"sb\etc\l.png",0,0 C,0,1460,,126,169,128 M,0,1460,1503,262,282,260.1916,299.4063 F,2,1460,1833,1,0 S,2,1460,1833,1.5,0.3 M,0,1503,1546,260.1916,299.4063,258.3831,316.8126 M,0,1546,1590,258.3831,316.8126,256.5746,334.2189 M,0,1590,1633,256.5746,334.2189,254.7662,351.6252
Sprite,Background,Centre,"sb\etc\l.png",375,440 C,0,1807,,126,169,128 F,2,1807,2007,1,0 S,2,1807,2007,1.5,0.3
Sprite,Background,Centre,"sb\etc\l.png",0,0 C,0,2154,,136,176,200 M,0,2154,2197,375,440,366.1276,424.9348 F,2,2154,2700,1,0 S,2,2154,2700,1.5,0.3 M,0,2197,2240,366.1276,424.9348,359.1158,408.9255 M,0,2240,2284,359.1158,408.9255,354.0628,392.1995 M,0,2284,2327,354.0628,392.1995,351.0395,374.9944 M,0,2327,2370,351.0395,374.9944,350.088,357.5544 M,0,2370,2414,350.088,357.5544,351.2213,340.1269 M,0,2414,2457,351.2213,340.1269,354.2417,322.9159 M,0,2457,2500,354.2417,322.9159,359.5378,306.2574
Sprite,Background,Centre,"sb\etc\l.png",429,225 C,0,2674,,136,176,200 F,2,2674,2874,1,0 S,2,2674,2874,1.5,0.3
Sprite,Background,Centre,"sb\etc\l.png",429,225 C,0,2761,,136,176,200 F,2,2761,2961,1,0 S,2,2761,2961,1.5,0.3
Sprite,Background,Centre,"sb\etc\l.png",0,0 C,0,2847,,136,176,200 M,0,2847,2890,429,225,427.4746,207.5666 F,2,2847,3220,1,0 S,2,2847,3220,1.5,0.3 M,0,2890,2933,427.4746,207.5666,425.9492,190.1332 M,0,2933,2977,425.9492,190.1332,424.4237,172.6998 M,0,2977,3020,424.4237,172.6998,422.8983,155.2664
Sprite,Background,Centre,"sb\etc\l.png",531,71 C,0,3194,,136,176,200 F,2,3194,3394,1,0 S,2,3194,3394,1.5,0.3
Sprite,Background,Centre,"sb\etc\l.png",0,0 C,0,3541,,190,143,145 M,0,3541,3584,531,71,538.7086,86.69386 F,2,3541,4087,1,0 S,2,3541,4087,1.5,0.3 M,0,3584,3627,538.7086,86.69386,544.5432,103.1705 M,0,3627,3671,544.5432,103.1705,548.4265,120.2082 M,0,3671,3714,548.4265,120.2082,550.3071,137.5776 M,0,3714,3757,550.3071,137.5776,550.1606,155.0452 M,0,3757,3801,550.1606,155.0452,547.9893,172.3761 M,0,3801,3844,547.9893,172.3761,544.029,189.4006 M,0,3844,3887,544.029,189.4006,537.8883,205.7748
Sprite,Background,Centre,"sb\etc\l.png",478,297 C,0,4061,,190,143,145 F,2,4061,4261,1,0 S,2,4061,4261,1.5,0.3
Sprite,Background,Centre,"sb\etc\l.png",478,297 C,0,4148,,190,143,145 F,2,4148,4348,1,0 S,2,4148,4348,1.5,0.3
Sprite,Background,Centre,"sb\etc\l.png",0,0 C,0,4235,,190,143,145 M,0,4235,4278,478,297,460.5666,295.4746 F,2,4235,4608,1,0 S,2,4235,4608,1.5,0.3 M,0,4278,4321,460.5666,295.4746,443.1332,293.9492 M,0,4321,4365,443.1332,293.9492,425.6998,292.4237 M,0,4365,4408,425.6998,292.4237,408.2664,290.8983
Sprite,Background,Centre,"sb\etc\l.png",276,387 C,0,4582,,190,143,145 F,2,4582,4782,1,0 S,2,4582,4782,1.5,0.3
Sprite,Background,Centre,"sb\etc\l.png",0,0 C,0,4928,,206,203,140 M,0,4928,4971,276,387,262.2418,397.7362 F,2,4928,5474,1,0 S,2,4928,5474,1.5,0.3 M,0,4971,5014,262.2418,397.7362,246.4728,405.1797 M,0,5014,5058,246.4728,405.1797,229.4658,408.9719 M,0,5058,5101,229.4658,408.9719,212.0527,408.9326 M,0,5101,5144,212.0527,408.9326,195.0842,405.0683 M,0,5144,5188,195.0842,405.0683,179.3885,397.5718 M,0,5188,5231,179.3885,397.5718,165.731,386.8125 M,0,5231,5274,165.731,386.8125,154.7774,373.3185
Sprite,Background,Centre,"sb\etc\l.png",113,286 C,0,5449,,206,203,140 F,2,5449,5649,1,0 S,2,5449,5649,1.5,0.3
Sprite,Background,Centre,"sb\etc\l.png",113,286 C,0,5535,,206,203,140 F,2,5535,5735,1,0 S,2,5535,5735,1.5,0.3
Sprite,Background,Centre,"sb\etc\l.png",0,0 C,0,5622,,206,203,140 M,0,5622,5665,113,286,130.4334,284.4746 F,2,5622,5995,1,0 S,2,5622,5995,1.5,0.3 M,0,5665,5708,130.4334,284.4746,147.8668,282.9492 M,0,5708,5752,147.8668,282.9492,165.3002,281.4237 M,0,5752,5795,165.3002,281.4237,182.7336,279.8983
Sprite,Background,Centre,"sb\etc\l.png",289,203 C,0,5969,,206,203,140 F,2,5969,6169,1,0 S,2,5969,6169,1.5,0.3
Sprite,Background,Centre,"sb\etc\l.png",0,0 C,0,6316,,126,169,128 M,0,6316,6359,289,203,273.0556,195.7871 F,2,6316,6862,1,0 S,2,6316,6862,1.5,0.3 M,0,6359,6402,273.0556,195.7871,257.1112,188.5741 M,0,6402,6446,257.1112,188.5741,240.6313,184.6547 M,0,6446,6489,240.6313,184.6547,223.223,186.4444 M,0,6489,6532,223.223,186.4444,205.8148,188.234 M,0,6532,6576,205.8148,188.234,188.4065,190.0236 M,0,6576,6619,188.4065,190.0236,170.9983,191.8133 M,0,6619,6662,170.9983,191.8133,153.59,193.6029
Sprite,Background,Centre,"sb\etc\l.png",64,129 C,0,6836,,126,169,128 F,2,6836,7036,1,0 S,2,6836,7036,1.5,0.3
Sprite,Background,Centre,"sb\etc\l.png",64,129 C,0,6923,,126,169,128 F,2,6923,7123,1,0 S,2,6923,7123,1.5,0.3
Sprite,Background,Centre,"sb\etc\l.png",0,0 C,0,7009,,126,169,128 M,0,7009,7052,64,129,81.33587,126.6088 F,2,7009,7382,1,0 S,2,7009,7382,1.5,0.3 M,0,7052,7095,81.33587,126.6088,98.67174,124.2177 M,0,7095,7139,98.67174,124.2177,116.0076,121.8265 M,0,7139,7182,116.0076,121.8265,133.3435,119.4354
Sprite,Background,Centre,"sb\etc\l.png",0,0 C,0,7356,,126,169,128 M,0,7356,7399,296,78,313.3359,80.39116 F,2,7356,7729,1,0 S,2,7356,7729,1.5,0.3 M,0,7399,7442,313.3359,80.39116,330.6718,82.78231 M,0,7442,7486,330.6718,82.78231,348.0076,85.17346 M,0,7486,7529,348.0076,85.17346,365.3435,87.56462
Sprite,Background,Centre,"sb\etc\l.png",0,0 C,0,7703,,136,176,200 M,0,7703,7746,524,188,506.8188,191.3254 F,2,7703,8249,1,0 S,2,7703,8249,1.5,0.3 M,0,7746,7789,506.8188,191.3254,489.6377,194.6508 M,0,7789,7833,489.6377,194.6508,472.4565,197.9762 M,0,7833,7876,472.4565,197.9762,455.5729,197.6321 M,0,7876,7919,455.5729,197.6321,439.0063,193.9319 M,0,7919,7963,439.0063,193.9319,421.9641,197.9084 M,0,7963,8006,421.9641,197.9084,404.9219,201.8849 M,0,8006,8049,404.9219,201.8849,387.8797,205.8614
Sprite,Background,Centre,"sb\etc\l.png",303,277 C,0,8223,,136,176,200 F,2,8223,8423,1,0 S,2,8223,8423,1.5,0.3
Sprite,Background,Centre,"sb\etc\l.png",303,277 C,0,8310,,136,176,200 F,2,8310,8510,1,0 S,2,8310,8510,1.5,0.3
Sprite,Background,Centre,"sb\etc\l.png",0,0 C,0,8397,,136,176,200 M,0,8397,8440,303,277,299.0693,294.0033 F,2,8397,8770,1,0 S,2,8397,8770,1.5,0.3 M,0,8440,8483,299.0693,294.0033,298.6376,311.4308 M,0,8483,8527,298.6376,311.4308,301.7161,328.5748 M,0,8527,8570,301.7161,328.5748,307.9435,344.8682
Sprite,Background,Centre,"sb\etc\l.png",0,0 C,0,8743,,136,176,200 M,0,8743,8786,414,420,419.7655,403.5501 F,2,8743,9116,1,0 S,2,8743,9116,1.5,0.3 M,0,8786,8829,419.7655,403.5501,422.5347,386.3913 M,0,8829,8873,422.5347,386.3913,421.7991,369.0262 M,0,8873,8916,421.7991,369.0262,418.004,352.0133
Sprite,Background,Centre,"sb\etc\l.png",524,188 C,0,9090,,190,143,145 F,2,9090,9290,1,0 S,2,9090,9290,1.5,0.3
Sprite,Background,Centre,"sb\etc\l.png",524,188 C,0,9437,,190,143,145 F,2,9437,9637,1,0 S,2,9437,9637,1.5,0.3
Sprite,Background,Centre,"sb\etc\l.png",551,279 C,0,9610,,190,143,145 F,2,9610,9810,1,0 S,2,9610,9810,1.5,0.3
Sprite,Background,Centre,"sb\etc\l.png",551,279 C,0,9697,,190,143,145 F,2,9697,9897,1,0 S,2,9697,9897,1.5,0.3
Sprite,Background,Centre,"sb\etc\l.png",0,0 C,0,9784,,190,143,145 M,0,9784,9827,551,279,548.9313,296.3773 F,2,9784,10157,1,0 S,2,9784,10157,1.5,0.3 M,0,9827,9870,548.9313,296.3773,546.8625,313.7546 M,0,9870,9914,546.8625,313.7546,544.7938,331.1319 M,0,9914,9957,544.7938,331.1319,542.7251,348.5092
Sprite,Background,Centre,"sb\etc\l.png",0,0 C,0,10131,,190,143,145 M,0,10131,10174,414,420,411.7684,402.6429 F,2,10131,10504,1,0 S,2,10131,10504,1.5,0.3 M,0,10174,10217,411.7684,402.6429,409.5367,385.2858 M,0,10217,10261,409.5367,385.2858,407.3051,367.9286 M,0,10261,10304,407.3051,367.9286,405.0735,350.5715
Sprite,Background,Centre,"sb\etc\l.png",295,254 C,0,10477,,206,203,140 F,2,10477,10677,1,0 S,2,10477,10677,1.5,0.3
Sprite,Background,Centre,"sb\etc\l.png",295,254 C,0,10824,,206,203,140 F,2,10824,11024,1,0 S,2,10824,11024,1.5,0.3
Sprite,Background,Centre,"sb\etc\l.png",204,227 C,0,10998,,206,203,140 F,2,10998,11198,1,0 S,2,10998,11198,1.5,0.3
Sprite,Background,Centre,"sb\etc\l.png",204,227 C,0,11084,,206,203,140 F,2,11084,11284,1,0 S,2,11084,11284,1.5,0.3
Sprite,Background,Centre,"sb\etc\l.png",0,0 C,0,11171,,206,203,140 M,0,11171,11214,204,227,186.6227,229.0687 F,2,11171,11544,1,0 S,2,11171,11544,1.5,0.3 M,0,11214,11257,186.6227,229.0687,169.2454,231.1375 M,0,11257,11301,169.2454,231.1375,151.8681,233.2062 M,0,11301,11344,151.8681,233.2062,134.4908,235.2749
Sprite,Background,Centre,"sb\etc\l.png",0,0 C,0,11518,,206,203,140 M,0,11518,11561,64,354,81.3773,356.0687 F,2,11518,11891,1,0 S,2,11518,11891,1.5,0.3 M,0,11561,11604,81.3773,356.0687,98.75459,358.1375 M,0,11604,11648,98.75459,358.1375,116.1319,360.2062 M,0,11648,11691,116.1319,360.2062,133.5092,362.2749
Sprite,Background,Centre,"sb\etc\l.png",0,0 C,0,11865,,126,169,128 M,0,11865,11908,321,395,338.409,396.6844 F,2,11865,12411,1,0 S,2,11865,12411,1.5,0.3 M,0,11908,11951,338.409,396.6844,355.8517,395.7073 M,0,11951,11995,355.8517,395.7073,372.4236,390.3121 M,0,11995,12038,372.4236,390.3121,386.9799,380.6405 M,0,12038,12081,386.9799,380.6405,401.8137,371.432 M,0,12081,12125,401.8137,371.432,418.6866,367.076 M,0,12125,12168,418.6866,367.076,436.1606,367.0623 M,0,12168,12211,436.1606,367.0623,453.4799,369.5107
Sprite,Background,Centre,"sb\etc\l.png",576,415 C,0,12472,,126,169,128 F,2,12472,12672,1,0 S,2,12472,12672,1.5,0.3
Sprite,Background,Centre,"sb\etc\l.png",0,0 C,0,12558,,126,169,128 M,0,12558,12601,573,398,570.0195,380.7557 F,2,12558,12931,1,0 S,2,12558,12931,1.5,0.3 M,0,12601,12644,570.0195,380.7557,567.039,363.5114 M,0,12644,12688,567.039,363.5114,564.0585,346.267 M,0,12688,12731,564.0585,346.267,561.078,329.0227
Sprite,Background,Centre,"sb\etc\l.png",528,163 C,0,12905,,126,169,128 F,2,12905,13105,1,0 S,2,12905,13105,1.5,0.3
Sprite,Background,Centre,"sb\etc\l.png",0,0 C,0,13252,,136,176,200 M,0,13252,13295,528,163,510.591,161.3156 F,2,13252,13798,1,0 S,2,13252,13798,1.5,0.3 M,0,13295,13338,510.591,161.3156,493.1483,162.2927 M,0,13338,13382,493.1483,162.2927,476.5764,167.6879 M,0,13382,13425,476.5764,167.6879,462.0201,177.3596 M,0,13425,13468,462.0201,177.3596,447.1863,186.568 M,0,13468,13512,447.1863,186.568,430.3134,190.924 M,0,13512,13555,430.3134,190.924,412.8394,190.9377 M,0,13555,13598,412.8394,190.9377,395.5201,188.4893
Sprite,Background,Centre,"sb\etc\l.png",299,113 C,0,13859,,136,176,200 F,2,13859,14059,1,0 S,2,13859,14059,1.5,0.3
Sprite,Background,Centre,"sb\etc\l.png",0,0 C,0,13946,,136,176,200 M,0,13946,13989,284,115,266.5738,116.605 F,2,13946,14319,1,0 S,2,13946,14319,1.5,0.3 M,0,13989,14032,266.5738,116.605,249.1475,118.2101 M,0,14032,14076,249.1475,118.2101,231.7213,119.8151 M,0,14076,14119,231.7213,119.8151,214.295,121.4202
Sprite,Background,Centre,"sb\etc\l.png",64,139 C,0,14293,,136,176,200 F,2,14293,14493,1,0 S,2,14293,14493,1.5,0.3
Sprite,Background,Centre,"sb\etc\l.png",0,0 C,0,14639,,190,143,145 M,0,14639,14682,64,139,56.97134,154.99 F,2,14639,15185,1,0 S,2,14639,15185,1.5,0.3 M,0,14682,14725,56.97134,154.99,52.96222,171.9799 M,0,14725,14769,52.96222,171.9799,52.10218,189.406 M,0,14769,14812,52.10218,189.406,54.41674,206.691 M,0,14812,14855,54.41674,206.691,59.82658,223.2625 M,0,14855,14899,59.82658,223.2625,68.15031,238.5722 M,0,14899,14942,68.15031,238.5722,79.1104,252.1136 M,0,14942,14985,79.1104,252.1136,92.19289,263.6605
Sprite,Background,Centre,"sb\etc\l.png",277,373 C,0,15246,,190,143,145 F,2,15246,15446,1,0 S,2,15246,15446,1.5,0.3
Sprite,Background,Centre,"sb\etc\l.png",0,0 C,0,15333,,190,143,145 M,0,15333,15376,277,359,275.866,341.5368 F,2,15333,15706,1,0 S,2,15333,15706,1.5,0.3 M,0,15376,15419,275.866,341.5368,274.7321,324.0735 M,0,15419,15463,274.7321,324.0735,273.5981,306.6104 M,0,15463,15506,273.5981,306.6104,272.4641,289.1471
Sprite,Background,Centre,"sb\etc\l.png",258,134 C,0,15680,,190,143,145 F,2,15680,15880,1,0 S,2,15680,15880,1.5,0.3
Sprite,Background,Centre,"sb\etc\l.png",0,0 C,0,233830,,136,176,200 M,0,233830,233873,561,332,544.4716,337.6475 F,2,233830,234376,1,0 S,2,233830,234376,1.5,0.3 M,0,233873,233916,544.4716,337.6475,527.2465,340.463 M,0,233916,233960,527.2465,340.463,509.8032,340.3719 M,0,233960,234003,509.8032,340.3719,492.6256,337.3794 M,0,234003,234046,492.6256,337.3794,476.1901,331.5702 M,0,234046,234090,476.1901,331.5702,460.8167,323.3157 M,0,234090,234133,460.8167,323.3157,447.2482,312.3282 M,0,234133,234176,447.2482,312.3282,435.7054,299.2441
Sprite,Background,Centre,"sb\etc\l.png",378,214 C,0,234350,,136,176,200 F,2,234350,234550,1,0 S,2,234350,234550,1.5,0.3
Sprite,Background,Centre,"sb\etc\l.png",378,214 C,0,234436,,136,176,200 F,2,234436,234636,1,0 S,2,234436,234636,1.5,0.3
Sprite,Background,Centre,"sb\etc\l.png",0,0 C,0,234523,,136,176,200 M,0,234523,234566,378,214,379.8084,196.5937 F,2,234523,234896,1,0 S,2,234523,234896,1.5,0.3 M,0,234566,234609,379.8084,196.5937,381.6169,179.1874 M,0,234609,234653,381.6169,179.1874,383.4254,161.7811 M,0,234653,234696,383.4254,161.7811,385.2338,144.3748
Sprite,Background,Centre,"sb\etc\l.png",265,56 C,0,234870,,136,176,200 F,2,234870,235070,1,0 S,2,234870,235070,1.5,0.3
Sprite,Background,Centre,"sb\etc\l.png",0,0 C,0,235217,,190,143,145 M,0,235217,235260,265,56,273.8724,71.06519 F,2,235217,235763,1,0 S,2,235217,235763,1.5,0.3 M,0,235260,235303,273.8724,71.06519,280.8843,87.07454 M,0,235303,235347,280.8843,87.07454,285.9372,103.8005 M,0,235347,235390,285.9372,103.8005,288.9605,121.0056 M,0,235390,235433,288.9605,121.0056,289.912,138.4456 M,0,235433,235477,289.912,138.4456,288.7787,155.8731 M,0,235477,235520,288.7787,155.8731,285.7583,173.0841 M,0,235520,235563,285.7583,173.0841,280.4622,189.7426
Sprite,Background,Centre,"sb\etc\l.png",211,271 C,0,235737,,190,143,145 F,2,235737,235937,1,0 S,2,235737,235937,1.5,0.3
Sprite,Background,Centre,"sb\etc\l.png",211,271 C,0,235824,,190,143,145 F,2,235824,236024,1,0 S,2,235824,236024,1.5,0.3
Sprite,Background,Centre,"sb\etc\l.png",0,0 C,0,235910,,190,143,145 M,0,235910,235953,211,271,212.5254,288.4334 F,2,235910,236283,1,0 S,2,235910,236283,1.5,0.3 M,0,235953,235996,212.5254,288.4334,214.0508,305.8668 M,0,235996,236040,214.0508,305.8668,215.5763,323.3002 M,0,236040,236083,215.5763,323.3002,217.1017,340.7336
Sprite,Background,Centre,"sb\etc\l.png",109,425 C,0,236257,,190,143,145 F,2,236257,236457,1,0 S,2,236257,236457,1.5,0.3
Sprite,Background,Centre,"sb\etc\l.png",0,0 C,0,236604,,206,203,140 M,0,236604,236647,109,425,101.2914,409.3062 F,2,236604,237150,1,0 S,2,236604,237150,1.5,0.3 M,0,236647,236690,101.2914,409.3062,95.45679,392.8295 M,0,236690,236734,95.45679,392.8295,91.57349,375.7918 M,0,236734,236777,91.57349,375.7918,89.69283,358.4224 M,0,236777,236820,89.69283,358.4224,89.8394,340.9548 M,0,236820,236864,89.8394,340.9548,92.01073,323.624 M,0,236864,236907,92.01073,323.624,95.97099,306.5994 M,0,236907,236950,95.97099,306.5994,102.1117,290.2252
Sprite,Background,Centre,"sb\etc\l.png",162,199 C,0,237124,,206,203,140 F,2,237124,237324,1,0 S,2,237124,237324,1.5,0.3
Sprite,Background,Centre,"sb\etc\l.png",162,199 C,0,237211,,206,203,140 F,2,237211,237411,1,0 S,2,237211,237411,1.5,0.3
Sprite,Background,Centre,"sb\etc\l.png",0,0 C,0,237298,,206,203,140 M,0,237298,237341,162,199,179.4334,200.5254 F,2,237298,237671,1,0 S,2,237298,237671,1.5,0.3 M,0,237341,237384,179.4334,200.5254,196.8668,202.0508 M,0,237384,237428,196.8668,202.0508,214.3002,203.5763 M,0,237428,237471,214.3002,203.5763,231.7336,205.1017
Sprite,Background,Centre,"sb\etc\l.png",364,109 C,0,237645,,206,203,140 F,2,237645,237845,1,0 S,2,237645,237845,1.5,0.3
Sprite,Background,Centre,"sb\etc\l.png",0,0 C,0,237992,,126,169,128 M,0,237992,238035,364,109,377.7582,98.26375 F,2,237992,238538,1,0 S,2,237992,238538,1.5,0.3 M,0,238035,238078,377.7582,98.26375,393.5272,90.8203 M,0,238078,238122,393.5272,90.8203,410.5342,87.02811 M,0,238122,238165,410.5342,87.02811,427.9473,87.06741 M,0,238165,238208,427.9473,87.06741,444.9158,90.93168 M,0,238208,238252,444.9158,90.93168,460.6115,98.42818 M,0,238252,238295,460.6115,98.42818,474.269,109.1875 M,0,238295,238338,474.269,109.1875,485.2226,122.6814
Sprite,Background,Centre,"sb\etc\l.png",527,210 C,0,238512,,126,169,128 F,2,238512,238712,1,0 S,2,238512,238712,1.5,0.3
Sprite,Background,Centre,"sb\etc\l.png",527,210 C,0,238598,,126,169,128 F,2,238598,238798,1,0 S,2,238598,238798,1.5,0.3
Sprite,Background,Centre,"sb\etc\l.png",0,0 C,0,238685,,126,169,128 M,0,238685,238728,527,210,509.5666,211.5254 F,2,238685,239058,1,0 S,2,238685,239058,1.5,0.3 M,0,238728,238771,509.5666,211.5254,492.1332,213.0508 M,0,238771,238815,492.1332,213.0508,474.6998,214.5763 M,0,238815,238858,474.6998,214.5763,457.2664,216.1017
Sprite,Background,Centre,"sb\etc\l.png",351,293 C,0,239032,,126,169,128 F,2,239032,239232,1,0 S,2,239032,239232,1.5,0.3
Sprite,Background,Centre,"sb\etc\l.png",0,0 C,0,239379,,136,176,200 M,0,239379,239422,351,293,366.9444,300.213 F,2,239379,239925,1,0 S,2,239379,239925,1.5,0.3 M,0,239422,239465,366.9444,300.213,382.8888,307.4259 M,0,239465,239509,382.8888,307.4259,399.3687,311.3453 M,0,239509,239552,399.3687,311.3453,416.777,309.5556 M,0,239552,239595,416.777,309.5556,434.1852,307.766 M,0,239595,239639,434.1852,307.766,451.5935,305.9764 M,0,239639,239682,451.5935,305.9764,469.0017,304.1867 M,0,239682,239725,469.0017,304.1867,486.41,302.3971
Sprite,Background,Centre,"sb\etc\l.png",576,367 C,0,239899,,136,176,200 F,2,239899,240099,1,0 S,2,239899,240099,1.5,0.3
Sprite,Background,Centre,"sb\etc\l.png",576,367 C,0,239986,,136,176,200 F,2,239986,240186,1,0 S,2,239986,240186,1.5,0.3
Sprite,Background,Centre,"sb\etc\l.png",0,0 C,0,240072,,136,176,200 M,0,240072,240115,576,367,558.6641,369.3911 F,2,240072,240445,1,0 S,2,240072,240445,1.5,0.3 M,0,240115,240158,558.6641,369.3911,541.3282,371.7823 M,0,240158,240202,541.3282,371.7823,523.9924,374.1735 M,0,240202,240245,523.9924,374.1735,506.6565,376.5646
Sprite,Background,Centre,"sb\etc\l.png",0,0 C,0,240419,,136,176,200 M,0,240419,240462,344,418,326.6641,415.6089 F,2,240419,240792,1,0 S,2,240419,240792,1.5,0.3 M,0,240462,240505,326.6641,415.6089,309.3282,413.2177 M,0,240505,240549,309.3282,413.2177,291.9924,410.8265 M,0,240549,240592,291.9924,410.8265,274.6565,408.4354
Sprite,Background,Centre,"sb\etc\l.png",0,0 C,0,240766,,190,143,145 M,0,240766,240809,116,308,133.1812,304.6746 F,2,240766,241312,1,0 S,2,240766,241312,1.5,0.3 M,0,240809,240852,133.1812,304.6746,150.3623,301.3492 M,0,240852,240896,150.3623,301.3492,167.5434,298.0239 M,0,240896,240939,167.5434,298.0239,184.4271,298.3679 M,0,240939,240982,184.4271,298.3679,200.9937,302.0681 M,0,240982,241026,200.9937,302.0681,218.0359,298.0916 M,0,241026,241069,218.0359,298.0916,235.0781,294.1151 M,0,241069,241112,235.0781,294.1151,252.1203,290.1386
Sprite,Background,Centre,"sb\etc\l.png",337,219 C,0,241286,,190,143,145 F,2,241286,241486,1,0 S,2,241286,241486,1.5,0.3
Sprite,Background,Centre,"sb\etc\l.png",337,219 C,0,241373,,190,143,145 F,2,241373,241573,1,0 S,2,241373,241573,1.5,0.3
Sprite,Background,Centre,"sb\etc\l.png",0,0 C,0,241460,,190,143,145 M,0,241460,241503,337,219,340.9307,201.9967 F,2,241460,241833,1,0 S,2,241460,241833,1.5,0.3 M,0,241503,241546,340.9307,201.9967,341.3625,184.5691 M,0,241546,241590,341.3625,184.5691,338.2839,167.4252 M,0,241590,241633,338.2839,167.4252,332.0565,151.1318
Sprite,Background,Centre,"sb\etc\l.png",0,0 C,0,241806,,190,143,145 M,0,241806,241849,226,76,220.2345,92.44992 F,2,241806,242179,1,0 S,2,241806,242179,1.5,0.3 M,0,241849,241892,220.2345,92.44992,217.4652,109.6087 M,0,241892,241936,217.4652,109.6087,218.2009,126.9738 M,0,241936,241979,218.2009,126.9738,221.996,143.9867
Sprite,Background,Centre,"sb\etc\l.png",116,308 C,0,242153,,206,203,140 F,2,242153,242353,1,0 S,2,242153,242353,1.5,0.3
Sprite,Background,Centre,"sb\etc\l.png",116,308 C,0,242500,,206,203,140 F,2,242500,242700,1,0 S,2,242500,242700,1.5,0.3
Sprite,Background,Centre,"sb\etc\l.png",89,217 C,0,242673,,206,203,140 F,2,242673,242873,1,0 S,2,242673,242873,1.5,0.3
Sprite,Background,Centre,"sb\etc\l.png",89,217 C,0,242760,,206,203,140 F,2,242760,242960,1,0 S,2,242760,242960,1.5,0.3
Sprite,Background,Centre,"sb\etc\l.png",0,0 C,0,242847,,206,203,140 M,0,242847,242890,89,217,91.06873,199.6227 F,2,242847,243220,1,0 S,2,242847,243220,1.5,0.3 M,0,242890,242933,91.06873,199.6227,93.13745,182.2454 M,0,242933,242977,93.13745,182.2454,95.20618,164.8681 M,0,242977,243020,95.20618,164.8681,97.2749,147.4908
Sprite,Background,Centre,"sb\etc\l.png",0,0 C,0,243194,,206,203,140 M,0,243194,243237,226,76,228.2316,93.35712 F,2,243194,243567,1,0 S,2,243194,243567,1.5,0.3 M,0,243237,243280,228.2316,93.35712,230.4633,110.7142 M,0,243280,243324,230.4633,110.7142,232.6949,128.0714 M,0,243324,243367,232.6949,128.0714,234.9265,145.4285
Sprite,Background,Centre,"sb\etc\l.png",345,242 C,0,243540,,126,169,128 F,2,243540,243740,1,0 S,2,243540,243740,1.5,0.3
Sprite,Background,Centre,"sb\etc\l.png",345,242 C,0,243887,,126,169,128 F,2,243887,244087,1,0 S,2,243887,244087,1.5,0.3
Sprite,Background,Centre,"sb\etc\l.png",436,269 C,0,244061,,126,169,128 F,2,244061,244261,1,0 S,2,244061,244261,1.5,0.3
Sprite,Background,Centre,"sb\etc\l.png",436,269 C,0,244147,,126,169,128 F,2,244147,244347,1,0 S,2,244147,244347,1.5,0.3
Sprite,Background,Centre,"sb\etc\l.png",0,0 C,0,244234,,126,169,128 M,0,244234,244277,436,269,453.3773,266.9313 F,2,244234,244607,1,0 S,2,244234,244607,1.5,0.3 M,0,244277,244320,453.3773,266.9313,470.7546,264.8625 M,0,244320,244364,470.7546,264.8625,488.1319,262.7938 M,0,244364,244407,488.1319,262.7938,505.5092,260.7251
Sprite,Background,Centre,"sb\etc\l.png",0,0 C,0,244495,,126,169,128 M,0,244495,244538,576,175,559.5757,180.9619 F,2,244495,244955,1,0 S,2,244495,244955,1.5,0.3 M,0,244538,244581,559.5757,180.9619,542.4197,184.2272 M,0,244581,244625,542.4197,184.2272,524.9706,184.7152 M,0,244625,244668,524.9706,184.7152,507.6736,182.4157 M,0,244668,244711,507.6736,182.4157,490.9699,177.3892 M,0,244711,244755,490.9699,177.3892,475.2855,169.7654
Sprite,Background,Centre,"sb\etc\l.png",0,0 C,0,244928,,136,176,200 M,0,244928,244971,327,205,310.4715,210.6475 F,2,244928,245474,1,0 S,2,244928,245474,1.5,0.3 M,0,244971,245014,310.4715,210.6475,293.2465,213.4631 M,0,245014,245058,293.2465,213.4631,275.8032,213.3719 M,0,245058,245101,275.8032,213.3719,258.6256,210.3794 M,0,245101,245144,258.6256,210.3794,242.19,204.5702 M,0,245144,245188,242.19,204.5702,226.8167,196.3157 M,0,245188,245231,226.8167,196.3157,213.2482,185.3282 M,0,245231,245274,213.2482,185.3282,201.7054,172.2441
Sprite,Background,Centre,"sb\etc\l.png",83,103 C,0,245448,,136,176,200 F,2,245448,245648,1,0 S,2,245448,245648,1.5,0.3
Sprite,Background,Centre,"sb\etc\l.png",83,103 C,0,245534,,136,176,200 F,2,245534,245734,1,0 S,2,245534,245734,1.5,0.3
Sprite,Background,Centre,"sb\etc\l.png",0,0 C,0,245621,,136,176,200 M,0,245621,245664,83,103,84.80845,120.4063 F,2,245621,245994,1,0 S,2,245621,245994,1.5,0.3 M,0,245664,245707,84.80845,120.4063,86.6169,137.8126 M,0,245707,245751,86.6169,137.8126,88.42534,155.2189 M,0,245751,245794,88.42534,155.2189,90.23379,172.6252
Sprite,Background,Centre,"sb\etc\l.png",120,330 C,0,245968,,136,176,200 F,2,245968,246168,1,0 S,2,245968,246168,1.5,0.3
Sprite,Background,Centre,"sb\etc\l.png",0,0 C,0,246315,,190,143,145 M,0,246315,246358,120,330,135.0652,321.1276 F,2,246315,246861,1,0 S,2,246315,246861,1.5,0.3 M,0,246358,246401,135.0652,321.1276,151.0745,314.1158 M,0,246401,246445,151.0745,314.1158,167.8005,309.0628 M,0,246445,246488,167.8005,309.0628,185.0056,306.0395 M,0,246488,246531,185.0056,306.0395,202.4456,305.088 M,0,246531,246575,202.4456,305.088,219.8731,306.2213 M,0,246575,246618,219.8731,306.2213,237.0841,309.2417 M,0,246618,246661,237.0841,309.2417,253.7426,314.5378
Sprite,Background,Centre,"sb\etc\l.png",394,363 C,0,246835,,190,143,145 F,2,246835,247035,1,0 S,2,246835,247035,1.5,0.3
Sprite,Background,Centre,"sb\etc\l.png",394,363 C,0,246922,,190,143,145 F,2,246922,247122,1,0 S,2,246922,247122,1.5,0.3
Sprite,Background,Centre,"sb\etc\l.png",0,0 C,0,247009,,190,143,145 M,0,247009,247052,394,363,411.4334,361.4746 F,2,247009,247382,1,0 S,2,247009,247382,1.5,0.3 M,0,247052,247095,411.4334,361.4746,428.8668,359.9492 M,0,247095,247139,428.8668,359.9492,446.3002,358.4237 M,0,247139,247182,446.3002,358.4237,463.7336,356.8983
Sprite,Background,Centre,"sb\etc\l.png",576,284 C,0,247355,,190,143,145 F,2,247355,247555,1,0 S,2,247355,247555,1.5,0.3
Sprite,Background,Centre,"sb\etc\l.png",0,0 C,0,247703,,206,203,140 M,0,247703,247746,576,284,568.2914,268.3062 F,2,247703,248249,1,0 S,2,247703,248249,1.5,0.3 M,0,247746,247789,568.2914,268.3062,562.4568,251.8295 M,0,247789,247833,562.4568,251.8295,558.5735,234.7918 M,0,247833,247876,558.5735,234.7918,556.6929,217.4224 M,0,247876,247919,556.6929,217.4224,556.8394,199.9548 M,0,247919,247963,556.8394,199.9548,559.0107,182.624 M,0,247963,248006,559.0107,182.624,562.971,165.5994 M,0,248006,248049,562.971,165.5994,569.1117,149.2252
Sprite,Background,Centre,"sb\etc\l.png",463,77 C,0,248222,,206,203,140 F,2,248222,248422,1,0 S,2,248222,248422,1.5,0.3
Sprite,Background,Centre,"sb\etc\l.png",463,77 C,0,248309,,206,203,140 F,2,248309,248509,1,0 S,2,248309,248509,1.5,0.3
Sprite,Background,Centre,"sb\etc\l.png",0,0 C,0,248396,,206,203,140 M,0,248396,248439,463,77,464.5254,94.4334 F,2,248396,248769,1,0 S,2,248396,248769,1.5,0.3 M,0,248439,248482,464.5254,94.4334,466.0508,111.8668 M,0,248482,248526,466.0508,111.8668,467.5763,129.3002 M,0,248526,248569,467.5763,129.3002,469.1017,146.7336
Sprite,Background,Centre,"sb\etc\l.png",373,279 C,0,248743,,206,203,140 F,2,248743,248943,1,0 S,2,248743,248943,1.5,0.3
Sprite,Background,Centre,"sb\etc\l.png",0,0 C,0,249090,,126,169,128 M,0,249090,249133,373,279,359.2418,289.7363 F,2,249090,249636,1,0 S,2,249090,249636,1.5,0.3 M,0,249133,249176,359.2418,289.7363,343.4728,297.1797 M,0,249176,249220,343.4728,297.1797,326.4658,300.9719 M,0,249220,249263,326.4658,300.9719,309.0527,300.9326 M,0,249263,249306,309.0527,300.9326,292.0842,297.0683 M,0,249306,249350,292.0842,297.0683,276.3885,289.5718 M,0,249350,249393,276.3885,289.5718,262.731,278.8125 M,0,249393,249436,262.731,278.8125,251.7774,265.3185
Sprite,Background,Centre,"sb\etc\l.png",210,178 C,0,249610,,126,169,128 F,2,249610,249810,1,0 S,2,249610,249810,1.5,0.3
Sprite,Background,Centre,"sb\etc\l.png",210,178 C,0,249696,,126,169,128 F,2,249696,249896,1,0 S,2,249696,249896,1.5,0.3
Sprite,Background,Centre,"sb\etc\l.png",0,0 C,0,249783,,126,169,128 M,0,249783,249826,210,178,227.4334,176.4746 F,2,249783,250156,1,0 S,2,249783,250156,1.5,0.3 M,0,249826,249869,227.4334,176.4746,244.8668,174.9492 M,0,249869,249913,244.8668,174.9492,262.3002,173.4237 M,0,249913,249956,262.3002,173.4237,279.7336,171.8983
Sprite,Background,Centre,"sb\etc\l.png",386,95 C,0,250130,,126,169,128 F,2,250130,250330,1,0 S,2,250130,250330,1.5,0.3
Sprite,Background,Centre,"sb\etc\l.png",0,0 C,0,250477,,136,176,200 M,0,250477,250520,386,95,379.8822,111.3958 F,2,250477,251023,1,0 S,2,250477,251023,1.5,0.3 M,0,250520,250563,379.8822,111.3958,373.7643,127.7916 M,0,250563,250607,373.7643,127.7916,367.6465,144.1874 M,0,250607,250650,367.6465,144.1874,361.5287,160.5832 M,0,250650,250693,361.5287,160.5832,366.7767,176.9077 M,0,250693,250737,366.7767,176.9077,373.0998,193.2254 M,0,250737,250780,373.0998,193.2254,379.4229,209.5431 M,0,250780,250823,379.4229,209.5431,385.7461,225.8608
Sprite,Background,Centre,"sb\etc\l.png",469,334 C,0,250997,,136,176,200 F,2,250997,251197,1,0 S,2,250997,251197,1.5,0.3
Sprite,Background,Centre,"sb\etc\l.png",469,334 C,0,251084,,136,176,200 F,2,251084,251284,1,0 S,2,251084,251284,1.5,0.3
Sprite,Background,Centre,"sb\etc\l.png",0,0 C,0,251171,,136,176,200 M,0,251171,251214,469,334,451.6641,336.3911 F,2,251171,251544,1,0 S,2,251171,251544,1.5,0.3 M,0,251214,251257,451.6641,336.3911,434.3282,338.7823 M,0,251257,251301,434.3282,338.7823,416.9924,341.1735 M,0,251301,251344,416.9924,341.1735,399.6565,343.5646
Sprite,Background,Centre,"sb\etc\l.png",0,0 C,0,251517,,136,176,200 M,0,251517,251560,269,418,251.6641,415.6089 F,2,251517,251890,1,0 S,2,251517,251890,1.5,0.3 M,0,251560,251603,251.6641,415.6089,234.3283,413.2177 M,0,251603,251647,234.3283,413.2177,216.9924,410.8265 M,0,251647,251690,216.9924,410.8265,199.6565,408.4354
Sprite,Background,Centre,"sb\etc\l.png",0,0 C,0,251865,,190,143,145 M,0,251865,251908,67,302,84.18115,298.6746 F,2,251865,252411,1,0 S,2,251865,252411,1.5,0.3 M,0,251908,251951,84.18115,298.6746,101.3623,295.3492 M,0,251951,251995,101.3623,295.3492,118.5434,292.0239 M,0,251995,252038,118.5434,292.0239,135.4271,292.3679 M,0,252038,252081,135.4271,292.3679,151.9937,296.0681 M,0,252081,252125,151.9937,296.0681,169.0359,292.0916 M,0,252125,252168,169.0359,292.0916,186.0781,288.1151 M,0,252168,252211,186.0781,288.1151,203.1203,284.1386
Sprite,Background,Centre,"sb\etc\l.png",316,189 C,0,252384,,190,143,145 F,2,252384,252584,1,0 S,2,252384,252584,1.5,0.3
Sprite,Background,Centre,"sb\etc\l.png",316,189 C,0,252471,,190,143,145 F,2,252471,252671,1,0 S,2,252471,252671,1.5,0.3
Sprite,Background,Centre,"sb\etc\l.png",0,0 C,0,252558,,190,143,145 M,0,252558,252601,316,189,333.0033,185.0693 F,2,252558,252931,1,0 S,2,252558,252931,1.5,0.3 M,0,252601,252644,333.0033,185.0693,350.4309,184.6376 M,0,252644,252688,350.4309,184.6376,367.5748,187.7161 M,0,252688,252731,367.5748,187.7161,383.8682,193.9435
Sprite,Background,Centre,"sb\etc\l.png",0,0 C,0,252905,,190,143,145 M,0,252905,252948,500,269,517.1236,272.4924 F,2,252905,253278,1,0 S,2,252905,253278,1.5,0.3 M,0,252948,252991,517.1236,272.4924,534.592,272.9446 M,0,252991,253035,534.592,272.9446,551.8699,270.3437 M,0,253035,253078,551.8699,270.3437,568,265
Sprite,Background,Centre,"sb\etc\l.png",573,107 C,0,253251,,206,203,140 F,2,253251,253451,1,0 S,2,253251,253451,1.5,0.3
Sprite,Background,Centre,"sb\etc\l.png",573,107 C,0,253598,,206,203,140 F,2,253598,253798,1,0 S,2,253598,253798,1.5,0.3
Sprite,Background,Centre,"sb\etc\l.png",482,80 C,0,253771,,206,203,140 F,2,253771,253971,1,0 S,2,253771,253971,1.5,0.3
Sprite,Background,Centre,"sb\etc\l.png",482,80 C,0,253858,,206,203,140 F,2,253858,254058,1,0 S,2,253858,254058,1.5,0.3
Sprite,Background,Centre,"sb\etc\l.png",0,0 C,0,253945,,206,203,140 M,0,253945,253988,482,80,464.6227,82.06873 F,2,253945,254318,1,0 S,2,253945,254318,1.5,0.3 M,0,253988,254031,464.6227,82.06873,447.2454,84.13745 M,0,254031,254075,447.2454,84.13745,429.8681,86.20618 M,0,254075,254118,429.8681,86.20618,412.4908,88.2749
Sprite,Background,Centre,"sb\etc\l.png",0,0 C,0,254292,,206,203,140 M,0,254292,254335,341,217,358.3571,219.2316 F,2,254292,254665,1,0 S,2,254292,254665,1.5,0.3 M,0,254335,254378,358.3571,219.2316,375.7142,221.4633 M,0,254378,254422,375.7142,221.4633,393.0714,223.6949 M,0,254422,254465,393.0714,223.6949,410.4285,225.9265
Sprite,Background,Centre,"sb\etc\l.png",487,382 C,0,254638,,126,169,128 F,2,254638,254838,1,0 S,2,254638,254838,1.5,0.3
Sprite,Background,Centre,"sb\etc\l.png",487,382 C,0,254985,,126,169,128 F,2,254985,255185,1,0 S,2,254985,255185,1.5,0.3
Sprite,Background,Centre,"sb\etc\l.png",396,409 C,0,255159,,126,169,128 F,2,255159,255359,1,0 S,2,255159,255359,1.5,0.3
Sprite,Background,Centre,"sb\etc\l.png",396,409 C,0,255245,,126,169,128 F,2,255245,255445,1,0 S,2,255245,255445,1.5,0.3
Sprite,Background,Centre,"sb\etc\l.png",0,0 C,0,255332,,126,169,128 M,0,255332,255375,396,409,378.6227,406.9313 F,2,255332,255705,1,0 S,2,255332,255705,1.5,0.3 M,0,255375,255418,378.6227,406.9313,361.2454,404.8625 M,0,255418,255462,361.2454,404.8625,343.8681,402.7938 M,0,255462,255505,343.8681,402.7938,326.4908,400.7251
Sprite,Background,Centre,"sb\etc\l.png",0,0 C,0,255680,,126,169,128 M,0,255680,255723,256,282,273.3773,279.9313 F,2,255680,256053,1,0 S,2,255680,256053,1.5,0.3 M,0,255723,255766,273.3773,279.9313,290.7546,277.8625 M,0,255766,255810,290.7546,277.8625,308.1319,275.7938 M,0,255810,255853,308.1319,275.7938,325.5092,273.7251
//Storyboard Layer 1 (Fail)
//Storyboard Layer 2 (Pass)
//Storyboard Layer 3 (Foreground)
//Storyboard Layer 4 (Overlay)
//Storyboard Sound Samples

[TimingPoints]
767,346.820809248555,4,2,2,60,1,0
10477,-100,4,2,2,40,0,0
11258,-100,4,2,2,35,0,0
11345,-100,4,2,2,40,0,0
11865,-100,4,2,2,50,0,0
12905,-100,4,2,2,60,0,0
13252,-100,4,2,2,45,0,0
14293,-100,4,2,2,60,0,0
14639,-100,4,2,2,40,0,0
15680,-100,4,2,2,60,0,0
16027,-100,4,2,2,40,0,0
17414,-100,4,2,2,45,0,0
18801,-100,4,2,2,50,0,0
20188,-100,4,2,2,55,0,0
21576,-100,4,2,2,60,0,0
22963,-100,4,2,2,80,0,0
45160,-250,4,2,2,25,0,0
53483,-250,4,2,2,35,0,0
64582,-250,4,2,2,5,0,0
67356,-250,4,2,2,35,0,0
77761,-250,4,2,2,40,0,0
78454,-250,4,2,2,35,0,0
88859,-250,4,2,2,45,0,0
95795,-250,4,2,2,54,0,0
97876,-250,4,2,2,45,0,0
106200,-250,4,2,2,55,0,0
108975,-250,4,2,2,60,0,0
122847,-1000,4,2,2,40,0,0
123541,-500,4,2,3,50,0,0
124235,-333.333333333333,4,2,2,55,0,0
124928,-250,4,2,3,70,0,0
125622,-1000,4,2,2,65,0,0
126316,-500,4,2,3,70,0,0
127009,-333.333333333333,4,2,2,75,0,0
127703,-250,4,2,3,80,0,0
128397,-142.857142857143,4,2,2,60,0,0
129090,-142.857142857143,4,2,3,70,0,0
129177,-142.857142857143,4,2,2,60,0,0
130477,-142.857142857143,4,2,3,80,0,0
130564,-142.857142857143,4,2,2,60,0,0
132905,-142.857142857143,4,2,2,30,0,0
133252,-142.857142857143,4,2,2,50,0,0
133946,-50,4,2,1,80,0,1
134553,-200,4,2,1,80,0,1
134986,-66.6666666666667,4,2,1,80,0,1
135333,-66.6666666666667,4,2,1,80,0,1
137761,-66.6666666666667,4,2,1,80,0,1
138108,-66.6666666666667,4,2,1,80,0,1
139495,-50,4,2,1,80,0,1
140188,-200,4,2,1,80,0,1
140535,-66.6666666666667,4,2,1,80,0,1
140882,-66.6666666666667,4,2,1,80,0,1
142269,-66.6666666666667,4,2,1,80,0,0
142963,-55.5555555555556,4,2,1,80,0,0
144784,-55.5555555555556,4,2,1,5,0,0
144871,-55.5555555555556,4,2,1,80,0,0
144957,-55.5555555555556,4,2,1,5,0,0
145044,-50,4,2,1,80,0,1
145651,-66.6666666666667,4,2,1,80,0,1
146084,-66.6666666666667,4,2,1,80,0,1
146431,-66.6666666666667,4,2,1,80,0,1
148512,-66.6666666666667,4,2,2,80,0,1
148599,-66.6666666666667,4,2,1,80,0,1
150593,-50,4,2,1,80,0,1
151200,-66.6666666666667,4,2,1,80,0,1
151634,-66.6666666666667,4,2,1,80,0,1
151980,-66.6666666666667,4,2,1,80,0,1
153368,-66.6666666666667,4,2,1,80,0,0
153714,-200,4,2,2,80,0,0
153975,-200,4,2,1,80,0,0
154061,-66.6666666666667,4,2,1,80,0,0
154755,-100,4,2,1,80,0,0
156142,-50,4,2,1,80,0,1
157183,-66.6666666666667,4,2,1,80,0,1
157530,-66.6666666666667,4,2,1,80,0,1
159957,-66.6666666666667,4,2,1,80,0,1
160304,-66.6666666666667,4,2,1,80,0,1
161691,-50,4,2,1,80,0,1
162038,-66.6666666666667,4,2,1,80,0,1
162385,-66.6666666666667,4,2,2,80,0,1
162472,-66.6666666666667,4,2,1,80,0,1
162732,-66.6666666666667,4,2,1,80,0,1
163079,-66.6666666666667,4,2,1,80,0,1
164466,-66.6666666666667,4,2,1,80,0,0
165160,-55.5555555555556,4,2,1,80,0,0
167240,-50,4,2,1,80,0,1
167587,-66.6666666666667,4,2,1,80,0,1
168281,-66.6666666666667,4,2,1,80,0,1
168628,-66.6666666666667,4,2,1,80,0,1
171056,-66.6666666666667,4,2,1,80,0,1
171402,-66.6666666666667,4,2,1,80,0,1
172790,-50,4,2,1,80,0,1
173483,-66.6666666666667,4,2,1,80,0,1
173830,-66.6666666666667,4,2,1,80,0,1
174177,-66.6666666666667,4,2,1,80,0,1
175564,-66.6666666666667,4,2,1,80,0,0
175911,-66.6666666666667,4,2,3,80,0,0
176258,-66.6666666666667,4,2,1,80,0,0
176605,-66.6666666666667,4,2,3,80,0,0
176951,-66.6666666666667,4,2,1,80,0,0
177298,-66.6666666666667,4,2,3,80,0,0
177645,-66.6666666666667,4,2,1,80,0,0
177992,-66.6666666666667,4,2,3,80,0,0
178339,-66.6666666666667,4,2,1,80,0,1
178599,-66.6666666666667,4,2,1,80,0,0
187009,-55.5555555555556,4,2,3,80,0,0
187356,-66.6666666666667,4,2,1,80,0,0
187703,-55.5555555555556,4,2,3,80,0,0
188050,-66.6666666666667,4,2,1,80,0,0
188397,-55.5555555555556,4,2,3,80,0,0
188743,-66.6666666666667,4,2,1,80,0,0
189437,-66.6666666666667,4,2,1,80,0,1
189697,-66.6666666666667,4,2,1,80,0,0
200535,-66.6666666666667,4,2,1,80,0,1
200795,-66.6666666666667,4,2,1,80,0,0
211287,-66.6666666666667,4,2,2,80,0,0
211634,-66.6666666666667,4,2,1,80,0,1
211894,-66.6666666666667,4,2,1,80,0,0
213368,-66.6666666666667,4,2,1,80,0,0
213454,-66.6666666666667,4,2,1,80,0,0
213628,-66.6666666666667,4,2,1,80,0,0
213714,-66.6666666666667,4,2,1,80,0,0
213888,-66.6666666666667,4,2,1,80,0,0
213974,-66.6666666666667,4,2,1,80,0,0
214148,-66.6666666666667,4,2,1,80,0,0
214234,-66.6666666666667,4,2,1,80,0,0
233830,-100,4,2,2,60,0,0
244928,-100,4,2,2,50,0,0

[Colours]
Combo1 : 206,203,140
Combo2 : 126,169,128
Combo3 : 136,176,200
Combo4 : 190,143,145

[HitObjects]
15,108,767,6,0,P|57:99|151:158,1,140,4|8,0:1|0:0,0:0:0:0:
198,226,1287,1,0,3:0:0:0:
198,226,1373,1,4,0:3:0:0:
198,226,1460,2,0,L|190:303,1,70,2|2,3:0|3:0,0:0:0:0:
311,384,1807,1,8,0:0:0:0:
311,384,2154,6,0,P|288:327|305:230,1,140,4|8,3:0|0:0,0:0:0:0:
365,169,2674,1,0,3:0:0:0:
365,169,2761,1,4,3:0:0:0:
365,169,2847,2,0,L|358:89,1,70,2|2,3:0|3:0,0:0:0:0:
467,15,3194,1,8,0:0:0:0:
467,15,3541,6,0,P|484:61|471:156,1,140,4|8,3:0|0:0,0:0:0:0:
414,241,4061,1,0,3:0:0:0:
414,241,4148,1,4,3:0:0:0:
414,241,4235,2,0,L|334:234,1,70,2|2,3:0|3:0,0:0:0:0:
212,331,4582,1,8,0:0:0:0:
212,331,4928,6,0,P|177:351|82:300,1,140,4|8,3:0|0:0,0:0:0:0:
49,230,5449,1,0,3:0:0:0:
49,230,5535,1,4,3:0:0:0:
49,230,5622,2,0,L|129:223,1,70,2|2,3:0|3:0,0:0:0:0:
225,147,5969,1,8,0:0:0:0:
225,147,6316,6,0,B|183:128|183:128|76:139,1,140,4|8,3:0|0:0,0:0:0:0:
0,73,6836,1,0,3:0:0:0:
0,73,6923,1,4,3:0:0:0:
0,73,7009,2,0,L|87:61,1,70,2|2,3:0|3:0,0:0:0:0:
232,22,7356,2,0,L|319:34,1,70,8|0,0:0|0:0,0:0:0:0:
460,132,7703,6,0,B|398:144|398:144|379:137|379:137|319:151,1,140,4|8,3:0|0:0,0:0:0:0:
239,221,8223,1,0,3:0:0:0:
239,221,8310,1,4,3:0:0:0:
239,221,8397,2,0,P|235:261|245:291,1,70,2|2,3:0|3:0,0:0:0:0:
350,364,8743,2,0,P|359:330|354:296,1,70,8|0,0:0|0:0,0:0:0:0:
460,132,9090,5,4,3:0:0:0:
460,132,9437,1,8,0:0:0:0:
487,223,9610,1,0,3:0:0:0:
487,223,9697,1,4,3:0:0:0:
487,223,9784,2,0,L|477:307,1,70,2|2,3:0|3:0,0:0:0:0:
350,364,10131,2,0,L|341:294,1,70,8|0,0:0|0:0,0:0:0:0:
231,198,10477,5,4,3:0:0:0:
231,198,10824,1,8,0:0:0:0:
140,171,10998,1,0,3:0:0:0:
140,171,11084,1,4,3:0:0:0:
140,171,11171,2,0,L|56:181,1,70,2|2,3:0|3:0,0:0:0:0:
0,298,11518,2,0,L|84:308,1,70,8|0,0:0|0:0,0:0:0:0:
257,339,11865,6,0,B|337:351|308:297|392:314,1,140,4|8,3:0|0:0,0:0:0:0:
512,359,12472,1,4,3:0:0:0:
509,342,12558,2,0,L|495:261,1,70,2|2,3:0|3:0,0:0:0:0:
464,107,12905,1,8,0:0:0:0:
464,107,13252,6,0,B|384:95|413:149|329:132,1,140,4|8,3:0|0:0,0:0:0:0:
235,57,13859,1,4,3:0:0:0:
220,59,13946,2,0,L|144:66,1,70,2|2,3:0|3:0,0:0:0:0:
0,83,14293,1,8,0:0:0:0:
0,83,14639,6,0,P|-9:154|30:209,1,140,4|8,3:0|0:0,0:0:0:0:
213,317,15246,1,4,3:0:0:0:
213,303,15333,2,0,L|208:226,1,70,2|2,3:0|3:0,0:0:0:0:
194,78,15680,1,8,0:0:0:0:
256,192,16027,12,12,22963,0:0:0:0:
361,276,45160,5,2,0:0:0:0:
361,276,45853,1,10,0:1:0:0:
361,276,46547,2,0,B|293:262|321:314|245:299,1,112,2|8,0:1|0:1,0:0:0:0:
85,259,47587,5,2,0:1:0:0:
35,161,47934,2,0,L|42:102,1,56,2|2,0:1|0:0,0:0:0:0:
152,36,48628,2,0,L|158:91,1,56,2|2,0:1|0:0,0:0:0:0:
254,189,49321,1,2,0:1:0:0:
354,87,49668,1,2,0:1:0:0:
425,189,50015,2,0,P|431:218|428:248,1,56,8|0,0:1|0:0,0:0:0:0:
289,343,50709,6,0,L|225:340,1,56,2|8,0:1|0:1,0:0:0:0:
93,254,51402,2,0,L|148:251,1,56,2|8,0:1|0:1,0:0:0:0:
249,151,52096,1,2,0:0:0:0:
118,172,52443,1,8,0:1:0:0:
253,242,52790,2,0,P|285:240|308:223,1,56,2|8,0:1|0:1,0:0:0:0:
363,59,53483,5,2,0:1:0:0:
264,113,53830,1,8,0:1:0:0:
167,56,54177,1,0,0:0:0:0:
82,129,54524,2,0,L|23:123,2,56,2|2|0,0:1|0:1|0:0,0:0:0:0:
198,203,55564,2,0,L|259:197,1,56,0|8,0:0|0:1,0:0:0:0:
446,149,56258,5,2,0:1:0:0:
446,149,56951,1,2,0:1:0:0:
446,149,57645,2,0,L|453:214,1,56,2|0,0:1|0:0,0:0:0:0:
401,316,58339,1,8,0:1:0:0:
325,168,58686,1,2,0:0:0:0:
217,308,59032,6,0,L|152:302,1,56,2|0,0:1|0:0,0:0:0:0:
308,195,59726,2,0,L|373:189,1,56,10|0,0:1|0:0,0:0:0:0:
451,70,60420,1,2,0:1:0:0:
302,124,60767,1,2,0:0:0:0:
446,226,61113,2,0,P|454:250|453:286,1,56,8|0,0:1|0:0,0:0:0:0:
278,364,61807,5,2,0:0:0:0:
150,297,62154,1,2,0:0:0:0:
281,188,62501,2,0,P|293:224|291:249,1,56,2|0,0:1|0:0,0:0:0:0:
360,93,63194,1,2,0:0:0:0:
230,46,63541,1,2,0:0:0:0:
131,168,63888,2,0,P|151:168|190:149,1,56,2|0,0:1|0:0,0:0:0:0:
256,192,64582,12,0,67009,0:0:0:0:
279,326,67356,5,6,0:0:0:0:
279,326,68050,1,2,0:0:0:0:
279,326,68743,2,0,P|348:304|399:307,1,112,2|8,0:0|0:1,0:0:0:0:
490,360,69784,1,0,0:0:0:0:
512,226,70131,5,4,0:3:0:0:
438,121,70477,2,0,L|441:59,1,56,2|2,0:0|0:0,0:0:0:0:
345,202,71171,1,2,0:0:0:0:
256,82,71518,2,0,L|251:16,2,56,4|2|8,0:3|0:0|0:1,0:0:0:0:
256,82,72905,5,4,0:3:0:0:
163,144,73252,1,8,0:1:0:0:
55,113,73599,1,2,0:1:0:0:
102,214,73946,1,2,0:1:0:0:
175,130,74293,2,0,L|169:67,2,56,2|0|2,0:1|0:0|0:1,0:0:0:0:
175,130,75680,5,4,3:0:0:0:
232,226,76027,1,2,0:0:0:0:
295,133,76373,1,2,0:0:0:0:
366,219,76720,1,2,0:0:0:0:
453,148,77067,1,4,3:0:0:0:
377,65,77414,1,8,0:1:0:0:
471,12,77761,6,0,L|516:18,2,42,8|8|8,1:3|1:3|1:3,0:0:0:0:
326,48,78454,5,4,3:0:0:0:
326,48,79148,1,2,0:0:0:0:
326,48,79842,2,0,B|260:34|287:85|213:70,1,112,2|8,0:0|0:1,0:0:0:0:
100,31,80882,1,8,0:1:0:0:
4,159,81229,6,0,P|-4:194|3:224,1,56,4|2,0:3|0:0,0:0:0:0:
111,344,81923,2,0,P|115:312|108:290,1,56,2|2,0:0|0:0,0:0:0:0:
205,172,82616,1,4,3:0:0:0:
293,310,82963,2,0,L|358:302,1,56,2|8,0:0|0:1,0:0:0:0:
486,126,84003,6,0,L|427:121,1,56,4|2,3:0|0:0,0:0:0:0:
328,73,84697,2,0,L|269:78,1,56,2|2,0:1|0:0,0:0:0:0:
138,148,85391,2,0,P|103:147|75:141,2,56,4|2|2,3:0|0:0|0:0,0:0:0:0:
348,70,86778,5,4,3:0:0:0:
375,178,87125,1,2,0:0:0:0:
342,285,87472,1,2,0:0:0:0:
422,362,87819,1,2,0:0:0:0:
498,280,88165,1,4,3:0:0:0:
417,202,88512,1,2,0:0:0:0:
259,263,88859,2,0,L|204:258,1,56,2|2,0:0|0:0,0:0:0:0:
59,107,89553,6,0,P|84:106|121:120,1,56,4|2,3:0|0:0,0:0:0:0:
252,172,90246,2,0,P|277:173|314:159,1,56,8|2,1:3|0:0,0:0:0:0:
457,57,90940,2,0,L|444:170,1,112,4|8,3:0|1:3,0:0:0:0:
473,323,91980,1,2,0:0:0:0:
286,362,92327,6,0,L|226:352,1,56,2|2,0:1|0:0,0:0:0:0:
83,287,93021,2,0,L|138:277,1,56,8|2,1:3|0:0,0:0:0:0:
236,165,93714,2,0,P|238:129|237:106,2,56,4|2|8,3:0|0:0|1:3,0:0:0:0:
368,292,95102,6,0,P|393:294|426:285,1,56,4|2,3:0|0:0,0:0:0:0:
512,186,95795,2,0,P|514:161|505:128,1,56,2|2,1:0|0:1,0:0:0:0:
384,33,96489,1,2,0:1:0:0:
314,114,96836,1,2,0:1:0:0:
215,60,97183,1,8,1:3:0:0:
8,219,97876,5,4,3:0:0:0:
108,274,98223,1,2,0:0:0:0:
200,219,98570,2,0,P|225:211|260:209,1,56,8|2,1:3|0:0,0:0:0:0:
361,289,99264,2,0,P|352:264|351:225,1,56,4|2,3:0|0:0,0:0:0:0:
440,101,99957,1,4,1:0:0:0:
440,101,100651,6,0,P|415:100|380:115,1,56,4|2,3:0|0:0,0:0:0:0:
305,222,101345,2,0,P|333:235|362:232,1,56,8|2,1:3|0:0,0:0:0:0:
476,349,102038,2,0,L|361:335,1,112,2|8,0:0|1:3,0:0:0:0:
186,313,103079,1,2,0:0:0:0:
67,210,103425,6,0,P|63:176|68:151,1,56,4|2,3:0|0:0,0:0:0:0:
189,49,104119,2,0,P|193:80|191:109,1,56,8|2,1:3|0:0,0:0:0:0:
301,231,104813,2,0,P|297:197|301:172,2,56,4|2|8,3:0|0:0|1:3,0:0:0:0:
96,349,106200,6,0,P|98:324|91:285,1,56,2|2,0:1|0:1,0:0:0:0:
19,162,106894,2,0,P|44:164|80:154,1,56,2|0,1:0|0:0,0:0:0:0:
222,93,107587,1,2,0:1:0:0:
177,215,107934,1,2,0:1:0:0:
112,88,108281,1,2,1:1:0:0:
112,88,108975,5,2,0:1:0:0:
186,162,109321,1,2,0:1:0:0:
260,87,109668,1,2,1:1:0:0:
334,161,110015,1,2,0:1:0:0:
261,259,110362,2,0,P|261:295|272:323,1,56,2|0,0:1|0:0,0:0:0:0:
420,372,111056,2,0,P|429:341|426:317,1,56,8|0,1:3|0:0,0:0:0:0:
345,123,111749,5,4,0:0:0:0:
110,323,122847,5,4,3:0:0:0:
110,323,123541,1,8,0:0:0:0:
110,323,124235,1,4,3:0:0:0:
110,323,124928,1,8,0:0:0:0:
402,323,125622,5,4,3:0:0:0:
402,323,126316,1,8,0:0:0:0:
402,323,127009,1,4,3:0:0:0:
402,323,127703,1,8,0:0:0:0:
257,21,128397,5,4,0:3:0:0:
257,30,128743,1,4,0:3:0:0:
257,49,129090,1,8,0:0:0:0:
257,78,129437,1,4,0:3:0:0:
257,117,129784,5,4,0:3:0:0:
257,166,130131,1,4,0:3:0:0:
257,224,130477,1,8,0:0:0:0:
257,292,130824,1,4,0:3:0:0:
257,370,131171,5,4,3:0:0:0:
58,132,132905,6,0,L|37:128,16,12.2499996261597
171,320,133946,6,0,B|141:354|211:398|268:329|162:280|208:200,1,210,4|0,0:1|0:0,0:0:0:0:
262,84,134293,1,8,0:0:0:0:
268,74,134553,6,0,L|274:155,1,70,6|0,0:3|0:0,0:0:0:0:
374,262,134986,6,0,B|342:191|342:191|377:90,1,157.500006008148,8|0,0:0|0:0,0:0:0:0:
438,0,135333,5,4,0:3:0:0:
268,74,135506,1,2,0:3:0:0:
260,81,135593,1,0,0:3:0:0:
251,87,135680,2,0,L|187:81,1,52.5000020027161,8|0,0:0|0:0,0:0:0:0:
37,133,135853,2,0,L|101:127,1,52.5000020027161,0|4,0:0|0:3,0:0:0:0:
257,188,136027,6,0,B|351:199|305:139|412:148,1,157.500006008148,2|0,0:0|0:0,0:0:0:0:
271,270,136373,2,0,B|177:281|223:221|116:230,1,157.500006008148,8|0,0:0|0:0,0:0:0:0:
266,369,136720,6,0,P|339:339|365:261,1,157.500006008148,6|0,0:3|0:0,0:0:0:0:
348,190,137067,1,8,0:0:0:0:
489,85,137327,1,4,0:3:0:0:
466,157,137414,1,4,0:0:0:0:
466,157,137761,6,0,P|424:128|440:25,1,157.500006008148,8|0,0:0|0:0,0:0:0:0:
358,0,138108,5,4,0:3:0:0:
205,70,138281,1,2,0:3:0:0:
196,70,138368,1,2,0:3:0:0:
184,71,138454,2,0,L|132:75,1,52.5000020027161,8|0,0:0|0:0,0:0:0:0:
262,172,138628,2,0,L|314:176,1,52.5000020027161,2|4,0:0|0:3,0:0:0:0:
477,281,138801,6,0,B|419:269|419:269|385:284|385:284|320:273,1,157.500006008148
226,364,139148,2,0,B|286:353|286:353|320:368|320:368|378:356,1,157.500006008148,8|0,0:0|0:0,0:0:0:0:
426,189,139495,6,0,B|470:134|442:26|386:57|380:92|404:137|460:131,1,210,6|0,0:3|0:0,0:0:0:0:
512,181,139842,1,8,0:0:0:0:
325,274,140102,5,4,0:3:0:0:
344,203,140188,2,0,L|348:138,1,52.5,2|4,0:1|3:0,0:0:0:0:
177,93,140535,6,0,P|196:149|199:262,1,157.500006008148,8|0,0:0|0:0,0:0:0:0:
160,332,140882,5,4,3:0:0:0:
32,236,141056,1,0,3:0:0:0:
39,244,141142,1,0,3:0:0:0:
45,253,141229,2,0,P|38:289|21:310,1,52.5000020027161,10|0,0:0|0:0,0:0:0:0:
118,136,141402,2,0,P|105:113|102:87,1,52.5000020027161,2|4,0:0|3:0,0:0:0:0:
262,11,141576,6,0,B|356:0|310:60|417:51,1,157.500006008148,2|0,0:0|0:0,0:0:0:0:
512,133,141923,2,0,B|418:122|464:182|357:173,1,157.500006008148,8|0,0:0|0:0,0:0:0:0:
170,119,142269,6,0,P|103:122|54:205,1,157.500006008148,4|0,3:0|0:0,0:0:0:0:
10,334,142616,6,0,P|5:297|-6:266,1,52.5000020027161,4|0,0:3|0:0,0:0:0:0:
154,320,142790,1,0,1:0:0:0:
180,324,142876,1,0,1:0:0:0:
206,327,142963,2,0,B|304:343|304:343|405:299,1,188.999994232178,4|0,3:0|0:0,0:0:0:0:
512,372,143310,6,0,P|484:309|486:182,1,188.999994232178,10|0,0:0|0:0,0:0:0:0:
483,29,143657,6,0,B|468:80|427:109|441:49|383:38|322:58,1,188.999994232178,4|0,3:0|0:0,0:0:0:0:
159,110,144003,6,0,B|95:144|44:129|1:82|58:56|88:65|99:112,1,188.999994232178,10|0,0:0|0:0,0:0:0:0:
143,271,144350,6,0,B|174:324|229:324|229:324|247:339|231:405|161:386|170:351,1,188.999994232178,4|0,3:0|0:0,0:0:0:0:
237,213,144697,6,0,L|227:147,1,62.9999980773926,10|0,0:0|0:0,0:0:0:0:
344,76,144871,2,0,L|334:138,1,62.9999980773926,4|0,3:0|0:0,0:0:0:0:
365,254,145044,6,0,B|434:314|459:283|473:228|424:188|411:246|416:292|424:320,1,210,4|0,1:0|0:0,0:0:0:0:
475,370,145391,1,8,0:0:0:0:
512,200,145651,5,0,3:0:0:0:
507,168,145738,1,0,3:0:0:0:
502,137,145824,1,0,3:0:0:0:
498,106,145911,1,0,3:0:0:0:
493,75,145998,1,0,3:0:0:0:
489,44,146084,2,0,P|336:33|331:29,1,157.500006008148,10|0,0:0|0:0,0:0:0:0:
254,0,146431,5,4,3:0:0:0:
340,130,146605,1,2,0:3:0:0:
340,130,146691,1,0,0:0:0:0:
340,130,146778,2,0,L|348:194,1,52.5000020027161,10|0,0:0|0:0,0:0:0:0:
452,305,146951,2,0,L|444:369,1,52.5000020027161,2|4,0:0|3:0,0:0:0:0:
271,374,147125,6,0,B|177:385|223:325|116:334,1,157.500006008148,6|0,3:0|0:0,0:0:0:0:
0,222,147472,2,0,B|94:233|48:173|155:182,1,157.500006008148,10|0,0:0|0:0,0:0:0:0:
308,235,147819,6,0,P|378:248|329:186,1,157.500006008148,4|0,1:0|0:0,0:0:0:0:
294,161,148165,1,8,0:0:0:0:
173,358,148425,5,4,3:0:0:0:
173,358,148512,2,0,L|238:353,1,52.5000020027161,0|0,1:0|3:0,0:0:0:0:
152,327,148686,1,0,3:0:0:0:
161,291,148772,1,4,0:3:0:0:
196,281,148859,2,0,P|343:309|362:319,1,157.500006008148,8|0,0:0|0:0,0:0:0:0:
422,375,149206,5,4,3:0:0:0:
475,257,149379,1,2,0:3:0:0:
475,257,149466,1,2,0:3:0:0:
475,257,149553,2,0,L|467:199,1,52.5000020027161,10|0,0:0|0:0,0:0:0:0:
380,91,149726,2,0,L|388:33,1,52.5000020027161,2|4,0:0|3:0,0:0:0:0:
266,174,149899,6,0,B|208:162|208:162|174:177|174:177|109:166,1,157.500006008148,6|0,3:0|0:0,0:0:0:0:
0,258,150246,2,0,B|105:269|105:269|52:288,1,157.500006008148,8|0,0:0|0:0,0:0:0:0:
215,369,150593,6,0,B|276:389|385:334|379:267|296:284|267:312|322:337,1,210,4|0,1:0|0:0,0:0:0:0:
399,363,150940,1,8,0:0:0:0:
512,237,151200,5,0,3:0:0:0:
480,232,151287,1,0,3:0:0:0:
449,227,151373,1,0,3:0:0:0:
418,223,151460,1,0,3:0:0:0:
387,218,151547,1,0,3:0:0:0:
356,214,151634,2,0,P|241:172|209:179,1,157.500006008148,8|0,0:0|0:0,0:0:0:0:
124,231,151980,5,4,3:0:0:0:
218,316,152154,1,2,0:3:0:0:
218,316,152240,1,0,0:0:0:0:
218,316,152327,2,0,L|291:310,1,52.5000020027161,10|0,0:0|0:0,0:0:0:0:
122,367,152501,2,0,L|49:361,1,52.5000020027161,2|4,0:0|3:0,0:0:0:0:
0,196,152674,6,0,B|94:207|48:147|155:156,1,157.500006008148,2|0,3:0|0:0,0:0:0:0:
290,63,153021,2,0,B|384:74|338:14|445:23,1,157.500006008148,8|0,0:0|0:0,0:0:0:0:
448,181,153368,6,0,P|405:236|321:204,1,157.500006008148,4|0,0:3|0:0,0:0:0:0:
191,276,153714,6,0,L|193:332,1,52.5,2|4,1:0|3:0,0:0:0:0:
0,196,154061,6,0,B|94:207|48:147|155:156,1,157.500006008148,4|0,3:0|0:0,0:0:0:0:
290,63,154408,2,0,B|384:74|338:14|445:23,1,157.500006008148,10|0,0:0|0:0,0:0:0:0:
458,197,154755,6,0,L|354:187,1,105,4|0,0:3|0:0,0:0:0:0:
497,277,155102,2,0,L|393:267,1,105,4|0,0:3|0:0,0:0:0:0:
512,361,155449,2,0,L|432:353,3,70,6|0|0|0,0:3|3:0|3:0|3:0,0:0:0:0:
243,231,156142,6,0,B|218:162|277:180|284:58|200:65|182:136|245:148,1,210,4|0,1:0|0:0,0:0:0:0:
338,191,156489,1,8,0:0:0:0:
179,345,156749,1,4,0:3:0:0:
159,269,157183,6,0,P|117:297|194:329,1,157.500006008148,10|0,0:0|0:0,0:0:0:0:
266,278,157530,5,4,0:3:0:0:
337,170,157703,1,2,0:3:0:0:
337,170,157790,1,0,0:0:0:0:
337,170,157876,2,0,L|342:101,1,52.5000020027161,10|0,0:0|0:0,0:0:0:0:
430,238,158050,2,0,L|435:307,1,52.5000020027161,2|4,0:0|0:3,0:0:0:0:
290,362,158223,6,0,B|196:373|242:313|135:322,1,157.500006008148,2|0,0:0|0:0,0:0:0:0:
6,280,158570,2,0,B|100:291|54:231|161:240,1,157.500006008148,8|0,0:0|0:0,0:0:0:0:
275,196,158917,6,0,B|296:141|296:141|255:46,1,157.500006008148,4|0,1:0|0:0,0:0:0:0:
198,104,159264,1,8,0:0:0:0:
466,11,159524,5,4,0:3:0:0:
402,59,159610,2,0,L|396:86,6,26.2500010013581,0|0|0|0|0|0|0,3:0|3:0|3:0|3:0|3:0|3:0|3:0,3:0:0:0:
475,114,159957,2,0,P|396:107|331:167,1,157.500006008148,8|0,0:0|0:0,0:0:0:0:
318,225,160304,5,4,3:0:0:0:
206,326,160477,1,2,0:3:0:0:
198,333,160564,1,2,0:3:0:0:
189,339,160651,2,0,P|153:332|132:315,1,52.5000020027161,10|0,0:0|0:0,0:0:0:0:
8,250,160824,2,0,P|33:246|56:233,1,52.5000020027161,2|4,0:0|0:3,0:0:0:0:
127,99,160998,6,0,B|185:87|185:87|219:102|219:102|284:91,1,157.500006008148,2|0,0:0|0:0,0:0:0:0:
378,182,161345,2,0,B|318:171|318:171|284:186|284:186|226:174,1,157.500006008148,8|0,0:0|3:0,0:0:0:0:
140,323,161691,6,0,B|193:384|279:319|251:283|214:291|203:322|207:351|234:373|273:376,1,210,4|0,0:1|0:0,0:0:0:0:
368,377,162038,1,8,0:0:0:0:
271,145,162298,1,4,3:0:0:0:
218,194,162385,1,8,1:0:0:0:
218,194,162732,6,0,P|202:134|268:177,1,157.500006008148,8|0,0:0|0:0,0:0:0:0:
287,220,163079,5,4,3:3:0:0:
384,351,163252,1,0,0:3:0:0:
375,351,163339,1,0,3:0:0:0:
366,352,163425,2,0,L|314:356,1,52.5000020027161,8|0,0:0|0:0,0:0:0:0:
433,219,163599,2,0,L|485:223,1,52.5000020027161,0|4,0:0|3:0,0:0:0:0:
332,134,163772,6,0,B|238:145|284:85|177:94,1,157.500006008148,0|0,3:0|0:0,0:0:0:0:
48,52,164119,2,0,B|142:63|96:3|203:12,1,157.500006008148,8|0,0:0|3:0,0:0:0:0:
206,170,164466,6,0,P|203:237|124:255,1,157.500006008148,4|0,3:0|0:0,0:0:0:0:
22,361,164813,5,8,0:0:0:0:
47,357,164899,1,0,0:0:0:0:
73,353,164986,1,0,3:0:0:0:
99,349,165073,1,0,3:0:0:0:
125,346,165160,2,0,B|223:330|223:330|324:374,1,188.999994232178,4|0,3:0|0:0,0:0:0:0:
425,384,165506,6,0,P|381:332|412:211,1,188.999994232178,10|0,0:0|3:0,0:0:0:0:
479,134,165853,5,0,3:0:0:0:
498,109,165940,1,0,3:0:0:0:
503,78,166027,1,4,3:0:0:0:
491,50,166113,1,0,3:0:0:0:
467,30,166200,1,10,0:0:0:0:
436,26,166287,1,4,3:0:0:0:
407,38,166373,1,0,3:0:0:0:
388,62,166460,1,4,3:0:0:0:
384,93,166547,6,0,P|390:126|401:154,1,62.9999980773926,6|4,3:0|3:0,0:0:0:0:
294,240,166720,2,0,P|305:210|310:179,1,62.9999980773926,6|0,3:0|3:0,0:0:0:0:
215,110,166894,2,0,P|221:143|232:171,1,62.9999980773926,8|6,0:0|3:0,0:0:0:0:
125,257,167067,2,0,P|136:227|141:196,1,62.9999980773926,0|0,3:0|3:0,0:0:0:0:
43,375,167240,6,0,B|9:405|-35:335|34:278|83:384|163:338,1,210,4|0,1:0|0:0,0:0:0:0:
208,271,167587,1,8,0:0:0:0:
380,384,167847,5,0,3:0:0:0:
348,379,167934,1,0,3:0:0:0:
317,374,168021,1,0,3:0:0:0:
286,370,168108,1,0,3:0:0:0:
255,365,168194,1,0,3:0:0:0:
224,361,168281,2,0,P|213:208|209:203,1,157.500006008148,8|0,0:0|0:0,0:0:0:0:
80,128,168628,5,4,3:0:0:0:
203,56,168801,1,2,0:3:0:0:
211,49,168888,1,0,0:3:0:0:
220,43,168975,2,0,L|284:49,1,52.5000020027161,10|0,0:0|0:0,0:0:0:0:
412,128,169148,2,0,L|348:134,1,52.5000020027161,2|4,3:0|3:0,0:0:0:0:
299,276,169321,6,0,B|393:287|347:227|454:236,1,157.500006008148,2|0,3:0|0:0,0:0:0:0:
313,358,169668,2,0,B|219:369|265:309|158:318,1,157.500006008148,8|0,0:0|0:0,0:0:0:0:
61,185,170015,6,0,P|131:172|82:234,1,157.500006008148,4|0,1:0|0:0,0:0:0:0:
47,259,170362,1,8,0:0:0:0:
227,361,170622,5,0,3:0:0:0:
259,377,170709,1,0,3:0:0:0:
294,373,170795,1,0,3:0:0:0:
321,349,170882,1,0,3:0:0:0:
330,314,170969,1,0,3:0:0:0:
317,280,171056,2,0,P|307:220|332:108,1,157.500006008148,10|0,0:0|0:0,0:0:0:0:
269,47,171402,5,4,3:0:0:0:
149,114,171576,1,2,0:3:0:0:
142,122,171662,1,2,0:3:0:0:
136,131,171749,2,0,L|142:195,1,52.5000020027161,10|0,0:0|0:0,0:0:0:0:
52,274,171923,2,0,L|46:338,1,52.5000020027161,2|4,3:0|3:0,0:0:0:0:
169,365,172096,6,0,B|227:377|227:377|261:362|261:362|326:373,1,157.500006008148,2|0,3:0|0:0,0:0:0:0:
420,282,172443,2,0,B|360:293|360:293|326:278|326:278|268:290,1,157.500006008148,8|0,0:0|0:0,0:0:0:0:
142,198,172790,6,0,B|195:137|281:202|253:238|216:230|205:199|209:170|236:148|264:131,1,210,4|0,1:0|0:0,0:0:0:0:
316,99,173136,1,8,0:0:0:0:
423,313,173397,5,0,3:0:0:0:
391,308,173483,1,0,3:0:0:0:
360,303,173570,1,0,3:0:0:0:
329,299,173657,1,0,3:0:0:0:
298,294,173743,1,0,3:0:0:0:
267,290,173830,2,0,P|188:292|93:313,1,157.500006008148,10|0,0:0|0:0,0:0:0:0:
44,345,174177,5,4,3:0:0:0:
0,212,174350,1,2,0:3:0:0:
0,212,174437,1,0,0:0:0:0:
0,212,174524,2,0,L|6:139,1,52.5000020027161,10|0,0:0|0:0,0:0:0:0:
97,49,174697,2,0,L|103:122,1,52.5000020027161,2|4,3:0|3:0,0:0:0:0:
179,212,174871,6,0,B|273:223|227:163|334:172,1,157.500006008148,2|0,3:0|0:0,0:0:0:0:
451,295,175217,2,0,B|357:306|403:246|304:254,1,157.500006008148,8|0,0:0|0:0,0:0:0:0:
191,320,175564,6,0,P|153:340|71:263,1,157.500006008148,6|0,3:0|0:0,0:0:0:0:
67,290,175911,2,0,P|114:347|186:330,1,157.500006008148,8|0,0:0|0:0,0:0:0:0:
264,225,176258,6,0,P|226:205|144:282,1,157.500006008148,2|0,3:0|0:0,0:0:0:0:
140,255,176605,2,0,P|187:198|259:215,1,157.500006008148,8|0,0:0|0:0,0:0:0:0:
333,312,176951,6,0,P|295:332|213:255,1,157.500006008148,2|0,3:0|0:0,0:0:0:0:
209,282,177298,2,0,P|256:339|328:322,1,157.500006008148,8|0,0:0|0:0,0:0:0:0:
402,224,177645,6,0,P|364:204|282:281,1,157.500006008148,2|0,3:0|0:0,0:0:0:0:
278,254,177992,2,0,P|325:197|397:214,1,157.500006008148,8|0,0:0|0:0,0:0:0:0:
501,318,178339,6,0,B|478:246|478:246|499:163,1,157.500006008148,4|0,1:0|0:0,0:0:0:0:
463,47,178686,5,4,1:0:0:0:
446,79,178772,1,0,3:0:0:0:
420,104,178859,1,0,3:0:0:0:
386,118,178946,1,4,3:0:0:0:
349,120,179032,2,0,L|241:105,1,105.000004005432,2|0,3:0|3:0,0:0:0:0:
152,194,179293,1,6,3:0:0:0:
152,194,179379,2,0,L|256:179,1,105.000004005432,8|2,0:0|3:0,0:0:0:0:
327,328,179726,6,0,P|267:332|228:301,1,105.000004005432,4|2,3:0|3:0,0:0:0:0:
152,194,180073,1,8,0:0:0:0:
118,180,180160,1,0,3:0:0:0:
84,190,180246,1,0,3:0:0:0:
63,219,180333,1,4,3:0:0:0:
66,255,180420,2,0,P|86:288|157:300,1,105.000004005432,6|0,3:0|3:0,0:0:0:0:
261,237,180680,1,6,3:0:0:0:
261,237,180767,2,0,L|370:247,1,105.000004005432,8|2,0:0|3:0,0:0:0:0:
485,84,181113,6,0,B|369:63|412:157|291:136,1,210.000008010865,4|8,1:0|0:0,0:0:0:0:
146,62,181634,1,0,3:0:0:0:
114,44,181720,1,4,3:0:0:0:
77,45,181807,1,0,3:0:0:0:
47,65,181894,1,4,3:0:0:0:
31,98,181980,1,4,3:0:0:0:
35,134,182067,1,0,3:0:0:0:
57,163,182154,2,0,P|94:176|121:172,2,52.5000020027161,8|6|0,0:0|3:0|0:0,0:0:0:0:
53,320,182501,6,0,B|169:341|126:247|247:268,1,210.000008010865,4|8,3:0|0:0,0:0:0:0:
388,381,183021,1,0,0:0:0:0:
391,357,183108,2,0,L|381:292,1,52.5000020027161,8|0,0:0|0:0,0:0:0:0:
509,181,183281,1,8,0:0:0:0:
512,205,183368,2,0,L|502:270,1,52.5000020027161,4|0,3:0|0:0,0:0:0:0:
389,119,183541,1,8,0:0:0:0:
370,108,183628,2,0,P|320:111|273:162,1,105.000004005432,4|0,3:0|0:0,0:0:0:0:
245,267,183888,6,0,B|173:290|173:290|90:269,1,157.500006008148,4|0,1:0|3:0,0:0:0:0:
16,180,184235,5,8,0:0:0:0:
29,146,184321,1,0,3:0:0:0:
55,121,184408,1,0,3:0:0:0:
91,112,184495,1,4,3:0:0:0:
126,119,184582,2,0,P|166:125|230:111,1,105.000004005432,2|0,3:0|3:0,0:0:0:0:
329,198,184842,1,6,3:0:0:0:
329,198,184928,2,0,P|277:203|226:190,1,105.000004005432,8|2,0:0|3:0,0:0:0:0:
356,109,185275,6,0,P|404:134|423:193,1,105.000004005432,4|0,3:0|3:0,0:0:0:0:
333,307,185622,1,8,0:0:0:0:
299,321,185709,1,0,3:0:0:0:
265,311,185795,1,0,3:0:0:0:
244,282,185882,1,4,3:0:0:0:
247,246,185969,2,0,P|267:213|338:201,1,105.000004005432,6|0,3:0|3:0,0:0:0:0:
429,268,186229,1,6,3:0:0:0:
429,268,186316,2,0,L|439:377,1,105.000004005432,8|2,0:0|3:0,0:0:0:0:
247,246,186662,6,0,L|261:73,1,157.500006008148,4|0,1:0|0:0,0:0:0:0:
246,78,187009,2,0,B|239:150|239:150|224:161|224:161|238:172|238:172|229:267,1,188.999994232178,14|4,0:0|3:0,0:0:0:0:
131,339,187356,6,0,L|117:166,1,157.500006008148,0|0,3:0|0:0,0:0:0:0:
132,171,187703,2,0,B|139:243|139:243|154:254|154:254|140:265|140:265|149:360,1,188.999994232178,14|0,0:0|0:0,0:0:0:0:
51,234,188050,6,0,L|65:61,1,157.500006008148,0|0,3:0|0:0,0:0:0:0:
50,66,188397,2,0,B|43:138|43:138|28:149|28:149|42:160|42:160|33:255,1,188.999994232178,14|0,0:0|0:0,0:0:0:0:
144,333,188743,6,0,P|205:358|281:295,1,157.500006008148,4|0,3:0|0:0,0:0:0:0:
317,187,189090,1,4,3:0:0:0:
344,144,189177,1,4,3:0:0:0:
394,137,189264,1,4,3:0:0:0:
432,170,189350,1,4,3:0:0:0:
451,207,189437,6,0,B|431:295|431:295|360:338,1,157.500006008148,4|0,1:0|0:0,0:0:0:0:
206,355,189784,5,8,0:0:0:0:
174,338,189871,1,0,3:0:0:0:
149,312,189957,1,0,3:0:0:0:
135,278,190044,1,4,3:0:0:0:
133,241,190131,2,0,L|148:133,1,105.000004005432,2|0,3:0|3:0,0:0:0:0:
59,44,190391,1,6,3:0:0:0:
59,44,190477,2,0,L|74:148,1,105.000004005432,8|2,0:0|3:0,0:0:0:0:
133,241,190824,6,0,P|193:245|232:214,1,105.000004005432,4|0,3:0|3:0,0:0:0:0:
308,107,191171,1,8,0:0:0:0:
342,93,191258,1,0,3:0:0:0:
376,103,191345,1,0,3:0:0:0:
397,132,191431,1,4,3:0:0:0:
394,168,191518,2,0,L|388:277,1,105.000004005432,4|0,3:0|3:0,0:0:0:0:
261,370,191778,1,6,3:0:0:0:
261,370,191865,2,0,P|218:349|152:360,1,105.000004005432,8|2,0:0|3:0,0:0:0:0:
0,284,192212,6,0,B|116:305|73:211|194:232,1,210.000008010865,4|8,1:0|0:0,0:0:0:0:
318,300,192732,1,0,3:0:0:0:
350,318,192819,1,4,3:0:0:0:
387,317,192905,1,0,3:0:0:0:
417,297,192992,1,4,3:0:0:0:
433,264,193079,1,4,3:0:0:0:
429,228,193165,1,0,3:0:0:0:
407,199,193252,2,0,P|370:186|343:190,2,52.5000020027161,8|4|0,0:0|3:0|0:0,0:0:0:0:
453,63,193599,6,0,B|337:42|380:136|259:115,1,210.000008010865,4|8,3:0|0:0,0:0:0:0:
115,39,194119,1,0,0:0:0:0:
96,29,194206,2,0,L|101:95,1,52.5000020027161,4|0,3:0|0:0,0:0:0:0:
27,192,194379,1,4,3:0:0:0:
46,182,194466,2,0,L|41:248,1,52.5000020027161,4|0,3:0|0:0,0:0:0:0:
182,327,194639,1,8,0:0:0:0:
163,337,194726,2,0,L|173:223,1,105.000004005432,4|0,3:0|0:0,0:0:0:0:
260,115,194986,6,0,B|332:92|332:92|415:113,1,157.500006008148,4|0,1:0|0:0,0:0:0:0:
480,220,195333,5,8,0:0:0:0:
467,254,195420,1,0,0:0:0:0:
441,279,195506,1,0,0:0:0:0:
405,288,195593,1,4,3:0:0:0:
370,281,195680,2,0,P|330:275|266:289,1,105.000004005432,2|0,3:0|3:0,0:0:0:0:
167,202,195940,1,6,3:0:0:0:
167,202,196027,2,0,P|219:197|270:210,1,105.000004005432,8|6,0:0|3:0,0:0:0:0:
139,290,196373,6,0,P|91:265|72:206,1,105.000004005432,4|0,3:0|3:0,0:0:0:0:
162,92,196720,1,8,0:0:0:0:
196,78,196807,1,0,3:0:0:0:
230,88,196894,1,0,3:0:0:0:
251,117,196980,1,4,3:0:0:0:
248,153,197067,2,0,P|228:186|157:198,1,105.000004005432,2|0,3:0|3:0,0:0:0:0:
68,126,197327,1,6,3:0:0:0:
68,126,197414,2,0,L|58:17,1,105.000004005432,8|2,0:0|3:0,0:0:0:0:
0,230,197761,5,4,1:0:0:0:
0,230,198108,2,0,L|70:236,1,52.5000020027161,8|4,0:0|3:0,0:0:0:0:
137,313,198281,2,0,L|207:307,1,52.5000020027161,0|8,0:0|0:0,0:0:0:0:
395,213,198454,5,8,0:0:0:0:
369,205,198541,1,8,0:0:0:0:
344,197,198628,2,0,P|313:202|278:211,1,52.5000020027161,4|0,3:0|0:0,0:0:0:0:
88,142,198801,1,8,0:0:0:0:
105,161,198888,2,0,P|149:173|220:151,1,105.000004005432,4|0,3:0|0:0,0:0:0:0:
294,63,199148,6,0,L|456:83,1,157.500006008148,6|0,3:0|0:0,0:0:0:0:
510,158,199495,2,0,L|353:177,1,157.500006008148,10|8,0:0|0:0,0:0:0:0:
250,263,199842,5,8,0:0:0:0:
227,276,199928,1,8,0:0:0:0:
201,272,200015,1,4,3:0:0:0:
184,252,200102,1,2,0:0:0:0:
184,225,200188,1,8,0:0:0:0:
201,205,200275,1,4,3:0:0:0:
227,201,200362,1,2,0:0:0:0:
250,214,200449,1,8,0:0:0:0:
258,238,200535,6,0,L|248:347,1,105.000004005432,4|0,1:0|0:0,0:0:0:0:
348,162,200882,5,8,0:0:0:0:
348,162,200969,1,4,3:0:0:0:
408,211,201142,5,8,0:0:0:0:
408,211,201229,1,4,3:0:0:0:
436,280,201402,5,8,0:0:0:0:
436,280,201489,1,2,3:0:0:0:
423,353,201662,5,8,0:0:0:0:
423,353,201749,1,4,3:0:0:0:
218,332,201923,6,0,L|109:342,1,105.000004005432,4|0,1:0|0:0,0:0:0:0:
227,201,202269,5,8,0:0:0:0:
227,201,202356,1,2,3:0:0:0:
178,141,202530,5,8,0:0:0:0:
178,141,202616,1,4,3:0:0:0:
109,113,202790,5,8,0:0:0:0:
109,113,202876,1,2,3:0:0:0:
36,126,203050,5,10,0:0:0:0:
36,126,203136,1,2,3:0:0:0:
224,19,203310,6,0,B|340:-2|297:92|418:71,1,210.000008010865,4|8,1:0|0:0,0:0:0:0:
482,182,203830,1,2,0:0:0:0:
500,214,203917,1,8,0:0:0:0:
499,251,204003,1,2,0:0:0:0:
479,281,204090,1,8,0:0:0:0:
446,297,204177,1,4,3:0:0:0:
410,293,204264,1,2,0:0:0:0:
381,271,204350,2,0,P|368:234|372:207,2,52.5000020027161,8|4|0,0:0|3:0|0:0,0:0:0:0:
303,355,204697,6,0,B|187:376|230:282|109:303,1,210.000008010865,4|8,3:0|0:0,0:0:0:0:
9,157,205217,1,0,0:0:0:0:
16,131,205304,2,0,P|15:97|7:55,1,52.5000020027161,8|2,0:0|0:0,0:0:0:0:
158,10,205477,1,8,0:0:0:0:
165,36,205564,2,0,P|164:70|156:112,1,52.5000020027161,4|0,3:0|0:0,0:0:0:0:
263,207,205738,1,8,0:0:0:0:
239,195,205824,2,0,P|178:200|124:237,1,105.000004005432,0|0,3:0|0:0,0:0:0:0:
101,357,206084,6,0,B|173:334|173:334|256:355,1,157.500006008148,4|0,1:0|0:0,0:0:0:0:
400,357,206431,5,8,0:0:0:0:
396,327,206518,1,2,0:0:0:0:
451,268,206691,5,8,0:0:0:0:
455,238,206778,1,4,3:0:0:0:
384,194,206951,5,8,0:0:0:0:
380,164,207038,1,0,3:0:0:0:
435,105,207212,5,8,0:0:0:0:
439,75,207298,1,4,3:0:0:0:
332,25,207472,6,0,B|260:48|260:48|177:27,1,157.500006008148,4|0,1:0|0:0,0:0:0:0:
63,45,207819,5,8,0:0:0:0:
67,75,207905,1,2,0:0:0:0:
12,134,208079,5,8,0:0:0:0:
8,164,208165,1,6,3:0:0:0:
79,208,208339,5,8,0:0:0:0:
83,238,208425,1,2,3:0:0:0:
28,297,208599,5,2,3:0:0:0:
24,327,208686,1,8,0:0:0:0:
163,358,208859,6,0,L|339:333,1,157.500006008148,4|0,1:0|0:0,0:0:0:0:
346,311,209206,2,0,L|224:328,1,105.000004005432,8|0,0:0|0:0,0:0:0:0:
109,232,209466,6,0,L|174:237,1,52.5000020027161,4|2,3:0|0:0,0:0:0:0:
229,177,209639,2,0,L|294:172,1,52.5000020027161,4|2,3:0|0:0,0:0:0:0:
365,232,209813,1,4,3:0:0:0:
365,232,209899,2,0,L|477:240,1,105.000004005432,8|0,0:0|0:0,0:0:0:0:
512,102,210160,6,0,L|447:107,1,52.5000020027161,4|2,3:0|0:0,0:0:0:0:
392,47,210333,2,0,L|327:42,1,52.5000020027161,4|0,3:0|0:0,0:0:0:0:
256,102,210506,1,4,3:0:0:0:
256,102,210593,2,0,L|144:110,1,105.000004005432,8|0,0:0|0:0,0:0:0:0:
109,232,210853,6,0,L|174:237,1,52.5000020027161,4|2,3:0|0:0,0:0:0:0:
235,185,211027,2,0,L|300:180,1,52.5000020027161,4|2,3:0|0:0,0:0:0:0:
365,232,211200,1,4,3:0:0:0:
365,232,211287,2,0,L|477:240,1,105.000004005432,12|0,0:1|0:0,0:0:0:0:
248,381,211634,6,0,P|233:335|238:272,1,105.000004005432,4|0,3:0|0:0,0:0:0:0:
253,103,211980,5,4,1:0:0:0:
253,103,212067,1,2,3:0:0:0:
204,43,212240,5,8,0:0:0:0:
204,43,212327,1,4,3:0:0:0:
135,15,212501,5,8,0:0:0:0:
135,15,212587,1,4,3:0:0:0:
62,28,212761,5,8,0:0:0:0:
62,28,212847,1,6,3:0:0:0:
12,145,213021,6,0,B|-3:232|73:273|93:213|27:193,1,157.500006008148,4|0,1:0|0:0,0:0:0:0:
1,336,213368,6,0,L|105:322,1,105.000004005432,10|0,0:0|0:0,0:0:0:0:
178,344,213628,2,0,L|290:358,1,105.000004005432,8|0,0:0|0:0,0:0:0:0:
338,302,213888,2,0,L|324:190,1,105.000004005432,8|0,0:0|0:0,0:0:0:0:
377,142,214148,2,0,L|391:30,1,105.000004005432,8|0,0:0|0:0,0:0:0:0:
301,12,214408,6,0,B|185:-9|228:85|107:64,1,210.000008010865,4|8,1:0|0:0,0:0:0:0:
35,198,214928,1,2,0:0:0:0:
17,230,215015,1,8,0:0:0:0:
18,267,215102,1,2,0:0:0:0:
38,297,215188,1,8,0:0:0:0:
71,313,215275,1,4,3:0:0:0:
107,309,215362,1,2,0:0:0:0:
136,287,215449,2,0,P|149:250|145:223,2,52.5000020027161,8|4|0,0:0|3:0|0:0,0:0:0:0:
214,371,215795,6,0,B|330:392|287:298|408:319,1,210.000008010865,4|8,3:0|0:0,0:0:0:0:
492,181,216316,1,0,0:0:0:0:
479,158,216402,2,0,P|476:127|473:96,1,52.5000020027161,8|2,0:0|0:0,0:0:0:0:
344,20,216576,1,8,0:0:0:0:
331,43,216662,2,0,P|328:74|325:105,1,52.5000020027161,4|2,3:0|0:0,0:0:0:0:
182,162,216836,1,8,0:0:0:0:
207,166,216923,2,0,P|270:177|318:217,1,105.000004005432,4|0,3:0|0:0,0:0:0:0:
350,347,217183,6,0,B|278:324|278:324|195:345,1,157.500006008148,4|0,1:0|0:0,0:0:0:0:
63,355,217530,5,8,0:0:0:0:
67,325,217616,1,2,3:0:0:0:
12,266,217790,5,8,0:0:0:0:
8,236,217876,1,0,3:0:0:0:
79,192,218050,5,8,0:0:0:0:
83,162,218136,1,2,3:0:0:0:
28,103,218310,5,8,0:0:0:0:
24,73,218397,1,0,3:0:0:0:
164,53,218570,6,0,B|236:76|236:76|319:55,1,157.500006008148,4|0,1:0|0:0,0:0:0:0:
461,9,218917,6,0,L|452:79,1,52.5000020027161,10|0,0:0|0:0,0:0:0:0:
491,130,219177,6,0,L|448:186,1,52.5000020027161,10|0,0:0|0:0,0:0:0:0:
483,246,219437,6,0,L|417:273,1,52.5000020027161,10|0,0:0|0:0,0:0:0:0:
424,345,219697,6,0,L|353:335,1,52.5000020027161,10|0,0:0|0:0,0:0:0:0:
256,192,219957,12,12,222732,0:0:0:0:
497,276,233830,6,0,P|455:285|361:226,1,140,4|8,0:1|0:0,0:0:0:0:
314,158,234350,1,0,3:0:0:0:
314,158,234436,1,4,3:0:0:0:
314,158,234523,2,0,L|322:81,1,70,2|2,3:0|3:0,0:0:0:0:
201,0,234870,1,8,0:0:0:0:
201,0,235217,6,0,P|224:57|207:154,1,140,4|8,3:0|0:0,0:0:0:0:
147,215,235737,1,0,3:0:0:0:
147,215,235824,1,4,3:0:0:0:
147,215,235910,2,0,L|154:295,1,70,2|2,0:0|3:0,0:0:0:0:
45,369,236257,1,8,0:0:0:0:
45,369,236604,6,0,P|28:323|41:228,1,140,4|8,3:0|0:0,0:0:0:0:
98,143,237124,1,0,3:0:0:0:
98,143,237211,1,4,3:0:0:0:
98,143,237298,2,0,L|178:150,1,70,2|2,3:0|3:0,0:0:0:0:
300,53,237645,1,8,0:0:0:0:
300,53,237992,6,0,P|335:33|430:84,1,140,4|8,3:0|0:0,0:0:0:0:
463,154,238512,1,4,3:0:0:0:
463,154,238598,1,4,3:0:0:0:
463,154,238685,2,0,L|383:161,1,70,2|2,3:0|3:0,0:0:0:0:
287,237,239032,1,8,0:0:0:0:
287,237,239379,6,0,B|329:256|329:256|436:245,1,140,4|8,3:0|0:0,0:0:0:0:
512,311,239899,1,0,3:0:0:0:
512,311,239986,1,4,3:0:0:0:
512,311,240072,2,0,L|425:323,1,70,2|2,3:0|3:0,0:0:0:0:
280,362,240419,2,0,L|193:350,1,70,8|0,0:0|3:0,0:0:0:0:
52,252,240766,6,0,B|114:240|114:240|133:247|133:247|193:233,1,140,4|8,3:0|0:0,0:0:0:0:
273,163,241286,1,0,3:0:0:0:
273,163,241373,1,4,3:0:0:0:
273,163,241460,2,0,P|277:123|267:93,1,70,2|2,3:0|3:0,0:0:0:0:
162,20,241806,2,0,P|153:54|158:88,1,70,8|0,0:0|3:0,0:0:0:0:
52,252,242153,5,4,3:0:0:0:
52,252,242500,1,8,0:0:0:0:
25,161,242673,1,0,3:0:0:0:
25,161,242760,1,4,3:0:0:0:
25,161,242847,2,0,L|35:77,1,70,2|2,3:0|3:0,0:0:0:0:
162,20,243194,2,0,L|171:90,1,70,8|0,0:0|3:0,0:0:0:0:
281,186,243540,5,4,3:0:0:0:
281,186,243887,1,4,3:0:0:0:
372,213,244061,1,0,3:0:0:0:
372,213,244147,1,0,0:0:0:0:
372,213,244234,2,0,L|456:203,1,70,4|0,3:0|3:0,0:0:0:0:
512,119,244495,2,0,P|464:129|402:108,1,105,4|4,3:0|3:0,0:0:0:0:
263,149,244928,6,0,P|221:158|127:99,1,140,4|8,3:0|0:0,0:0:0:0:
19,47,245448,1,0,3:0:0:0:
19,47,245534,1,4,3:0:0:0:
19,47,245621,2,0,L|27:124,1,70,2|2,3:0|3:0,0:0:0:0:
56,274,245968,1,8,0:0:0:0:
56,274,246315,6,0,P|113:251|210:268,1,140,4|8,3:0|0:0,0:0:0:0:
330,307,246835,1,0,3:0:0:0:
330,307,246922,1,4,3:0:0:0:
330,307,247009,2,0,L|410:300,1,70,2|2,3:0|3:0,0:0:0:0:
512,228,247355,1,8,0:0:0:0:
512,228,247703,6,0,P|495:182|508:87,1,140,4|8,3:0|0:0,0:0:0:0:
399,21,248222,1,0,3:0:0:0:
399,21,248309,1,4,3:0:0:0:
399,21,248396,2,0,L|406:101,1,70,2|2,3:0|3:0,0:0:0:0:
309,223,248743,1,8,0:0:0:0:
309,223,249090,6,0,P|274:243|179:192,1,140,4|8,3:0|0:0,0:0:0:0:
146,122,249610,1,0,3:0:0:0:
146,122,249696,1,4,3:0:0:0:
146,122,249783,2,0,L|226:115,1,70,2|2,3:0|3:0,0:0:0:0:
322,39,250130,1,8,0:0:0:0:
322,39,250477,6,0,B|297:106|297:106|328:186,1,140,4|8,3:0|0:0,0:0:0:0:
405,278,250997,1,0,3:0:0:0:
405,278,251084,1,4,3:0:0:0:
405,278,251171,2,0,L|318:290,1,70,2|2,3:0|3:0,0:0:0:0:
205,362,251517,2,0,L|118:350,1,70,8|0,0:0|3:0,0:0:0:0:
3,246,251865,6,0,B|65:234|65:234|84:241|84:241|144:227,1,140,4|8,3:0|0:0,0:0:0:0:
252,133,252384,1,0,3:0:0:0:
252,133,252471,1,4,3:0:0:0:
252,133,252558,2,0,P|292:129|322:139,1,70,2|2,3:0|3:0,0:0:0:0:
436,213,252905,2,0,P|470:217|504:209,1,70,8|0,0:0|3:0,0:0:0:0:
509,51,253251,5,4,3:0:0:0:
509,51,253598,1,8,0:0:0:0:
418,24,253771,1,0,3:0:0:0:
418,24,253858,1,4,3:0:0:0:
418,24,253945,2,0,L|334:34,1,70,2|2,3:0|3:0,0:0:0:0:
277,161,254292,2,0,L|347:170,1,70,8|0,0:0|3:0,0:0:0:0:
423,326,254638,5,4,3:0:0:0:
423,326,254985,1,8,0:0:0:0:
332,353,255159,1,0,3:0:0:0:
332,353,255245,1,4,3:0:0:0:
332,353,255332,2,0,L|248:343,1,70,2|2,3:0|3:0,0:0:0:0:
192,226,255680,2,0,L|276:216,1,70,8|0,0:0|3:0,0:0:0:0:
256,192,256027,12,0,267125,0:0:0:0:
