osu file format v14

[General]
AudioFilename: audio.mp3
AudioLeadIn: 0
PreviewTime: 131171
Countdown: 0
SampleSet: Soft
StackLeniency: 0.8
Mode: 0
LetterboxInBreaks: 0
EpilepsyWarning: 1
WidescreenStoryboard: 1

[Editor]
Bookmarks: 767,11865,22963,45160,67356,89553,111749,122847,131171,133946,145044,156142,167240,178339,189437,200535,211634,222732,233830,244928,256027,267125
DistanceSpacing: 1
BeatDivisor: 4
GridSize: 32
TimelineZoom: 1.1

[Metadata]
Title:Lullaby (Cut Ver.)
TitleUnicode:Lullaby (Cut Ver.)
Artist:Receptor & K.I.R.A
ArtistUnicode:Receptor & K.I.R.A
Creator:Shmiklak
Version:Easy
Source:osu!
Tags:fa featured artist marvollo m_a_r_v_o_l_l_o wajinshu mappers' guild russian electronic русская электроника dnb drum and bass kira neurofunk Burning Up Horror Darkside рецептор кира колыбельная тили бом
BeatmapID:2599626
BeatmapSetID:1221743

[Difficulty]
HPDrainRate:1.5
CircleSize:3
OverallDifficulty:2
ApproachRate:3
SliderMultiplier:0.8
SliderTickRate:1

[Events]
//Background and Video events
0,0,"young-girl-1149701.jpg",0,0
//Break Periods
2,23163,43720
2,111949,121407
2,222932,232390
//Storyboard Layer 0 (Background)
Sprite,Background,Centre,"sb\etc\l.png",0,0 C,0,767,,126,169,128 M,0,767,810,137,344,138.764,334.1765 F,2,767,1660,1,0 S,2,767,1660,1.5,0.3 P,0,767,1660,A M,0,810,853,138.764,334.1765,141.5732,324.6095 M,0,853,897,141.5732,324.6095,145.3943,315.4071 M,0,897,940,145.3943,315.4071,150.1829,306.6737 M,0,940,983,150.1829,306.6737,155.6611,298.3427 M,0,983,1027,155.6611,298.3427,162.344,290.9375 M,0,1027,1070,162.344,290.9375,169.7797,284.3008 M,0,1070,1113,169.7797,284.3008,177.883,278.507 M,0,1113,1157,177.883,278.507,186.4045,273.3077 M,0,1157,1200,186.4045,273.3077,195.6417,269.5315 M,0,1200,1243,195.6417,269.5315,205.223,266.775 M,0,1243,1287,205.223,266.775,215.0391,265.068 M,0,1287,1330,215.0391,265.068,224.9784,264.429 M,0,1330,1373,224.9784,264.429,234.9446,264.6087 M,0,1373,1417,234.9446,264.6087,244.7771,266.2806 M,0,1417,1460,244.7771,266.2806,254.3649,268.9999
Sprite,Background,Centre,"sb\etc\l.png",321,313 C,0,1807,,126,169,128 F,2,1807,2007,1,0 S,2,1807,2007,1.5,0.3 P,0,1807,2007,A
Sprite,Background,Centre,"sb\etc\l.png",0,0 C,0,2154,,126,169,128 M,0,2154,2197,380,259,378.6581,249.0905 F,2,2154,2700,1,0 S,2,2154,2700,1.5,0.3 P,0,2154,2700,A M,0,2197,2240,378.6581,249.0905,377.3162,239.1809 M,0,2240,2284,377.3162,239.1809,375.9742,229.2713 M,0,2284,2327,375.9742,229.2713,374.6323,219.3618 M,0,2327,2370,374.6323,219.3618,373.2904,209.4522 M,0,2370,2414,373.2904,209.4522,371.9485,199.5427 M,0,2414,2457,371.9485,199.5427,370.6066,189.6331 M,0,2457,2500,370.6066,189.6331,369.2646,179.7236
Sprite,Background,Centre,"sb\etc\l.png",0,0 C,0,2847,,126,169,128 M,0,2847,2890,404,107,413.8961,105.6283 F,2,2847,3393,1,0 S,2,2847,3393,1.5,0.3 P,0,2847,3393,A M,0,2890,2933,413.8961,105.6283,423.8621,104.9971 M,0,2933,2977,423.8621,104.9971,433.8443,105.1091 M,0,2977,3020,433.8443,105.1091,443.7888,105.9636 M,0,3020,3063,443.7888,105.9636,453.6696,107.3945 M,0,3063,3107,453.6696,107.3945,463.3546,109.8322 M,0,3107,3150,463.3546,109.8322,472.8279,112.9826 M,0,3150,3193,472.8279,112.9826,482.1336,116.6261
Sprite,Background,Centre,"sb\etc\l.png",0,0 C,0,3541,,136,176,200 M,0,3541,3584,532,179,533.5919,188.8704 F,2,3541,4434,1,0 S,2,3541,4434,1.5,0.3 P,0,3541,4434,A M,0,3584,3627,533.5919,188.8704,534.4252,198.832 M,0,3627,3671,534.4252,198.832,534.2776,208.8251 M,0,3671,3714,534.2776,208.8251,532.8969,218.7205 M,0,3714,3757,532.8969,218.7205,530.0881,228.307 M,0,3757,3801,530.0881,228.307,525.8339,237.3467 M,0,3801,3844,525.8339,237.3467,520.4332,245.7567 M,0,3844,3887,520.4332,245.7567,514.3869,253.7205 M,0,3887,3931,514.3869,253.7205,508.2535,261.6183 M,0,3931,3974,508.2535,261.6183,502.6083,269.8676 M,0,3974,4017,502.6083,269.8676,498.0065,278.7353 M,0,4017,4061,498.0065,278.7353,494.8474,288.2112 M,0,4061,4104,494.8474,288.2112,493.2294,298.0695 M,0,4104,4147,493.2294,298.0695,492.9492,308.059 M,0,4147,4191,492.9492,308.059,493.7548,318.0223 M,0,4191,4234,493.7548,318.0223,495.3784,327.8871
Sprite,Background,Centre,"sb\etc\l.png",529,400 C,0,4582,,136,176,200 F,2,4582,4782,1,0 S,2,4582,4782,1.5,0.3 P,0,4582,4782,A
Sprite,Background,Centre,"sb\etc\l.png",0,0 C,0,4928,,136,176,200 M,0,4928,4971,451,418,441.0173,417.4678 F,2,4928,5474,1,0 S,2,4928,5474,1.5,0.3 P,0,4928,5474,A M,0,4971,5014,441.0173,417.4678,431.0712,416.4793 M,0,5014,5058,431.0712,416.4793,421.182,415.0366 M,0,5058,5101,421.182,415.0366,411.3701,413.1428 M,0,5101,5144,411.3701,413.1428,401.656,410.8018 M,0,5144,5188,401.656,410.8018,392.0595,408.0186 M,0,5188,5231,392.0595,408.0186,382.5628,404.9072 M,0,5231,5274,382.5628,404.9072,373.2556,401.2556
Sprite,Background,Centre,"sb\etc\l.png",0,0 C,0,5622,,136,176,200 M,0,5622,5665,316,344,312.4105,334.6705 F,2,5622,6168,1,0 S,2,5622,6168,1.5,0.3 P,0,5622,6168,A M,0,5665,5708,312.4105,334.6705,309.2643,325.1842 M,0,5708,5752,309.2643,325.1842,306.5682,315.5617 M,0,5752,5795,306.5682,315.5617,304.3279,305.8235 M,0,5795,5838,304.3279,305.8235,302.4674,296.0056 M,0,5838,5882,302.4674,296.0056,301.2291,286.0882 M,0,5882,5925,301.2291,286.0882,300.4589,276.1248 M,0,5925,5968,300.4589,276.1248,300.0035,266.1377
Sprite,Background,Centre,"sb\etc\l.png",0,0 C,0,6316,,190,143,145 M,0,6316,6359,316,187,317.0174,177.0519 F,2,6316,7209,1,0 S,2,6316,7209,1.5,0.3 P,0,6316,7209,A M,0,6359,6402,317.0174,177.0519,318.0349,167.1038 M,0,6402,6446,318.0349,167.1038,319.0522,157.1557 M,0,6446,6489,319.0522,157.1557,320.0697,147.2076 M,0,6489,6532,320.0697,147.2076,321.0871,137.2595 M,0,6532,6576,321.0871,137.2595,322.1045,127.3113 M,0,6576,6619,322.1045,127.3113,323.1219,117.3632 M,0,6619,6662,323.1219,117.3632,324.1394,107.4151 M,0,6662,6706,324.1394,107.4151,323.1219,117.3632 M,0,6706,6749,323.1219,117.3632,322.1045,127.3113 M,0,6749,6792,322.1045,127.3113,321.0871,137.2595 M,0,6792,6836,321.0871,137.2595,320.0697,147.2076 M,0,6836,6879,320.0697,147.2076,319.0522,157.1557 M,0,6879,6922,319.0522,157.1557,318.0349,167.1038 M,0,6922,6966,318.0349,167.1038,317.0174,177.0519 M,0,6966,7009,317.0174,177.0519,316,187
Sprite,Background,Centre,"sb\etc\l.png",300,266 C,0,7356,,190,143,145 F,2,7356,7556,1,0 S,2,7356,7556,1.5,0.3 P,0,7356,7556,A
Sprite,Background,Centre,"sb\etc\l.png",0,0 C,0,7703,,190,143,145 M,0,7703,7746,239,318,240.0174,327.9481 F,2,7703,8596,1,0 S,2,7703,8596,1.5,0.3 P,0,7703,8596,A M,0,7746,7789,240.0174,327.9481,241.0348,337.8962 M,0,7789,7833,241.0348,337.8962,242.0523,347.8443 M,0,7833,7876,242.0523,347.8443,243.0697,357.7924 M,0,7876,7919,243.0697,357.7924,244.0871,367.7405 M,0,7919,7963,244.0871,367.7405,245.1045,377.6887 M,0,7963,8006,245.1045,377.6887,246.1219,387.6367 M,0,8006,8049,246.1219,387.6367,247.1394,397.5849 M,0,8049,8093,247.1394,397.5849,246.1219,387.6367 M,0,8093,8136,246.1219,387.6367,245.1045,377.6887 M,0,8136,8179,245.1045,377.6887,244.0871,367.7405 M,0,8179,8223,244.0871,367.7405,243.0697,357.7924 M,0,8223,8266,243.0697,357.7924,242.0523,347.8443 M,0,8266,8309,242.0523,347.8443,241.0348,337.8962 M,0,8309,8353,241.0348,337.8962,240.0174,327.9481 M,0,8353,8396,240.0174,327.9481,239,318
Sprite,Background,Centre,"sb\etc\l.png",181,261 C,0,8743,,190,143,145 F,2,8743,8943,1,0 S,2,8743,8943,1.5,0.3 P,0,8743,8943,A
Sprite,Background,Centre,"sb\etc\l.png",0,0 C,0,9090,,206,203,140 M,0,9090,9133,208,185,217.9445,186.0518 F,2,9090,9636,1,0 S,2,9090,9636,1.5,0.3 P,0,9090,9636,A M,0,9133,9176,217.9445,186.0518,227.8891,187.1037 M,0,9176,9220,227.8891,187.1037,237.8336,188.1555 M,0,9220,9263,237.8336,188.1555,247.7781,189.2073 M,0,9263,9306,247.7781,189.2073,257.7227,190.2591 M,0,9306,9350,257.7227,190.2591,267.6672,191.3109 M,0,9350,9393,267.6672,191.3109,277.6117,192.3628 M,0,9393,9436,277.6117,192.3628,287.5562,193.4146
Sprite,Background,Centre,"sb\etc\l.png",0,0 C,0,9784,,206,203,140 M,0,9784,9827,363,166,372.9373,164.882 F,2,9784,10330,1,0 S,2,9784,10330,1.5,0.3 P,0,9784,10330,A M,0,9827,9870,372.9373,164.882,382.8746,163.7641 M,0,9870,9914,382.8746,163.7641,392.812,162.6461 M,0,9914,9957,392.812,162.6461,402.7493,161.5282 M,0,9957,10000,402.7493,161.5282,412.6866,160.4103 M,0,10000,10044,412.6866,160.4103,422.6239,159.2923 M,0,10044,10087,422.6239,159.2923,432.5612,158.1744 M,0,10087,10130,432.5612,158.1744,442.4985,157.0564
Sprite,Background,Centre,"sb\etc\l.png",0,0 C,0,10477,,206,203,140 M,0,10477,10520,515,190,513.9482,199.9445 F,2,10477,11023,1,0 S,2,10477,11023,1.5,0.3 P,0,10477,11023,A M,0,10520,10563,513.9482,199.9445,512.8964,209.8891 M,0,10563,10607,512.8964,209.8891,511.8445,219.8336 M,0,10607,10650,511.8445,219.8336,510.7927,229.7781 M,0,10650,10693,510.7927,229.7781,509.7409,239.7226 M,0,10693,10737,509.7409,239.7226,508.6891,249.6672 M,0,10737,10780,508.6891,249.6672,507.6372,259.6117 M,0,10780,10823,507.6372,259.6117,506.5854,269.5562
Sprite,Background,Centre,"sb\etc\l.png",0,0 C,0,11171,,206,203,140 M,0,11171,11214,450,326,451.0075,335.9491 F,2,11171,11717,1,0 S,2,11171,11717,1.5,0.3 P,0,11171,11717,A M,0,11214,11257,451.0075,335.9491,452.015,345.8982 M,0,11257,11301,452.015,345.8982,453.0225,355.8474 M,0,11301,11344,453.0225,355.8474,454.03,365.7965 M,0,11344,11387,454.03,365.7965,455.0375,375.7456 M,0,11387,11431,455.0375,375.7456,456.045,385.6947 M,0,11431,11474,456.045,385.6947,457.0526,395.6438 M,0,11474,11517,457.0526,395.6438,458,405
Sprite,Background,Centre,"sb\etc\l.png",0,0 C,0,11865,,126,169,128 M,0,11865,11908,383,436,373.0401,436.5221 F,2,11865,12758,1,0 S,2,11865,12758,1.5,0.3 P,0,11865,12758,A M,0,11908,11951,373.0401,436.5221,363.1071,435.7861 M,0,11951,11995,363.1071,435.7861,353.3552,433.8061 M,0,11995,12038,353.3552,433.8061,343.936,430.6143 M,0,12038,12081,343.936,430.6143,334.8387,426.5562 M,0,12081,12125,334.8387,426.5562,326.607,420.9383 M,0,12125,12168,326.607,420.9383,319.1572,414.3352 M,0,12168,12211,319.1572,414.3352,312.6039,406.8514 M,0,12211,12255,312.6039,406.8514,306.6808,398.8204 M,0,12255,12298,306.6808,398.8204,302.37,389.8275 M,0,12298,12341,302.37,389.8275,299.2305,380.3755 M,0,12341,12385,299.2305,380.3755,297.3092,370.6123 M,0,12385,12428,297.3092,370.6123,296.6342,360.6901 M,0,12428,12471,296.6342,360.6901,296.8924,350.7338 M,0,12471,12515,296.8924,350.7338,298.9135,340.9754 M,0,12515,12558,298.9135,340.9754,302.1447,331.56
Sprite,Background,Centre,"sb\etc\l.png",352,269 C,0,12905,,126,169,128 F,2,12905,13105,1,0 S,2,12905,13105,1.5,0.3 P,0,12905,13105,A
Sprite,Background,Centre,"sb\etc\l.png",0,0 C,0,13252,,126,169,128 M,0,13252,13295,297,210,287.9518,214.2413 F,2,13252,14145,1,0 S,2,13252,14145,1.5,0.3 P,0,13252,14145,A M,0,13295,13338,287.9518,214.2413,278.6462,217.874 M,0,13338,13382,278.6462,217.874,269.1235,220.8828 M,0,13382,13425,269.1235,220.8828,259.4244,223.2549 M,0,13425,13468,259.4244,223.2549,249.5907,224.9805 M,0,13468,13512,249.5907,224.9805,239.6792,226.1993 M,0,13512,13555,239.6792,226.1993,229.6947,226.5192 M,0,13555,13598,229.6947,226.5192,219.7137,226.1784 M,0,13598,13642,219.7137,226.1784,209.7789,225.1786 M,0,13642,13685,209.7789,225.1786,199.9328,223.5244 M,0,13685,13728,199.9328,223.5244,190.1812,221.3712 M,0,13728,13772,190.1812,221.3712,180.662,218.3414 M,0,13772,13815,180.662,218.3414,171.3664,214.6901 M,0,13815,13858,171.3664,214.6901,162.3343,210.433 M,0,13858,13902,162.3343,210.433,153.6043,205.5885 M,0,13902,13945,153.6043,205.5885,145.127,200.309
Sprite,Background,Centre,"sb\etc\l.png",97,135 C,0,14293,,126,169,128 F,2,14293,14493,1,0 S,2,14293,14493,1.5,0.3 P,0,14293,14493,A
Sprite,Background,Centre,"sb\etc\l.png",320,248 C,0,14639,,126,169,128 F,2,14639,23163,1,0 S,2,14639,23163,1.5,0.3 P,0,14639,23163,A
Sprite,Background,Centre,"sb\etc\l.png",0,0 C,0,233830,,206,203,140 M,0,233830,233873,503,152,501.236,161.8235 F,2,233830,234723,1,0 S,2,233830,234723,1.5,0.3 P,0,233830,234723,A M,0,233873,233916,501.236,161.8235,498.4268,171.3905 M,0,233916,233960,498.4268,171.3905,494.6057,180.5929 M,0,233960,234003,494.6057,180.5929,489.8171,189.3263 M,0,234003,234046,489.8171,189.3263,484.3388,197.6573 M,0,234046,234090,484.3388,197.6573,477.656,205.0625 M,0,234090,234133,477.656,205.0625,470.2203,211.6992 M,0,234133,234176,470.2203,211.6992,462.117,217.493 M,0,234176,234220,462.117,217.493,453.5956,222.6923 M,0,234220,234263,453.5956,222.6923,444.3583,226.4685 M,0,234263,234306,444.3583,226.4685,434.777,229.225 M,0,234306,234350,434.777,229.225,424.9609,230.932 M,0,234350,234393,424.9609,230.932,415.0216,231.571 M,0,234393,234436,415.0216,231.571,405.0554,231.3913 M,0,234436,234480,405.0554,231.3913,395.2229,229.7194 M,0,234480,234523,395.2229,229.7194,385.6351,227.0001
Sprite,Background,Centre,"sb\etc\l.png",319,183 C,0,234870,,206,203,140 F,2,234870,235070,1,0 S,2,234870,235070,1.5,0.3 P,0,234870,235070,A
Sprite,Background,Centre,"sb\etc\l.png",0,0 C,0,235217,,206,203,140 M,0,235217,235260,260,237,261.3419,246.9095 F,2,235217,235763,1,0 S,2,235217,235763,1.5,0.3 P,0,235217,235763,A M,0,235260,235303,261.3419,246.9095,262.6838,256.8191 M,0,235303,235347,262.6838,256.8191,264.0258,266.7287 M,0,235347,235390,264.0258,266.7287,265.3677,276.6382 M,0,235390,235433,265.3677,276.6382,266.7096,286.5478 M,0,235433,235477,266.7096,286.5478,268.0515,296.4573 M,0,235477,235520,268.0515,296.4573,269.3934,306.3669 M,0,235520,235563,269.3934,306.3669,270.7354,316.2764
Sprite,Background,Centre,"sb\etc\l.png",0,0 C,0,235911,,206,203,140 M,0,235911,235954,239,390,229.1039,391.3716 F,2,235911,236457,1,0 S,2,235911,236457,1.5,0.3 P,0,235911,236457,A M,0,235954,235997,229.1039,391.3716,219.1379,392.0029 M,0,235997,236041,219.1379,392.0029,209.1557,391.8908 M,0,236041,236084,209.1557,391.8908,199.2112,391.0364 M,0,236084,236127,199.2112,391.0364,189.3304,389.6055 M,0,236127,236171,189.3304,389.6055,179.6454,387.1678 M,0,236171,236214,179.6454,387.1678,170.1721,384.0174 M,0,236214,236257,170.1721,384.0174,160.8664,380.3739
Sprite,Background,Centre,"sb\etc\l.png",0,0 C,0,236604,,126,169,128 M,0,236604,236647,108,317,106.4081,307.1296 F,2,236604,237497,1,0 S,2,236604,237497,1.5,0.3 P,0,236604,237497,A M,0,236647,236690,106.4081,307.1296,105.5748,297.168 M,0,236690,236734,105.5748,297.168,105.7225,287.1749 M,0,236734,236777,105.7225,287.1749,107.1031,277.2795 M,0,236777,236820,107.1031,277.2795,109.9119,267.6931 M,0,236820,236864,109.9119,267.6931,114.1661,258.6533 M,0,236864,236907,114.1661,258.6533,119.5667,250.2432 M,0,236907,236950,119.5667,250.2432,125.6131,242.2795 M,0,236950,236994,125.6131,242.2795,131.7465,234.3817 M,0,236994,237037,131.7465,234.3817,137.3917,226.1324 M,0,237037,237080,137.3917,226.1324,141.9935,217.2647 M,0,237080,237124,141.9935,217.2647,145.1526,207.7888 M,0,237124,237167,145.1526,207.7888,146.7707,197.9305 M,0,237167,237210,146.7707,197.9305,147.0508,187.941 M,0,237210,237254,147.0508,187.941,146.2452,177.9776 M,0,237254,237297,146.2452,177.9776,144.6215,168.1129
Sprite,Background,Centre,"sb\etc\l.png",111,96 C,0,237645,,126,169,128 F,2,237645,237845,1,0 S,2,237645,237845,1.5,0.3 P,0,237645,237845,A
Sprite,Background,Centre,"sb\etc\l.png",0,0 C,0,237992,,126,169,128 M,0,237992,238035,189,78,198.9827,78.53217 F,2,237992,238538,1,0 S,2,237992,238538,1.5,0.3 P,0,237992,238538,A M,0,238035,238078,198.9827,78.53217,208.9288,79.52069 M,0,238078,238122,208.9288,79.52069,218.8181,80.9634 M,0,238122,238165,218.8181,80.9634,228.6299,82.85721 M,0,238165,238208,228.6299,82.85721,238.344,85.19817 M,0,238208,238252,238.344,85.19817,247.9405,87.98137 M,0,238252,238295,247.9405,87.98137,257.4372,91.09276 M,0,238295,238338,257.4372,91.09276,266.7444,94.74446
Sprite,Background,Centre,"sb\etc\l.png",0,0 C,0,238685,,126,169,128 M,0,238685,238728,290,171,293.5895,180.3295 F,2,238685,239231,1,0 S,2,238685,239231,1.5,0.3 P,0,238685,239231,A M,0,238728,238771,293.5895,180.3295,296.7357,189.8158 M,0,238771,238815,296.7357,189.8158,299.4318,199.4383 M,0,238815,238858,299.4318,199.4383,301.6721,209.1765 M,0,238858,238901,301.6721,209.1765,303.5326,218.9944 M,0,238901,238945,303.5326,218.9944,304.7709,228.9118 M,0,238945,238988,304.7709,228.9118,305.5411,238.8752 M,0,238988,239031,305.5411,238.8752,305.9965,248.8623
Sprite,Background,Centre,"sb\etc\l.png",0,0 C,0,239379,,136,176,200 M,0,239379,239422,342,320,351.9481,321.0174 F,2,239379,240272,1,0 S,2,239379,240272,1.5,0.3 P,0,239379,240272,A M,0,239422,239465,351.9481,321.0174,361.8962,322.0349 M,0,239465,239509,361.8962,322.0349,371.8443,323.0522 M,0,239509,239552,371.8443,323.0522,381.7924,324.0697 M,0,239552,239595,381.7924,324.0697,391.7405,325.0871 M,0,239595,239639,391.7405,325.0871,401.6887,326.1045 M,0,239639,239682,401.6887,326.1045,411.6367,327.1219 M,0,239682,239725,411.6367,327.1219,421.5849,328.1394 M,0,239725,239769,421.5849,328.1394,411.6367,327.1219 M,0,239769,239812,411.6367,327.1219,401.6887,326.1045 M,0,239812,239855,401.6887,326.1045,391.7405,325.0871 M,0,239855,239899,391.7405,325.0871,381.7924,324.0697 M,0,239899,239942,381.7924,324.0697,371.8443,323.0522 M,0,239942,239985,371.8443,323.0522,361.8962,322.0349 M,0,239985,240029,361.8962,322.0349,351.9481,321.0174 M,0,240029,240072,351.9481,321.0174,342,320
Sprite,Background,Centre,"sb\etc\l.png",305,248 C,0,240419,,136,176,200 F,2,240419,240619,1,0 S,2,240419,240619,1.5,0.3 P,0,240419,240619,A
Sprite,Background,Centre,"sb\etc\l.png",0,0 C,0,240766,,136,176,200 M,0,240766,240809,239,201,229.0519,202.0174 F,2,240766,241659,1,0 S,2,240766,241659,1.5,0.3 P,0,240766,241659,A M,0,240809,240852,229.0519,202.0174,219.1038,203.0348 M,0,240852,240896,219.1038,203.0348,209.1557,204.0523 M,0,240896,240939,209.1557,204.0523,199.2076,205.0697 M,0,240939,240982,199.2076,205.0697,189.2595,206.0871 M,0,240982,241026,189.2595,206.0871,179.3113,207.1045 M,0,241026,241069,179.3113,207.1045,169.3633,208.1219 M,0,241069,241112,169.3633,208.1219,159.4151,209.1394 M,0,241112,241156,159.4151,209.1394,169.3633,208.1219 M,0,241156,241199,169.3633,208.1219,179.3113,207.1045 M,0,241199,241242,179.3113,207.1045,189.2595,206.0871 M,0,241242,241286,189.2595,206.0871,199.2076,205.0697 M,0,241286,241329,199.2076,205.0697,209.1557,204.0523 M,0,241329,241372,209.1557,204.0523,219.1038,203.0348 M,0,241372,241416,219.1038,203.0348,229.0519,202.0174 M,0,241416,241459,229.0519,202.0174,239,201
Sprite,Background,Centre,"sb\etc\l.png",303,153 C,0,241806,,136,176,200 F,2,241806,242006,1,0 S,2,241806,242006,1.5,0.3 P,0,241806,242006,A
Sprite,Background,Centre,"sb\etc\l.png",0,0 C,0,242154,,190,143,145 M,0,242154,242197,370,110,379.6111,107.3051 F,2,242154,242700,1,0 S,2,242154,242700,1.5,0.3 P,0,242154,242700,A M,0,242197,242240,379.6111,107.3051,389.452,105.6917 M,0,242240,242284,389.452,105.6917,399.4034,105.1777 M,0,242284,242327,399.4034,105.1777,409.3446,105.768 M,0,242327,242370,409.3446,105.768,419.1554,107.4544 M,0,242370,242414,419.1554,107.4544,428.7169,110.216 M,0,242414,242457,428.7169,110.216,438.0461,113.7246 M,0,242457,242500,438.0461,113.7246,446.7889,118.5557
Sprite,Background,Centre,"sb\etc\l.png",0,0 C,0,242847,,190,143,145 M,0,242847,242890,509,168,510.118,177.9373 F,2,242847,243393,1,0 S,2,242847,243393,1.5,0.3 P,0,242847,243393,A M,0,242890,242933,510.118,177.9373,511.2359,187.8746 M,0,242933,242977,511.2359,187.8746,512.3539,197.8119 M,0,242977,243020,512.3539,197.8119,513.4718,207.7493 M,0,243020,243063,513.4718,207.7493,514.5897,217.6866 M,0,243063,243107,514.5897,217.6866,515.7076,227.6239 M,0,243107,243150,515.7076,227.6239,516.8256,237.5612 M,0,243150,243193,516.8256,237.5612,517.9436,247.4985
Sprite,Background,Centre,"sb\etc\l.png",0,0 C,0,243541,,190,143,145 M,0,243541,243584,477,316,467.0555,317.0518 F,2,243541,244087,1,0 S,2,243541,244087,1.5,0.3 P,0,243541,244087,A M,0,243584,243627,467.0555,317.0518,457.1109,318.1036 M,0,243627,243671,457.1109,318.1036,447.1664,319.1555 M,0,243671,243714,447.1664,319.1555,437.2219,320.2073 M,0,243714,243757,437.2219,320.2073,427.2773,321.2591 M,0,243757,243801,427.2773,321.2591,417.3328,322.3109 M,0,243801,243844,417.3328,322.3109,407.3883,323.3628 M,0,243844,243887,407.3883,323.3628,397.4438,324.4146
Sprite,Background,Centre,"sb\etc\l.png",341,381 C,0,244235,,190,143,145 F,2,244235,244435,1,0 S,2,244235,244435,1.5,0.3 P,0,244235,244435,A
Sprite,Background,Centre,"sb\etc\l.png",0,0 C,0,244928,,206,203,140 M,0,244928,244971,219,278,220.764,268.1765 F,2,244928,245821,1,0 S,2,244928,245821,1.5,0.3 P,0,244928,245821,A M,0,244971,245014,220.764,268.1765,223.5732,258.6095 M,0,245014,245058,223.5732,258.6095,227.3943,249.4071 M,0,245058,245101,227.3943,249.4071,232.1829,240.6737 M,0,245101,245144,232.1829,240.6737,237.6611,232.3427 M,0,245144,245188,237.6611,232.3427,244.3439,224.9375 M,0,245188,245231,244.3439,224.9375,251.7797,218.3008 M,0,245231,245274,251.7797,218.3008,259.883,212.507 M,0,245274,245318,259.883,212.507,268.4044,207.3077 M,0,245318,245361,268.4044,207.3077,277.6417,203.5315 M,0,245361,245404,277.6417,203.5315,287.223,200.7749 M,0,245404,245448,287.223,200.7749,297.0391,199.068 M,0,245448,245491,297.0391,199.068,306.9783,198.429 M,0,245491,245534,306.9783,198.429,316.9446,198.6087 M,0,245534,245578,316.9446,198.6087,326.7771,200.2806 M,0,245578,245621,326.7771,200.2806,336.3649,202.9999
Sprite,Background,Centre,"sb\etc\l.png",414,220 C,0,245968,,206,203,140 F,2,245968,246168,1,0 S,2,245968,246168,1.5,0.3 P,0,245968,246168,A
Sprite,Background,Centre,"sb\etc\l.png",0,0 C,0,246315,,206,203,140 M,0,246315,246358,478,172,476.6581,162.0905 F,2,246315,246861,1,0 S,2,246315,246861,1.5,0.3 P,0,246315,246861,A M,0,246358,246401,476.6581,162.0905,475.3162,152.1809 M,0,246401,246445,475.3162,152.1809,473.9742,142.2713 M,0,246445,246488,473.9742,142.2713,472.6323,132.3618 M,0,246488,246531,472.6323,132.3618,471.2904,122.4522 M,0,246531,246575,471.2904,122.4522,469.9485,112.5427 M,0,246575,246618,469.9485,112.5427,468.6066,102.6331 M,0,246618,246661,468.6066,102.6331,467.2646,92.72357
Sprite,Background,Centre,"sb\etc\l.png",0,0 C,0,247009,,206,203,140 M,0,247009,247052,393,61,383.1039,59.62835 F,2,247009,247555,1,0 S,2,247009,247555,1.5,0.3 P,0,247009,247555,A M,0,247052,247095,383.1039,59.62835,373.1379,58.99709 M,0,247095,247139,373.1379,58.99709,363.1557,59.10914 M,0,247139,247182,363.1557,59.10914,353.2112,59.9636 M,0,247182,247225,353.2112,59.9636,343.3304,61.39455 M,0,247225,247269,343.3304,61.39455,333.6454,63.8322 M,0,247269,247312,333.6454,63.8322,324.1721,66.98264 M,0,247312,247355,324.1721,66.98264,314.8664,70.62611
Sprite,Background,Centre,"sb\etc\l.png",0,0 C,0,247703,,126,169,128 M,0,247703,247746,246,113,236.1296,111.4081 F,2,247703,248596,1,0 S,2,247703,248596,1.5,0.3 P,0,247703,248596,A M,0,247746,247789,236.1296,111.4081,226.168,110.5748 M,0,247789,247833,226.168,110.5748,216.1749,110.7225 M,0,247833,247876,216.1749,110.7225,206.2795,112.1031 M,0,247876,247919,206.2795,112.1031,196.693,114.9119 M,0,247919,247963,196.693,114.9119,187.6533,119.1661 M,0,247963,248006,187.6533,119.1661,179.2433,124.5667 M,0,248006,248049,179.2433,124.5667,171.2795,130.6131 M,0,248049,248093,171.2795,130.6131,163.3817,136.7465 M,0,248093,248136,163.3817,136.7465,155.1324,142.3917 M,0,248136,248179,155.1324,142.3917,146.2647,146.9935 M,0,248179,248223,146.2647,146.9935,136.7888,150.1526 M,0,248223,248266,136.7888,150.1526,126.9305,151.7706 M,0,248266,248309,126.9305,151.7706,116.9411,152.0508 M,0,248309,248353,116.9411,152.0508,106.9777,151.2452 M,0,248353,248396,106.9777,151.2452,97.11296,149.6215
Sprite,Background,Centre,"sb\etc\l.png",80,228 C,0,248743,,126,169,128 F,2,248743,248943,1,0 S,2,248743,248943,1.5,0.3 P,0,248743,248943,A
Sprite,Background,Centre,"sb\etc\l.png",0,0 C,0,249090,,126,169,128 M,0,249090,249133,138,282,147.9827,282.5322 F,2,249090,249636,1,0 S,2,249090,249636,1.5,0.3 P,0,249090,249636,A M,0,249133,249176,147.9827,282.5322,157.9288,283.5207 M,0,249176,249220,157.9288,283.5207,167.8181,284.9634 M,0,249220,249263,167.8181,284.9634,177.6299,286.8572 M,0,249263,249306,177.6299,286.8572,187.344,289.1982 M,0,249306,249350,187.344,289.1982,196.9405,291.9814 M,0,249350,249393,196.9405,291.9814,206.4372,295.0928 M,0,249393,249436,206.4372,295.0928,215.7444,298.7444
Sprite,Background,Centre,"sb\etc\l.png",0,0 C,0,249784,,126,169,128 M,0,249784,249827,280,346,289.9705,345.2602 F,2,249784,250330,1,0 S,2,249784,250330,1.5,0.3 P,0,249784,250330,A M,0,249827,249870,289.9705,345.2602,299.9041,344.1375 M,0,249870,249914,299.9041,344.1375,309.7862,342.6335 M,0,249914,249957,309.7862,342.6335,319.6024,340.7505 M,0,249957,250000,319.6024,340.7505,329.3383,338.4914 M,0,250000,250044,329.3383,338.4914,338.9798,335.8594 M,0,250044,250087,338.9798,335.8594,348.5126,332.8585 M,0,250087,250130,348.5126,332.8585,357,330
Sprite,Background,Centre,"sb\etc\l.png",0,0 C,0,250477,,136,176,200 M,0,250477,250520,412,270,410.9826,260.0519 F,2,250477,251370,1,0 S,2,250477,251370,1.5,0.3 P,0,250477,251370,A M,0,250520,250563,410.9826,260.0519,409.9651,250.1038 M,0,250563,250607,409.9651,250.1038,408.9478,240.1557 M,0,250607,250650,408.9478,240.1557,407.9303,230.2076 M,0,250650,250693,407.9303,230.2076,406.9129,220.2595 M,0,250693,250737,406.9129,220.2595,405.8955,210.3113 M,0,250737,250780,405.8955,210.3113,404.8781,200.3633 M,0,250780,250823,404.8781,200.3633,403.8606,190.4151 M,0,250823,250867,403.8606,190.4151,404.8781,200.3633 M,0,250867,250910,404.8781,200.3633,405.8955,210.3113 M,0,250910,250953,405.8955,210.3113,406.9129,220.2595 M,0,250953,250997,406.9129,220.2595,407.9303,230.2076 M,0,250997,251040,407.9303,230.2076,408.9478,240.1557 M,0,251040,251083,408.9478,240.1557,409.9651,250.1038 M,0,251083,251127,409.9651,250.1038,410.9826,260.0519 M,0,251127,251170,410.9826,260.0519,412,270
Sprite,Background,Centre,"sb\etc\l.png",471,323 C,0,251517,,136,176,200 F,2,251517,251717,1,0 S,2,251517,251717,1.5,0.3 P,0,251517,251717,A
Sprite,Background,Centre,"sb\etc\l.png",0,0 C,0,251865,,136,176,200 M,0,251865,251908,506,251,507.0174,241.0519 F,2,251865,252758,1,0 S,2,251865,252758,1.5,0.3 P,0,251865,252758,A M,0,251908,251951,507.0174,241.0519,508.0349,231.1038 M,0,251951,251995,508.0349,231.1038,509.0522,221.1557 M,0,251995,252038,509.0522,221.1557,510.0697,211.2076 M,0,252038,252081,510.0697,211.2076,511.0871,201.2595 M,0,252081,252125,511.0871,201.2595,512.1045,191.3113 M,0,252125,252168,512.1045,191.3113,513.1219,181.3633 M,0,252168,252211,513.1219,181.3633,514.1394,171.4151 M,0,252211,252255,514.1394,171.4151,513.1219,181.3633 M,0,252255,252298,513.1219,181.3633,512.1045,191.3113 M,0,252298,252341,512.1045,191.3113,511.0871,201.2595 M,0,252341,252385,511.0871,201.2595,510.0697,211.2076 M,0,252385,252428,510.0697,211.2076,509.0522,221.1557 M,0,252428,252471,509.0522,221.1557,508.0349,231.1038 M,0,252471,252515,508.0349,231.1038,507.0174,241.0519 M,0,252515,252558,507.0174,241.0519,506,251
Sprite,Background,Centre,"sb\etc\l.png",552,315 C,0,252904,,136,176,200 F,2,252904,253104,1,0 S,2,252904,253104,1.5,0.3 P,0,252904,253104,A
Sprite,Background,Centre,"sb\etc\l.png",0,0 C,0,253252,,190,143,145 M,0,253252,253295,505,380,495.0555,378.9482 F,2,253252,253798,1,0 S,2,253252,253798,1.5,0.3 P,0,253252,253798,A M,0,253295,253338,495.0555,378.9482,485.1109,377.8964 M,0,253338,253382,485.1109,377.8964,475.1664,376.8445 M,0,253382,253425,475.1664,376.8445,465.2219,375.7927 M,0,253425,253468,465.2219,375.7927,455.2773,374.7409 M,0,253468,253512,455.2773,374.7409,445.3328,373.6891 M,0,253512,253555,445.3328,373.6891,435.3883,372.6372 M,0,253555,253598,435.3883,372.6372,425.4438,371.5854
Sprite,Background,Centre,"sb\etc\l.png",0,0 C,0,253946,,190,143,145 M,0,253946,253989,353,336,343.0627,337.118 F,2,253946,254492,1,0 S,2,253946,254492,1.5,0.3 P,0,253946,254492,A M,0,253989,254032,343.0627,337.118,333.1254,338.2359 M,0,254032,254076,333.1254,338.2359,323.188,339.3539 M,0,254076,254119,323.188,339.3539,313.2507,340.4718 M,0,254119,254162,313.2507,340.4718,303.3134,341.5898 M,0,254162,254206,303.3134,341.5898,293.3761,342.7077 M,0,254206,254249,293.3761,342.7077,283.4388,343.8256 M,0,254249,254292,283.4388,343.8256,273.5015,344.9436
Sprite,Background,Centre,"sb\etc\l.png",0,0 C,0,254639,,190,143,145 M,0,254639,254682,210,296,211.0518,286.0555 F,2,254639,255185,1,0 S,2,254639,255185,1.5,0.3 P,0,254639,255185,A M,0,254682,254725,211.0518,286.0555,212.1037,276.111 M,0,254725,254769,212.1037,276.111,213.1555,266.1664 M,0,254769,254812,213.1555,266.1664,214.2073,256.2219 M,0,254812,254855,214.2073,256.2219,215.2591,246.2774 M,0,254855,254899,215.2591,246.2774,216.3109,236.3328 M,0,254899,254942,216.3109,236.3328,217.3628,226.3883 M,0,254942,254985,217.3628,226.3883,218.4146,216.4438
Sprite,Background,Centre,"sb\etc\l.png",0,0 C,0,255333,,190,143,145 M,0,255333,255376,170,152,160.0509,153.0075 F,2,255333,255879,1,0 S,2,255333,255879,1.5,0.3 P,0,255333,255879,A M,0,255376,255419,160.0509,153.0075,150.1018,154.015 M,0,255419,255463,150.1018,154.015,140.1526,155.0225 M,0,255463,255506,140.1526,155.0225,130.2035,156.03 M,0,255506,255549,130.2035,156.03,120.2544,157.0375 M,0,255549,255593,120.2544,157.0375,110.3053,158.045 M,0,255593,255636,110.3053,158.045,100.3562,159.0525 M,0,255636,255679,100.3562,159.0525,91,160
//Storyboard Layer 1 (Fail)
//Storyboard Layer 2 (Pass)
//Storyboard Layer 3 (Foreground)
//Storyboard Layer 4 (Overlay)
//Storyboard Sound Samples

[TimingPoints]
767,346.820809248555,4,2,2,60,1,0
10477,-100,4,2,2,40,0,0
11258,-100,4,2,2,35,0,0
11345,-100,4,2,2,40,0,0
11865,-100,4,2,2,50,0,0
12905,-100,4,2,2,60,0,0
13252,-100,4,2,2,45,0,0
14293,-100,4,2,2,60,0,0
14639,-100,4,2,2,40,0,0
15680,-100,4,2,2,60,0,0
16027,-100,4,2,2,40,0,0
17414,-100,4,2,2,45,0,0
18801,-100,4,2,2,50,0,0
20188,-100,4,2,2,55,0,0
21576,-100,4,2,2,60,0,0
22963,-100,4,2,2,80,0,0
45160,-125,4,2,2,25,0,0
53483,-125,4,2,2,35,0,0
64582,-125,4,2,2,5,0,0
67356,-125,4,2,2,35,0,0
77761,-125,4,2,2,40,0,0
78454,-125,4,2,2,35,0,0
88859,-125,4,2,2,45,0,0
95795,-125,4,2,2,54,0,0
97876,-125,4,2,2,45,0,0
106200,-125,4,2,2,55,0,0
108975,-125,4,2,2,60,0,0
122847,-100,4,2,2,40,0,0
123541,-100,4,2,3,50,0,0
124235,-100,4,2,2,55,0,0
124928,-100,4,2,3,70,0,0
125622,-100,4,2,2,65,0,0
126316,-100,4,2,3,70,0,0
127009,-100,4,2,2,75,0,0
127703,-100,4,2,3,80,0,0
128397,-100,4,2,2,60,0,0
129090,-100,4,2,3,70,0,0
129177,-100,4,2,2,60,0,0
130477,-100,4,2,3,80,0,0
130564,-100,4,2,2,60,0,0
132905,-100,4,2,2,30,0,0
133252,-100,4,2,2,50,0,0
133946,-100,4,2,1,80,0,1
134553,-100,4,2,1,80,0,1
134986,-100,4,2,1,80,0,1
135333,-100,4,2,1,80,0,1
137761,-100,4,2,1,80,0,1
138108,-100,4,2,1,80,0,1
139495,-100,4,2,1,80,0,1
140188,-100,4,2,1,80,0,1
140535,-100,4,2,1,80,0,1
140882,-100,4,2,1,80,0,1
142269,-100,4,2,1,80,0,0
142963,-100,4,2,1,80,0,0
145044,-100,4,2,1,80,0,1
145651,-100,4,2,1,80,0,1
146084,-100,4,2,1,80,0,1
146431,-100,4,2,1,80,0,1
148512,-100,4,2,2,80,0,1
148599,-100,4,2,1,80,0,1
150593,-100,4,2,1,80,0,1
151200,-100,4,2,1,80,0,1
151634,-100,4,2,1,80,0,1
151980,-100,4,2,1,80,0,1
153368,-100,4,2,1,80,0,0
153714,-100,4,2,2,80,0,0
153975,-100,4,2,1,80,0,0
154061,-100,4,2,1,80,0,0
154755,-100,4,2,1,80,0,0
156142,-100,4,2,1,80,0,1
157183,-100,4,2,1,80,0,1
157530,-100,4,2,1,80,0,1
159957,-100,4,2,1,80,0,1
160304,-100,4,2,1,80,0,1
161691,-100,4,2,1,80,0,1
162038,-100,4,2,1,80,0,1
162385,-100,4,2,2,80,0,1
162472,-100,4,2,1,80,0,1
162732,-100,4,2,1,80,0,1
163079,-100,4,2,1,80,0,1
164466,-100,4,2,1,80,0,0
165160,-100,4,2,1,80,0,0
167240,-100,4,2,1,80,0,1
167587,-100,4,2,1,80,0,1
168281,-100,4,2,1,80,0,1
168628,-100,4,2,1,80,0,1
171056,-100,4,2,1,80,0,1
171402,-100,4,2,1,80,0,1
172790,-100,4,2,1,80,0,1
173483,-100,4,2,1,80,0,1
173830,-100,4,2,1,80,0,1
174177,-100,4,2,1,80,0,1
175564,-100,4,2,1,80,0,0
175911,-100,4,2,3,80,0,0
176258,-100,4,2,1,80,0,0
176605,-100,4,2,3,80,0,0
176951,-100,4,2,1,80,0,0
177298,-100,4,2,3,80,0,0
177645,-100,4,2,1,80,0,0
177992,-100,4,2,3,80,0,0
178339,-100,4,2,1,80,0,1
178599,-100,4,2,1,80,0,0
187009,-100,4,2,3,80,0,0
187356,-100,4,2,1,80,0,0
187703,-100,4,2,3,80,0,0
188050,-100,4,2,1,80,0,0
188397,-100,4,2,3,80,0,0
188743,-100,4,2,1,80,0,0
189437,-100,4,2,1,80,0,1
189697,-100,4,2,1,80,0,0
200535,-100,4,2,1,80,0,1
200795,-100,4,2,1,80,0,0
211287,-100,4,2,2,80,0,0
211634,-100,4,2,1,80,0,1
211894,-100,4,2,1,80,0,0
213368,-100,4,2,1,80,0,0
213454,-100,4,2,1,80,0,0
213628,-100,4,2,1,80,0,0
213714,-100,4,2,1,80,0,0
213888,-100,4,2,1,80,0,0
213974,-100,4,2,1,80,0,0
214148,-100,4,2,1,80,0,0
214234,-100,4,2,1,80,0,0
233830,-100,4,2,2,60,0,0
244928,-100,4,2,2,50,0,0

[Colours]
Combo1 : 206,203,140
Combo2 : 126,169,128
Combo3 : 136,176,200
Combo4 : 190,143,145

[HitObjects]
73,288,767,6,0,P|111:224|201:217,1,160,4|2,0:1|3:0,0:0:0:0:
257,257,1807,1,8,0:0:0:0:
316,203,2154,2,0,L|303:107,1,80,4|8,3:0|0:0,0:0:0:0:
340,51,2847,2,0,P|382:50|419:61,1,80,2|8,3:0|0:0,0:0:0:0:
468,123,3541,6,0,B|485:210|409:190|434:283,1,160,4|2,3:0|3:0,0:0:0:0:
465,344,4582,1,8,0:0:0:0:
387,362,4928,2,0,P|346:357|304:343,1,80,4|8,3:0|0:0,0:0:0:0:
252,288,5622,2,0,P|240:249|236:210,1,80,2|8,3:0|0:0,0:0:0:0:
252,131,6316,6,0,L|261:43,2,80,4|8|2,3:0|0:0|3:0,0:0:0:0:
236,210,7356,1,8,0:0:0:0:
175,262,7703,2,0,L|184:350,2,80,4|8|2,3:0|0:0|3:0,0:0:0:0:
117,205,8743,1,8,0:0:0:0:
144,129,9090,6,0,L|248:140,1,80,4|8,3:0|0:0,0:0:0:0:
299,110,9784,2,0,L|379:101,1,80,2|8,3:0|0:0,0:0:0:0:
451,134,10477,2,0,L|440:238,1,80,4|8,3:0|0:0,0:0:0:0:
386,270,11171,2,0,L|394:349,1,80,2|8,3:0|0:0,0:0:0:0:
319,380,11865,6,0,P|261:364|243:265,1,160,4|2,3:0|3:0,0:0:0:0:
288,213,12905,1,8,0:0:0:0:
233,154,13252,2,0,P|151:170|69:135,1,160,4|2,3:0|3:0,0:0:0:0:
33,79,14293,1,8,0:0:0:0:
256,192,14639,12,12,22963,0:0:0:0:
338,339,45160,6,0,P|391:349|451:304,2,128,2|10|2,0:0|0:1|0:1,0:0:0:0:
176,148,47587,1,2,0:1:0:0:
203,69,47934,2,0,L|336:85,1,128,2|2,0:1|0:1,0:0:0:0:
452,197,49321,2,0,P|468:243|466:263,2,64,2|2|8,0:1|0:1|0:1,0:0:0:0:
294,250,50709,6,0,P|231:249|167:271,2,128,2|2|2,0:1|0:1|0:0,0:0:0:0:
427,350,52790,1,2,0:1:0:0:
482,193,53483,2,0,B|352:225|383:112|242:144,1,256,2|2,0:1|0:1,0:0:0:0:
96,224,55564,1,0,0:0:0:0:
218,336,56258,6,0,P|250:328|352:358,2,128,2|2|2,0:1|0:1|0:1,0:0:0:0:
28,173,58686,1,2,0:0:0:0:
84,112,59032,2,0,P|159:139|204:123,1,128,2|10,0:1|0:1,0:0:0:0:
353,54,60420,2,0,L|425:60,2,64,2|2|8,0:1|0:0|0:1,0:0:0:0:
189,21,61807,6,0,P|126:20|59:43,2,128,2|2|2,0:0|0:1|0:0,0:0:0:0:
298,146,63888,1,2,0:1:0:0:
256,192,64582,12,6,67356,0:0:0:0:
256,49,68743,5,2,0:0:0:0:
256,49,70131,2,0,P|281:123|324:142,1,128,4|2,0:3|0:0,0:0:0:0:
385,196,71171,1,2,0:0:0:0:
351,272,71518,2,0,L|220:252,1,128,4|8,0:3|0:1,0:0:0:0:
74,180,72905,6,0,P|66:142|66:109,2,64,4|8|2,0:3|0:1|0:1,0:0:0:0:
110,255,73946,1,2,0:1:0:0:
173,308,74293,2,0,B|247:323|226:273|294:284,1,128,2|2,0:1|0:1,0:0:0:0:
445,214,75680,2,0,P|459:147|427:98,1,128,4|2,3:0|0:0,0:0:0:0:
370,39,76720,1,2,0:0:0:0:
286,44,77067,2,0,P|244:45|217:57,1,64,4|8,3:0|0:1,0:0:0:0:
174,120,77761,1,8,1:3:0:0:
256,264,78454,5,4,3:0:0:0:
256,264,79842,1,2,0:0:0:0:
256,264,81229,2,0,P|280:215|355:201,1,128,4|2,0:3|0:0,0:0:0:0:
411,251,82269,1,2,0:0:0:0:
482,209,82616,2,0,L|466:75,1,128,4|8,3:0|0:1,0:0:0:0:
319,158,84003,6,0,L|312:234,2,64,4|2|2,3:0|0:0|0:1,0:0:0:0:
285,81,85044,1,2,0:0:0:0:
218,131,85391,2,0,B|143:146|165:97|96:107,1,128,4|2,3:0|0:0,0:0:0:0:
29,259,86778,2,0,P|78:220|146:235,1,128,4|2,3:0|0:0,0:0:0:0:
196,290,87819,1,2,0:0:0:0:
253,350,88165,2,0,L|325:338,1,64,4|2,3:0|0:0,0:0:0:0:
395,314,88859,1,2,0:0:0:0:
307,172,89553,6,0,P|284:120|306:46,2,128,4|8|4,3:0|1:3|3:0,0:0:0:0:
426,287,91634,1,8,1:3:0:0:
375,352,91980,1,2,0:0:0:0:
302,311,92327,2,0,P|254:325|234:337,1,64,2|2,0:1|0:0,0:0:0:0:
164,301,93021,2,0,P|181:265|187:237,1,64,8|2,1:3|0:0,0:0:0:0:
196,158,93714,2,0,L|265:169,2,64,4|2|8,3:0|0:0|1:3,0:0:0:0:
77,41,95102,6,0,P|103:36|150:53,1,64,4|2,3:0|0:0,0:0:0:0:
220,60,95795,2,0,P|246:65|281:56,1,64,2|2,1:0|0:1,0:0:0:0:
353,99,96489,2,0,B|427:114|406:64|475:75,1,128,2|8,0:1|1:3,0:0:0:0:
499,239,97876,2,0,P|432:253|380:222,1,128,4|8,3:0|1:3,0:0:0:0:
313,178,98917,1,2,0:0:0:0:
244,225,99264,2,0,P|245:267|256:294,1,64,4|2,3:0|0:0,0:0:0:0:
300,355,99957,1,4,1:0:0:0:
155,271,100651,6,0,P|110:251|29:264,2,128,4|8|2,3:0|1:3|0:0,0:0:0:0:
300,355,102732,1,8,1:3:0:0:
372,314,103079,1,2,0:0:0:0:
318,250,103425,2,0,P|321:213|333:177,1,64,4|2,3:0|0:0,0:0:0:0:
302,108,104119,2,0,P|265:105|227:92,1,64,8|2,1:3|0:0,0:0:0:0:
169,51,104813,2,0,L|93:60,2,64,4|2|8,3:0|0:0|1:3,0:0:0:0:
273,181,106200,6,0,P|278:207|270:256,1,64,2|2,0:1|0:1,0:0:0:0:
201,285,106894,2,0,P|161:289|138:280,1,64,2|0,1:0|0:0,0:0:0:0:
71,232,107587,2,0,P|70:185|135:135,1,128,2|2,0:1|1:1,0:0:0:0:
293,151,108975,2,0,P|380:147|410:114,1,128,2|2,0:1|1:1,0:0:0:0:
460,58,110015,1,2,0:1:0:0:
487,136,110362,2,0,L|496:213,1,64,2|0,0:1|0:0,0:0:0:0:
477,281,111056,1,8,1:3:0:0:
328,356,111749,5,4,0:0:0:0:
354,92,122847,6,0,B|274:106|274:106|195:80,3,160,4|8|4|8,3:0|0:0|3:0|0:0,0:0:0:0:
107,212,125622,6,0,B|180:180|180:180|263:206,3,160,4|8|4|8,3:0|0:0|3:0|0:0,0:0:0:0:
288,361,128397,6,0,B|249:371|249:371|198:355,2,80,4|4|8,0:3|0:3|0:0,0:0:0:0:
359,325,129437,1,4,0:3:0:0:
399,256,129784,2,0,L|405:166,2,80,4|4|8,0:3|0:3|0:0,0:0:0:0:
449,318,130824,1,4,0:3:0:0:
512,268,131171,1,4,3:0:0:0:
90,351,133946,6,0,B|61:273|61:273|86:191,1,160,4|0,0:1|0:0,0:0:0:0:
123,130,134986,1,8,0:0:0:0:
178,72,135333,2,0,L|269:84,1,80,4|8,0:3|0:0,0:0:0:0:
327,121,136027,2,0,B|360:115|360:115|365:112|365:112|370:113|370:113|408:107,1,80,2|8,0:0|0:0,0:0:0:0:
475,146,136720,6,0,B|481:182|464:213|464:213|443:223|443:223|435:251|458:287,1,160,6|4,0:3|0:0,0:0:0:0:
423,359,137761,1,8,0:0:0:0:
356,316,138108,2,0,P|317:320|273:344,1,80,4|8,0:3|0:0,0:0:0:0:
203,357,138801,2,0,P|190:319|166:287,1,80,0|8,0:0|0:0,0:0:0:0:
99,242,139495,6,0,B|86:208|107:175|107:175|88:158|88:158|113:136|123:102,1,160,6|2,0:3|0:1,0:0:0:0:
182,51,140535,1,8,0:0:0:0:
239,106,140882,2,0,P|282:107|327:95,1,80,4|10,3:0|0:0,0:0:0:0:
389,134,141576,2,0,B|383:167|383:167|380:172|380:172|382:180|382:180|378:216,1,80,2|8,0:0|0:0,0:0:0:0:
326,271,142269,6,0,P|294:254|178:287,3,160,4|4|4|4,3:0|3:0|3:0|3:0,0:0:0:0:
122,338,144697,1,10,0:0:0:0:
53,296,145044,6,0,B|46:229|46:229|33:209|33:209|29:132,1,160,4|0,1:0|3:0,0:0:0:0:
78,77,146084,1,10,0:0:0:0:
157,89,146431,2,0,P|203:82|245:92,1,80,4|10,3:0|0:0,0:0:0:0:
308,54,147125,2,0,P|354:47|396:57,1,80,6|10,3:0|0:0,0:0:0:0:
451,100,147819,6,0,B|419:175|419:175|448:265,1,160,4|0,1:0|1:0,0:0:0:0:
476,322,148859,1,8,0:0:0:0:
401,351,149206,2,0,P|358:350|310:328,1,80,4|10,3:0|0:0,0:0:0:0:
250,304,149899,2,0,B|212:311|212:311|206:309|206:309|201:313|201:313|160:320,1,80,6|8,3:0|0:0,0:0:0:0:
96,300,150593,6,0,P|66:266|118:170,1,160,4|0,1:0|3:0,0:0:0:0:
184,151,151634,1,8,0:0:0:0:
256,118,151980,2,0,P|267:76|262:36,1,80,4|10,3:0|0:0,0:0:0:0:
190,6,152674,2,0,P|150:2|112:13,1,80,2|8,3:0|0:0,0:0:0:0:
59,73,153368,6,0,L|69:166,1,80,4|2,0:3|1:0,0:0:0:0:
89,229,154061,2,0,B|110:237|133:232|133:232|163:219|163:219|175:232|175:250|175:250|196:250|235:268,1,160,4|4,3:0|0:3,0:0:0:0:
269,326,155102,1,4,0:3:0:0:
341,292,155449,2,0,B|347:251|347:251|325:210,1,80,6|0,0:3|3:0,0:0:0:0:
342,138,156142,6,0,P|367:122|487:176,1,160,4|2,1:0|3:0,0:0:0:0:
503,236,157183,1,10,0:0:0:0:
460,304,157530,2,0,L|378:293,1,80,4|10,0:3|0:0,0:0:0:0:
302,276,158223,2,0,B|264:280|264:280|261:277|261:277|259:280|259:280|221:285,1,80,2|8,0:0|0:0,0:0:0:0:
164,221,158917,6,0,P|173:172|270:136,1,160,4|0,1:0|3:0,0:0:0:0:
337,173,159957,1,8,0:0:0:0:
406,133,160304,2,0,P|413:102|406:44,1,80,4|10,3:0|0:0,0:0:0:0:
342,10,160998,2,0,L|259:25,1,80,2|8,0:0|0:0,0:0:0:0:
220,92,161691,6,0,B|198:125|189:149|189:149|142:162|112:160|88:138,1,160,4|8,0:1|1:0,0:0:0:0:
29,102,162732,1,8,0:0:0:0:
7,179,163079,2,0,L|19:264,1,80,4|8,3:3|0:0,0:0:0:0:
79,309,163772,2,0,B|112:307|112:307|118:304|118:304|124:306|124:306|158:305,1,80,0|8,3:0|0:0,0:0:0:0:
228,338,164466,6,0,B|322:357|295:295|382:308,3,160,4|4|0|6,3:0|3:0|3:0|3:0,0:0:0:0:
441,257,166894,1,8,0:0:0:0:
403,186,167240,6,0,P|330:179|256:233,1,160,4|0,1:0|3:0,0:0:0:0:
219,294,168281,1,8,0:0:0:0:
148,255,168628,2,0,P|105:250|65:260,1,80,4|10,3:0|0:0,0:0:0:0:
72,338,169321,2,0,P|110:346|150:341,1,80,2|8,3:0|0:0,0:0:0:0:
219,299,170015,6,0,B|282:285|282:285|378:324,1,160,4|0,1:0|3:0,0:0:0:0:
440,361,171056,1,10,0:0:0:0:
492,301,171402,2,0,P|491:264|482:207,1,80,4|10,3:0|0:0,0:0:0:0:
434,159,172096,2,0,B|433:129|433:129|431:120|431:120|434:114|434:114|433:63,1,80,2|8,3:0|0:0,0:0:0:0:
369,36,172790,6,0,P|352:61|229:91,1,160,4|0,1:0|3:0,0:0:0:0:
154,78,173830,1,10,0:0:0:0:
77,54,174177,2,0,P|40:66|5:94,1,80,4|10,3:0|0:0,0:0:0:0:
0,170,174871,2,0,P|32:194|69:206,1,80,2|8,3:0|0:0,0:0:0:0:
148,222,175564,6,0,L|140:309,1,80,6|8,3:0|0:0,0:0:0:0:
204,350,176258,1,2,3:0:0:0:
335,258,176951,1,2,3:0:0:0:
258,117,177645,1,2,3:0:0:0:
408,65,178339,6,0,P|457:74|464:237,1,240,4|8,1:0|0:0,0:0:0:0:
405,276,179726,2,0,L|316:260,2,80,4|8|6,3:0|0:0|3:0,0:0:0:0:
460,332,180767,1,8,0:0:0:0:
386,364,181113,6,0,P|336:364|237:317,1,160,4|0,1:0|3:0,0:0:0:0:
202,246,182154,1,8,0:0:0:0:
192,166,182501,2,0,P|186:128|26:118,1,240,4|8,3:0|0:0,0:0:0:0:
5,196,183888,6,0,L|16:285,1,80,4|8,1:0|0:0,0:0:0:0:
69,333,184582,2,0,P|105:323|148:323,1,80,2|8,3:0|0:0,0:0:0:0:
222,350,185275,2,0,P|261:354|308:346,2,80,4|8|6,3:0|0:0|3:0,0:0:0:0:
147,323,186316,1,8,0:0:0:0:
191,256,186662,6,0,L|197:167,2,80,4|14|0,1:0|0:0|3:0,0:0:0:0:
147,323,187703,1,14,0:0:0:0:
81,276,188050,2,0,L|75:187,2,80,0|14|4,3:0|0:0|3:0,0:0:0:0:
147,323,189090,1,4,3:0:0:0:
222,349,189437,6,0,B|294:330|294:262|294:262|356:291|406:222,1,240,4|8,1:0|0:0,0:0:0:0:
430,160,190824,2,0,L|434:71,2,80,4|8|4,3:0|0:0|3:0,0:0:0:0:
483,220,191865,1,8,0:0:0:0:
471,299,192212,6,0,B|472:330|447:381,1,80,4|8,1:0|0:0,0:0:0:0:
376,343,192905,2,0,B|330:365|299:364,1,80,0|8,3:0|0:0,0:0:0:0:
234,316,193599,2,0,B|88:345|143:250|6:272,1,240,4|8,3:0|0:0,0:0:0:0:
6,191,194986,6,0,P|36:179|100:172,1,80,4|8,1:0|0:0,0:0:0:0:
122,101,195680,2,0,P|158:98|202:112,1,80,2|8,3:0|0:0,0:0:0:0:
273,140,196373,2,0,L|367:126,2,80,4|8|2,3:0|0:0|3:0,0:0:0:0:
206,185,197414,1,8,0:0:0:0:
260,243,197761,6,0,P|276:271|280:327,1,80,4|8,1:0|0:0,0:0:0:0:
344,366,198454,2,0,P|411:324|490:317,1,160,8|6,0:0|3:0,0:0:0:0:
502,237,199495,1,10,0:0:0:0:
446,179,199842,2,0,P|454:145|457:88,1,80,8|8,0:0|0:0,0:0:0:0:
396,48,200535,6,0,P|333:105|185:60,1,240,4|0,1:0|0:0,0:0:0:0:
131,20,201923,2,0,P|155:60|117:244,1,240,4|0,1:0|0:0,0:0:0:0:
144,316,203310,6,0,P|173:315|222:336,1,80,4|8,1:0|0:0,0:0:0:0:
293,365,204003,2,0,P|329:347|369:346,1,80,2|8,0:0|0:0,0:0:0:0:
437,304,204697,2,0,P|461:264|428:161,1,160,4|2,3:0|0:0,0:0:0:0:
363,116,205738,1,8,0:0:0:0:
303,169,206084,6,0,P|189:185|52:148,1,240,4|0,1:0|0:0,0:0:0:0:
64,76,207472,2,0,B|117:73|117:73|167:101|167:101|185:58|185:58|267:32,1,240,4|0,1:0|0:0,0:0:0:0:
256,192,208859,12,4,211634,3:0:0:0:
90,321,213021,6,0,P|63:250|184:179,1,240,4|0,1:0|0:0,0:0:0:0:
251,218,214408,6,0,L|334:211,1,80,4|8,1:0|0:0,0:0:0:0:
389,156,215102,2,0,P|394:121|382:73,1,80,2|8,0:0|0:0,0:0:0:0:
318,32,215795,2,0,B|226:17|258:78|164:62,1,160,4|2,3:0|0:0,0:0:0:0:
110,119,216836,1,8,0:0:0:0:
170,171,217183,6,0,P|206:215|95:323,1,240,4|0,1:0|0:0,0:0:0:0:
37,287,218570,1,4,1:0:0:0:
25,207,218917,1,10,0:0:0:0:
256,192,219957,12,12,222732,0:0:0:0:
439,96,233830,6,0,P|401:160|311:167,1,160,4|2,0:1|3:0,0:0:0:0:
255,127,234870,1,8,0:0:0:0:
196,181,235217,2,0,L|209:277,1,80,4|8,3:0|0:0,0:0:0:0:
175,334,235911,2,0,P|133:335|96:324,1,80,0|8,0:0|0:0,0:0:0:0:
44,261,236604,6,0,B|27:174|103:194|78:101,1,160,4|2,3:0|3:0,0:0:0:0:
47,40,237645,1,8,0:0:0:0:
125,22,237992,2,0,P|166:27|208:41,1,80,4|8,3:0|0:0,0:0:0:0:
226,115,238685,2,0,P|238:154|242:193,1,80,2|8,3:0|0:0,0:0:0:0:
278,264,239379,6,0,L|366:273,2,80,4|8|2,3:0|0:0|3:0,0:0:0:0:
241,192,240419,1,8,0:0:0:0:
175,145,240766,2,0,L|87:154,2,80,4|8|2,3:0|0:0|3:0,0:0:0:0:
239,97,241806,1,8,0:0:0:0:
306,54,242154,6,0,P|359:52|388:66,1,80,4|8,3:0|0:0,0:0:0:0:
445,112,242847,2,0,L|454:192,1,80,2|8,3:0|0:0,0:0:0:0:
413,260,243541,2,0,L|309:271,1,80,4|4,3:0|3:0,0:0:0:0:
277,325,244235,1,4,3:0:0:0:
155,222,244928,6,0,P|193:158|283:151,1,160,4|2,3:0|3:0,0:0:0:0:
350,164,245968,1,8,0:0:0:0:
414,116,246315,2,0,L|401:20,1,80,4|8,3:0|0:0,0:0:0:0:
329,5,247009,2,0,P|287:4|250:15,1,80,2|8,3:0|0:0,0:0:0:0:
182,57,247703,6,0,B|95:40|115:116|22:91,1,160,4|2,3:0|3:0,0:0:0:0:
16,172,248743,1,8,0:0:0:0:
74,226,249090,2,0,P|115:231|157:245,1,80,4|8,3:0|0:0,0:0:0:0:
216,290,249784,2,0,P|255:285|293:274,1,80,2|8,3:0|0:0,0:0:0:0:
348,214,250477,6,0,L|339:126,2,80,4|8|2,3:0|0:0|3:0,0:0:0:0:
407,267,251517,1,8,0:0:0:0:
442,195,251865,2,0,L|451:107,2,80,4|8|2,3:0|0:0|3:0,0:0:0:0:
488,259,252904,1,8,0:0:0:0:
441,324,253252,6,0,L|337:313,1,80,4|8,3:0|0:0,0:0:0:0:
289,280,253946,2,0,L|209:289,1,80,2|8,3:0|0:0,0:0:0:0:
146,240,254639,2,0,L|157:136,1,80,4|8,3:0|0:0,0:0:0:0:
106,96,255333,2,0,L|27:104,1,80,2|8,3:0|0:0,0:0:0:0:
256,192,256027,12,0,267125,0:0:0:0:
