osu file format v14

[General]
AudioFilename: audio.mp3
AudioLeadIn: 0
PreviewTime: -1
Countdown: 1
SampleSet: Normal
StackLeniency: 0.7
Mode: 0
LetterboxInBreaks: 0
WidescreenStoryboard: 1

[Editor]
DistanceSpacing: 1.3
BeatDivisor: 4
GridSize: 8
TimelineZoom: 0.6999999

[Metadata]
Title:Dance of Swords
TitleUnicode:Dance of Swords
Artist:Rebecca Sugar feat Aivi and Surasshu
ArtistUnicode:Rebecca Sugar feat Aivi and Surasshu
Creator:rabarbarek
Version:Perfect Battle
Source:Steven Universe
Tags:Steven Universe SU Pearl Steven Universe Soundtrack OST lLet this be the perfect battle
BeatmapID:1311401
BeatmapSetID:622004

[Difficulty]
HPDrainRate:6
CircleSize:4
OverallDifficulty:5
ApproachRate:9
SliderMultiplier:1.6
SliderTickRate:1

[Events]
//Background and Video events
0,0,"su.jpg",0,0
//Break Periods
//Storyboard Layer 0 (Background)
//Storyboard Layer 1 (Fail)
//Storyboard Layer 2 (Pass)
//Storyboard Layer 3 (Foreground)
//Storyboard Sound Samples

[TimingPoints]
8202,500,4,1,0,100,1,0

[HitObjects]
64,96,8202,6,0,B|112:192|176:184|184:184,1,120
224,192,8952,1,0,0:0:0:0:
408,72,9452,1,0,0:0:0:0:
400,64,9577,1,0,0:0:0:0:
328,112,9827,2,0,L|280:144,1,40
272,168,10202,6,0,P|184:208|168:192,1,120
120,144,10952,1,0,0:0:0:0:
120,144,12202,5,0,0:0:0:0:
202,294,12577,1,0,0:0:0:0:
352,198,12952,1,0,0:0:0:0:
320,112,13202,2,0,P|240:48|216:128,1,120
72,192,13952,1,0,0:0:0:0:
344,128,14202,5,0,0:0:0:0:
300,280,14577,1,0,0:0:0:0:
110,192,14952,1,0,0:0:0:0:
184,72,15202,1,0,0:0:0:0:
216,104,15327,1,0,0:0:0:0:
264,80,15577,1,0,0:0:0:0:
264,32,15702,1,0,0:0:0:0:
112,144,15952,1,0,0:0:0:0:
264,32,16202,6,0,P|352:56|360:80,1,120
392,144,16952,1,0,0:0:0:0:
360,72,17202,2,0,P|336:40|248:32,1,120
392,144,17952,1,0,0:0:0:0:
408,240,18202,6,0,L|248:280,2,160
408,240,19264,1,0,0:0:0:0:
352,112,19577,1,0,0:0:0:0:
416,240,19952,1,0,0:0:0:0:
104,192,20202,5,0,0:0:0:0:
248,136,20452,1,0,0:0:0:0:
168,320,20702,1,0,0:0:0:0:
320,272,20952,1,0,0:0:0:0:
256,192,21202,12,0,21702,0:0:0:0:
192,80,22202,6,0,L|208:96,3,20
400,56,24139,6,0,L|384:72,2,20
112,96,26202,6,0,P|136:128|176:120,1,80
256,56,26702,2,0,P|288:32|320:48,1,80
280,144,27202,2,0,P|320:184|360:160,1,80
440,192,27702,2,0,P|480:208|480:240,1,80
400,304,28202,6,0,P|384:328|336:344,1,80
312,240,28702,2,0,P|256:256|240:216,1,80
112,208,29202,1,0,0:0:0:0:
128,184,29264,1,0,0:0:0:0:
151,175,29327,1,0,0:0:0:0:
183,171,29452,1,0,0:0:0:0:
288,144,29702,1,0,0:0:0:0:
368,72,29952,1,0,0:0:0:0:
408,222,30202,5,0,0:0:0:0:
347,283,30452,1,0,0:0:0:0:
237,295,30702,1,0,0:0:0:0:
127,252,30952,1,0,0:0:0:0:
158,112,31202,1,0,0:0:0:0:
341,70,31452,1,0,0:0:0:0:
353,277,31702,1,0,0:0:0:0:
127,259,31952,1,0,0:0:0:0:
256,192,32202,5,0,0:0:0:0:
416,64,32452,2,0,P|352:32|312:48,1,80
264,136,32952,2,0,B|112:200|88:248|192:312|16:32|16:24,1,380
16,24,34202,5,0,0:0:0:0:
120,216,34577,1,0,0:0:0:0:
280,136,34952,1,0,0:0:0:0:
424,56,35202,1,0,0:0:0:0:
393,88,35327,1,0,0:0:0:0:
374,128,35452,1,0,0:0:0:0:
375,173,35577,1,0,0:0:0:0:
384,217,35702,1,0,0:0:0:0:
378,261,35827,1,0,0:0:0:0:
351,296,35952,1,0,0:0:0:0:
315,323,36077,1,0,0:0:0:0:
240,328,36202,5,0,0:0:0:0:
128,184,36452,1,0,0:0:0:0:
152,152,36577,1,0,0:0:0:0:
192,128,36702,1,0,0:0:0:0:
240,328,37202,1,0,0:0:0:0:
272,152,37452,1,0,0:0:0:0:
296,120,37577,1,0,0:0:0:0:
336,96,37702,1,0,0:0:0:0:
440,192,37952,1,0,0:0:0:0:
256,48,38202,5,0,0:0:0:0:
48,88,38452,1,0,0:0:0:0:
56,120,38577,1,0,0:0:0:0:
48,144,38702,1,0,0:0:0:0:
72,248,38952,1,0,0:0:0:0:
256,48,39202,1,0,0:0:0:0:
464,88,39452,1,0,0:0:0:0:
456,120,39577,1,0,0:0:0:0:
464,144,39702,1,0,0:0:0:0:
440,248,39952,1,0,0:0:0:0:
358,69,40202,5,0,0:0:0:0:
126,253,40452,1,0,0:0:0:0:
371,260,40702,1,0,0:0:0:0:
160,69,40952,1,0,0:0:0:0:
199,295,41202,1,0,0:0:0:0:
229,284,41327,1,0,0:0:0:0:
251,259,41452,1,0,0:0:0:0:
264,225,41577,1,0,0:0:0:0:
262,194,41702,1,0,0:0:0:0:
256,192,41952,12,0,49202,0:0:0:0:
