osu file format v14

[General]
AudioFilename: audio.mp3
AudioLeadIn: 0
PreviewTime: 22531
Countdown: 0
SampleSet: Normal
StackLeniency: 0.7
Mode: 0
LetterboxInBreaks: 0
StoryFireInFront: 0
WidescreenStoryboard: 1

[Editor]
Bookmarks: 11109,12147,22531,22877,23223
DistanceSpacing: 2
BeatDivisor: 4
GridSize: 32
TimelineZoom: 1

[Metadata]
Title:Bacon Pancakes (New York Remix)
TitleUnicode:Bacon Pancakes (New York Remix)
Artist:Rebecca Sugar & Alicia Keys
ArtistUnicode:Rebecca Sugar & Alicia Keys
Creator:KeyLoGreen
Version:Expert
Source:
Tags:adventure time empire state of mind
BeatmapID:1315712
BeatmapSetID:621132

[Difficulty]
HPDrainRate:6
CircleSize:4.8
OverallDifficulty:8
ApproachRate:9
SliderMultiplier:2
SliderTickRate:1

[Events]
//Background and Video events
0,0,"new-york-manhattan-hd-wallpaper-picture-free-download.jpg",0,0
//Break Periods
//Storyboard Layer 0 (Background)
//Storyboard Layer 1 (Fail)
//Storyboard Layer 2 (Pass)
//Storyboard Layer 3 (Foreground)
//Storyboard Sound Samples

[TimingPoints]
1072,346.120565330257,4,1,1,80,1,0
12147,-100,4,1,2,80,0,0
12320,-100,4,1,1,80,0,0
14916,-100,4,1,3,80,0,0
15089,-100,4,1,1,80,0,0
17685,-100,4,1,2,80,0,0
17858,-100,4,1,1,80,0,0
23223,-80,4,1,2,100,0,1
23396,-80,4,1,1,100,0,1
25992,-80,4,1,3,100,0,1
26165,-80,4,1,1,100,0,1
28069,-80,4,1,1,100,0,0
28761,-80,4,1,2,100,0,1
28934,-80,4,1,1,100,0,1
31530,-80,4,1,3,100,0,1
31703,-80,4,1,1,100,0,1
32568,-100,4,1,1,100,0,1
33607,-80,4,1,1,100,0,0
34299,-100,4,1,2,100,0,0
34472,-100,4,1,1,100,0,0
39837,-100,4,1,3,100,0,0
40183,-100,4,1,1,43,0,0
40356,-100,4,1,1,43,0,0
40529,-100,4,1,1,37,0,0
40702,-100,4,1,1,34,0,0
40875,-100,4,1,1,31,0,0
41048,-100,4,1,1,28,0,0
41221,-100,4,1,1,25,0,0
41395,-100,4,1,1,22,0,0
41568,-100,4,1,1,19,0,0
41741,-100,4,1,1,16,0,0
41914,-100,4,1,1,13,0,0
42087,-100,4,1,1,10,0,0
42260,-100,4,1,1,7,0,0
42433,-100,4,1,1,5,0,0
42606,-100,4,2,1,5,0,0

[Colours]
Combo1 : 255,223,0
Combo2 : 0,128,255
Combo3 : 48,207,48
Combo4 : 255,255,255
SliderTrackOverride : 150,75,50
SliderBorder : 250,175,150

[HitObjects]
117,279,11109,6,0,P|152:307|233:300,1,100,4|0,0:0|0:0,0:0:0:0:
230,113,11455,2,0,P|202:148|209:229,1,100,12|0,0:0|0:0,0:0:0:0:
361,315,11801,2,0,P|389:280|382:199,1,100,4|0,0:0|0:0,0:0:0:0:
302,48,12147,6,0,L|138:38,1,150,6|0,0:0|0:0,0:0:0:0:
152,38,12493,1,0,0:0:0:0:
197,201,12667,1,0,0:0:0:0:
464,177,12840,2,0,P|429:149|348:156,1,100,10|0,0:0|0:0,0:0:0:0:
179,293,13186,2,0,P|228:289|267:260,1,100,2|4,0:0|0:0,0:0:0:0:
302,48,13532,5,2,0:0:0:0:
120,132,13705,1,4,0:0:0:0:
375,144,13878,1,4,0:0:0:0:
152,38,14051,1,0,0:0:0:0:
368,261,14224,2,0,P|417:257|456:228,1,100,10|4,0:0|0:0,0:0:0:0:
302,48,14570,2,0,P|266:81|255:130,1,100,0|4,0:0|0:0,0:0:0:0:
368,261,14916,6,0,L|204:251,1,150,6|0,0:0|0:0,0:0:0:0:
218,251,15262,1,0,0:0:0:0:
255,130,15436,1,4,0:0:0:0:
368,261,15609,1,10,0:0:0:0:
321,109,15783,1,0,0:0:0:0:
199,311,15955,1,2,0:0:0:0:
255,130,16129,1,4,0:0:0:0:
441,276,16301,5,2,0:0:0:0:
197,219,16475,1,4,0:0:0:0:
398,183,16647,1,0,0:0:0:0:
199,311,16821,1,4,0:0:0:0:
441,276,16993,2,0,P|479:245|494:198,1,100,12|0,0:0|0:0,0:0:0:0:
320,129,17339,2,0,P|350:167|397:182,1,100,4|0,0:0|0:0,0:0:0:0:
263,34,17685,6,0,P|224:64|214:166,1,150,4|0,0:0|0:0,0:0:0:0:
211,159,18031,1,0,0:0:0:0:
399,92,18204,1,0,0:0:0:0:
154,41,18378,2,0,L|44:34,1,100,10|0,0:0|0:0,0:0:0:0:
310,152,18724,2,0,L|200:158,1,100,2|4,0:0|0:0,0:0:0:0:
102,302,19070,6,0,P|65:238|84:167,1,150,2|0,0:0|0:0,0:0:0:0:
84,167,19416,1,4,0:0:0:0:
237,295,19589,1,0,0:0:0:0:
271,43,19762,1,10,0:0:0:0:
169,227,19935,1,4,0:0:0:0:
188,72,20108,1,0,0:0:0:0:
237,295,20454,6,0,P|281:312|330:302,1,100,6|0,0:0|0:0,0:0:0:0:
281,78,20800,2,0,P|236:61|187:72,1,100,4|0,0:0|0:0,0:0:0:0:
399,216,21146,2,0,L|406:117,1,100,14|0,0:0|0:0,0:0:0:0:
237,295,21493,2,0,P|281:312|220:184,1,350,6|0,0:0|0:0,0:0:0:0:
249,158,22185,5,4,0:0:0:0:
313,286,22358,1,0,0:0:0:0:
345,94,22531,5,12,0:0:0:0:
217,350,22704,1,0,0:0:0:0:
249,158,22877,5,4,0:0:0:0:
313,286,23050,1,0,0:0:0:0:
185,30,23223,6,0,B|169:186|169:186|222:169,1,187.5,4|0,0:0|0:0,0:0:0:0:
198,176,23569,1,0,0:0:0:0:
69,42,23742,1,0,0:0:0:0:
100,289,23915,2,0,P|166:312|239:277,1,125,10|0,0:0|0:0,0:0:0:0:
205,60,24262,2,0,P|182:126|217:199,1,125,2|4,0:0|0:0,0:0:0:0:
421,272,24608,5,2,0:0:0:0:
341,112,24781,1,4,0:0:0:0:
301,352,24954,1,4,0:0:0:0:
461,32,25127,1,0,0:0:0:0:
320,234,25300,2,0,L|196:242,1,125,10|4,0:0|0:0,0:0:0:0:
341,112,25646,2,0,P|397:136|428:189,1,125,0|4,0:0|0:0,0:0:0:0:
122,315,25992,6,0,P|91:261|150:152,1,187.5,6|0,0:0|0:0,0:0:0:0:
140,156,26338,1,0,0:0:0:0:
421,272,26511,1,4,0:0:0:0:
195,242,26684,1,10,0:0:0:0:
428,189,26857,1,0,0:0:0:0:
122,315,27031,1,2,0:0:0:0:
421,272,27204,1,4,0:0:0:0:
155,92,27377,5,2,0:0:0:0:
122,315,27550,1,4,0:0:0:0:
421,272,27723,1,4,0:0:0:0:
195,242,27896,1,0,0:0:0:0:
421,72,28069,2,0,P|443:128|428:187,1,125,12|0,0:0|0:0,0:0:0:0:
131,155,28415,2,0,P|187:132|246:147,1,125,4|0,0:0|0:0,0:0:0:0:
72,326,28761,6,0,P|41:272|58:147,1,187.5,4|0,0:0|0:0,0:0:0:0:
55,151,29107,1,0,0:0:0:0:
258,298,29280,1,0,0:0:0:0:
164,66,29453,2,0,L|40:74,1,125,10|0,0:0|0:0,0:0:0:0:
364,53,29800,2,0,L|240:61,1,125,2|4,0:0|0:0,0:0:0:0:
58,152,30146,6,0,P|147:172|232:135,1,187.5,2|0,0:0|0:0,0:0:0:0:
232,135,30491,1,4,0:0:0:0:
386,333,30665,1,0,0:0:0:0:
364,53,30838,1,10,0:0:0:0:
225,321,31011,1,4,0:0:0:0:
232,135,31184,1,0,0:0:0:0:
386,333,31530,6,0,P|349:284|349:222,1,125,6|0,0:0|0:0,0:0:0:0:
364,53,31876,2,0,P|400:101|400:163,1,125,4|0,0:0|0:0,0:0:0:0:
227,343,32222,2,0,P|166:350|113:319,1,125,14|0,0:0|0:0,0:0:0:0:
128,80,32568,2,0,B|277:35|332:220|188:261|188:261|250:240|303:276|318:326|318:326|308:296|329:260,1,550,6|0,0:0|0:0,0:0:0:0:
321,274,33607,5,12,0:0:0:0:
433,50,33780,1,0,0:0:0:0:
455,328,33953,5,4,0:0:0:0:
349,101,34126,1,0,0:0:0:0:
455,328,34299,6,0,L|305:319,1,150,4|0,0:0|0:0,0:0:0:0:
305,319,34645,1,0,0:0:0:0:
444,181,34818,1,0,0:0:0:0:
238,365,34991,2,0,P|226:316|243:270,1,100,10|0,0:0|0:0,0:0:0:0:
444,181,35337,2,0,L|344:175,1,100,2|4,0:0|0:0,0:0:0:0:
196,38,35684,6,0,P|233:102|214:173,1,150,2|0,0:0|0:0,0:0:0:0:
214,173,36030,1,4,0:0:0:0:
61,45,36203,1,0,0:0:0:0:
113,301,36376,1,10,0:0:0:0:
129,113,36549,1,4,0:0:0:0:
0,267,36722,1,0,0:0:0:0:
197,38,37068,6,0,L|296:43,1,100,6|0,0:0|0:0,0:0:0:0:
124,207,37414,2,0,P|112:158|129:112,1,100,4|0,0:0|0:0,0:0:0:0:
382,173,37760,2,0,L|282:167,1,100,14|0,0:0|0:0,0:0:0:0:
436,348,38106,2,0,P|452:301|292:335,1,350,6|0,0:0|0:0,0:0:0:0:
289,329,38799,5,4,0:0:0:0:
338,43,38972,1,0,0:0:0:0:
109,71,39145,5,12,0:0:0:0:
396,119,39318,1,0,0:0:0:0:
212,341,39491,5,4,0:0:0:0:
260,54,39664,1,0,0:0:0:0:
363,338,39837,5,10,0:0:0:0:
256,192,40183,12,0,42606,0:0:0:0:
