osu file format v14

[General]
AudioFilename: audio.mp3
AudioLeadIn: 0
PreviewTime: 72718
Countdown: 0
SampleSet: Soft
StackLeniency: 0.7
Mode: 3
LetterboxInBreaks: 0
SpecialStyle: 0
WidescreenStoryboard: 0

[Editor]
DistanceSpacing: 0.7
BeatDivisor: 8
GridSize: 8
TimelineZoom: 4.099998

[Metadata]
Title:Circulator
TitleUnicode:Circulator
Artist:Reaper
ArtistUnicode:Reaper
Creator:Geo_ooo
Version:Respire
Source:SOUND VOLTEX VIVID WAVE
Tags:Electronic SDVX 5 Production Confirmation Commemorative Original Song Contest Tech Dump Rice Minijack Jack Instrumental Konami Bemani 第8弾 08 english video game
BeatmapID:3010262
BeatmapSetID:1465690

[Difficulty]
HPDrainRate:8.8
CircleSize:4
OverallDifficulty:8.8
ApproachRate:5
SliderMultiplier:1.4
SliderTickRate:1

[Events]
//Background and Video events
0,0,"wallpapersden.com_making-cyberpunk-robot_3840x2160.jpg",0,0
//Break Periods
//Storyboard Layer 0 (Background)
//Storyboard Layer 1 (Fail)
//Storyboard Layer 2 (Pass)
//Storyboard Layer 3 (Foreground)
//Storyboard Layer 4 (Overlay)
//Storyboard Sound Samples

[TimingPoints]
1446,363.636363636364,4,2,1,70,1,0
27627,-100,4,2,1,70,0,1
29082,-100,4,2,1,70,0,0
74173,-100,4,2,1,70,0,1
75627,-100,4,2,1,70,0,0

[HitObjects]
64,192,1446,5,0,0:0:0:0:
192,192,1446,1,0,0:0:0:0:
192,192,1627,1,0,0:0:0:0:
320,192,1809,1,0,0:0:0:0:
448,192,1900,1,0,0:0:0:0:
320,192,1991,1,0,0:0:0:0:
64,192,2082,1,0,0:0:0:0:
192,192,2173,1,0,0:0:0:0:
448,192,2264,1,0,0:0:0:0:
192,192,2355,1,0,0:0:0:0:
64,192,2446,1,0,0:0:0:0:
320,192,2536,1,0,0:0:0:0:
448,192,2536,1,0,0:0:0:0:
192,192,2627,1,0,0:0:0:0:
320,192,2718,1,0,0:0:0:0:
192,192,2809,1,0,0:0:0:0:
64,192,2900,1,0,0:0:0:0:
448,192,2900,1,0,0:0:0:0:
320,192,2991,1,0,0:0:0:0:
64,192,3082,1,0,0:0:0:0:
192,192,3082,1,0,0:0:0:0:
320,192,3173,1,0,0:0:0:0:
448,192,3264,1,0,0:0:0:0:
192,192,3355,1,0,0:0:0:0:
448,192,3446,1,0,0:0:0:0:
192,192,3536,1,0,0:0:0:0:
64,192,3627,1,0,0:0:0:0:
448,192,3627,1,0,0:0:0:0:
320,192,3688,1,0,0:0:0:0:
192,192,3749,1,0,0:0:0:0:
320,192,3809,1,0,0:0:0:0:
448,192,3809,1,0,0:0:0:0:
64,192,3900,1,0,0:0:0:0:
192,192,3900,1,0,0:0:0:0:
320,192,3961,1,0,0:0:0:0:
448,192,4021,1,0,0:0:0:0:
64,192,4082,1,0,0:0:0:0:
192,192,4082,1,0,0:0:0:0:
320,192,4173,1,0,0:0:0:0:
448,192,4173,1,0,0:0:0:0:
192,192,4233,1,0,0:0:0:0:
64,192,4294,1,0,0:0:0:0:
448,192,4355,1,0,0:0:0:0:
320,192,4423,1,0,0:0:0:0:
64,192,4506,1,0,0:0:0:0:
192,192,4567,1,0,0:0:0:0:
448,192,4650,1,0,0:0:0:0:
64,192,4718,1,0,0:0:0:0:
64,192,4809,1,0,0:0:0:0:
448,192,4855,1,0,0:0:0:0:
320,192,4900,1,0,0:0:0:0:
320,192,4991,1,0,0:0:0:0:
192,192,5059,1,0,0:0:0:0:
448,192,5082,1,0,0:0:0:0:
64,192,5173,1,0,0:0:0:0:
320,192,5264,1,0,0:0:0:0:
192,192,5324,1,0,0:0:0:0:
64,192,5355,1,0,0:0:0:0:
320,192,5446,1,0,0:0:0:0:
448,192,5476,1,0,0:0:0:0:
192,192,5506,1,0,0:0:0:0:
64,192,5567,1,0,0:0:0:0:
448,192,5627,1,0,0:0:0:0:
192,192,5688,1,0,0:0:0:0:
320,192,5749,1,0,0:0:0:0:
64,192,5809,128,0,5991:0:0:0:0:
448,192,5809,128,0,5900:0:0:0:0:
448,192,5991,1,0,0:0:0:0:
64,192,6082,1,0,0:0:0:0:
320,192,6173,1,0,0:0:0:0:
192,192,6264,1,0,0:0:0:0:
64,192,6355,1,0,0:0:0:0:
448,192,6446,1,0,0:0:0:0:
192,192,6536,1,0,0:0:0:0:
320,192,6627,1,0,0:0:0:0:
448,192,6718,1,0,0:0:0:0:
64,192,6809,1,0,0:0:0:0:
192,192,6900,1,0,0:0:0:0:
448,192,6900,1,0,0:0:0:0:
320,192,6991,1,0,0:0:0:0:
64,192,7082,1,0,0:0:0:0:
192,192,7173,1,0,0:0:0:0:
320,192,7264,1,0,0:0:0:0:
448,192,7264,1,0,0:0:0:0:
64,192,7355,1,0,0:0:0:0:
320,192,7446,1,0,0:0:0:0:
192,192,7536,1,0,0:0:0:0:
64,192,7627,1,0,0:0:0:0:
448,192,7627,1,0,0:0:0:0:
320,192,7718,1,0,0:0:0:0:
192,192,7809,1,0,0:0:0:0:
64,192,7900,1,0,0:0:0:0:
320,192,7991,1,0,0:0:0:0:
448,192,7991,1,0,0:0:0:0:
192,192,8082,1,0,0:0:0:0:
320,192,8173,1,0,0:0:0:0:
448,192,8264,1,0,0:0:0:0:
64,192,8355,1,0,0:0:0:0:
192,192,8355,1,0,0:0:0:0:
320,192,8446,1,0,0:0:0:0:
64,192,8536,1,0,0:0:0:0:
192,192,8536,1,0,0:0:0:0:
448,192,8627,1,0,0:0:0:0:
64,192,8718,1,0,0:0:0:0:
320,192,8718,1,0,0:0:0:0:
192,192,8809,1,0,0:0:0:0:
448,192,8900,1,0,0:0:0:0:
192,192,8991,1,0,0:0:0:0:
64,192,9082,1,0,0:0:0:0:
320,192,9082,1,0,0:0:0:0:
448,192,9173,1,0,0:0:0:0:
192,192,9264,1,0,0:0:0:0:
64,192,9355,1,0,0:0:0:0:
320,192,9446,1,0,0:0:0:0:
448,192,9446,1,0,0:0:0:0:
192,192,9536,1,0,0:0:0:0:
448,192,9627,1,0,0:0:0:0:
64,192,9718,1,0,0:0:0:0:
192,192,9809,1,0,0:0:0:0:
320,192,9809,1,0,0:0:0:0:
448,192,9900,1,0,0:0:0:0:
192,192,9991,1,0,0:0:0:0:
320,192,10082,1,0,0:0:0:0:
64,192,10173,1,0,0:0:0:0:
192,192,10173,1,0,0:0:0:0:
448,192,10264,1,0,0:0:0:0:
320,192,10355,1,0,0:0:0:0:
64,192,10446,1,0,0:0:0:0:
192,192,10536,1,0,0:0:0:0:
448,192,10536,1,0,0:0:0:0:
320,192,10627,1,0,0:0:0:0:
64,192,10718,1,0,0:0:0:0:
448,192,10809,1,0,0:0:0:0:
64,192,10900,1,0,0:0:0:0:
320,192,10900,1,0,0:0:0:0:
192,192,10991,1,0,0:0:0:0:
448,192,11082,1,0,0:0:0:0:
64,192,11173,1,0,0:0:0:0:
320,192,11264,1,0,0:0:0:0:
448,192,11264,1,0,0:0:0:0:
192,192,11355,1,0,0:0:0:0:
320,192,11446,1,0,0:0:0:0:
448,192,11446,1,0,0:0:0:0:
64,192,11536,1,0,0:0:0:0:
192,192,11627,1,0,0:0:0:0:
448,192,11627,1,0,0:0:0:0:
64,192,11718,1,0,0:0:0:0:
320,192,11809,1,0,0:0:0:0:
448,192,11809,1,0,0:0:0:0:
192,192,11900,1,0,0:0:0:0:
320,192,11991,1,0,0:0:0:0:
448,192,11991,1,0,0:0:0:0:
64,192,12082,1,0,0:0:0:0:
320,192,12173,1,0,0:0:0:0:
192,192,12264,1,0,0:0:0:0:
64,192,12355,1,0,0:0:0:0:
448,192,12355,1,0,0:0:0:0:
320,192,12446,1,0,0:0:0:0:
448,192,12536,1,0,0:0:0:0:
64,192,12627,1,0,0:0:0:0:
192,192,12718,1,0,0:0:0:0:
320,192,12718,1,0,0:0:0:0:
448,192,12809,1,0,0:0:0:0:
64,192,12900,1,0,0:0:0:0:
320,192,12991,1,0,0:0:0:0:
192,192,13082,1,0,0:0:0:0:
448,192,13082,1,0,0:0:0:0:
64,192,13173,1,0,0:0:0:0:
320,192,13264,1,0,0:0:0:0:
448,192,13355,1,0,0:0:0:0:
64,192,13446,1,0,0:0:0:0:
192,192,13446,1,0,0:0:0:0:
448,192,13536,1,0,0:0:0:0:
320,192,13627,1,0,0:0:0:0:
64,192,13718,1,0,0:0:0:0:
192,192,13809,1,0,0:0:0:0:
448,192,13809,1,0,0:0:0:0:
64,192,13900,1,0,0:0:0:0:
320,192,13991,1,0,0:0:0:0:
448,192,14082,1,0,0:0:0:0:
64,192,14173,1,0,0:0:0:0:
192,192,14173,1,0,0:0:0:0:
320,192,14264,1,0,0:0:0:0:
64,192,14355,1,0,0:0:0:0:
192,192,14355,1,0,0:0:0:0:
448,192,14446,1,0,0:0:0:0:
64,192,14536,1,0,0:0:0:0:
320,192,14536,1,0,0:0:0:0:
192,192,14627,1,0,0:0:0:0:
448,192,14718,1,0,0:0:0:0:
192,192,14809,1,0,0:0:0:0:
64,192,14900,1,0,0:0:0:0:
320,192,14900,1,0,0:0:0:0:
448,192,14991,1,0,0:0:0:0:
192,192,15082,1,0,0:0:0:0:
64,192,15173,1,0,0:0:0:0:
320,192,15264,1,0,0:0:0:0:
448,192,15264,1,0,0:0:0:0:
192,192,15355,1,0,0:0:0:0:
448,192,15446,1,0,0:0:0:0:
64,192,15536,1,0,0:0:0:0:
192,192,15627,1,0,0:0:0:0:
320,192,15627,1,0,0:0:0:0:
448,192,15718,1,0,0:0:0:0:
320,192,15809,1,0,0:0:0:0:
64,192,15900,1,0,0:0:0:0:
192,192,15991,1,0,0:0:0:0:
448,192,15991,1,0,0:0:0:0:
320,192,16082,1,0,0:0:0:0:
64,192,16173,1,0,0:0:0:0:
192,192,16264,1,0,0:0:0:0:
320,192,16355,1,0,0:0:0:0:
448,192,16355,1,0,0:0:0:0:
64,192,16446,1,0,0:0:0:0:
320,192,16536,1,0,0:0:0:0:
192,192,16627,1,0,0:0:0:0:
64,192,16718,1,0,0:0:0:0:
448,192,16718,1,0,0:0:0:0:
320,192,16809,1,0,0:0:0:0:
192,192,16900,1,0,0:0:0:0:
448,192,16991,1,0,0:0:0:0:
64,192,17082,1,0,0:0:0:0:
192,192,17082,1,0,0:0:0:0:
320,192,17127,1,0,0:0:0:0:
448,192,17173,1,0,0:0:0:0:
320,192,17218,1,0,0:0:0:0:
64,192,17264,1,0,0:0:0:0:
192,192,17264,1,0,0:0:0:0:
320,192,17355,1,0,0:0:0:0:
448,192,17355,1,0,0:0:0:0:
64,192,17446,1,0,0:0:0:0:
192,192,17446,1,0,0:0:0:0:
448,192,17536,1,0,0:0:0:0:
192,192,17627,1,0,0:0:0:0:
320,192,17627,1,0,0:0:0:0:
64,192,17718,1,0,0:0:0:0:
320,192,17809,1,0,0:0:0:0:
448,192,17809,1,0,0:0:0:0:
192,192,17900,1,0,0:0:0:0:
64,192,17991,1,0,0:0:0:0:
320,192,17991,1,0,0:0:0:0:
448,192,18082,1,0,0:0:0:0:
64,192,18173,1,0,0:0:0:0:
192,192,18173,1,0,0:0:0:0:
320,192,18264,1,0,0:0:0:0:
64,192,18355,1,0,0:0:0:0:
448,192,18355,1,0,0:0:0:0:
192,192,18446,1,0,0:0:0:0:
320,192,18536,1,0,0:0:0:0:
448,192,18536,1,0,0:0:0:0:
64,192,18582,1,0,0:0:0:0:
192,192,18627,1,0,0:0:0:0:
64,192,18673,1,0,0:0:0:0:
320,192,18718,1,0,0:0:0:0:
448,192,18718,1,0,0:0:0:0:
64,192,18809,1,0,0:0:0:0:
192,192,18809,1,0,0:0:0:0:
320,192,18900,1,0,0:0:0:0:
448,192,18900,1,0,0:0:0:0:
192,192,18991,1,0,0:0:0:0:
64,192,19082,1,0,0:0:0:0:
448,192,19082,1,0,0:0:0:0:
320,192,19173,1,0,0:0:0:0:
64,192,19264,1,0,0:0:0:0:
192,192,19264,1,0,0:0:0:0:
448,192,19355,1,0,0:0:0:0:
64,192,19446,1,0,0:0:0:0:
320,192,19446,1,0,0:0:0:0:
192,192,19536,1,0,0:0:0:0:
320,192,19627,1,0,0:0:0:0:
448,192,19627,1,0,0:0:0:0:
64,192,19718,1,0,0:0:0:0:
192,192,19809,1,0,0:0:0:0:
448,192,19809,1,0,0:0:0:0:
320,192,19900,1,0,0:0:0:0:
64,192,19991,1,0,0:0:0:0:
192,192,19991,1,0,0:0:0:0:
448,192,20036,1,0,0:0:0:0:
320,192,20082,1,0,0:0:0:0:
448,192,20127,1,0,0:0:0:0:
64,192,20173,1,0,0:0:0:0:
192,192,20173,1,0,0:0:0:0:
320,192,20264,1,0,0:0:0:0:
448,192,20264,1,0,0:0:0:0:
64,192,20355,1,0,0:0:0:0:
192,192,20355,1,0,0:0:0:0:
448,192,20446,1,0,0:0:0:0:
192,192,20536,1,0,0:0:0:0:
320,192,20536,1,0,0:0:0:0:
64,192,20627,1,0,0:0:0:0:
320,192,20718,1,0,0:0:0:0:
448,192,20718,1,0,0:0:0:0:
192,192,20809,1,0,0:0:0:0:
64,192,20900,1,0,0:0:0:0:
320,192,20900,1,0,0:0:0:0:
448,192,20991,1,0,0:0:0:0:
64,192,21082,1,0,0:0:0:0:
192,192,21082,1,0,0:0:0:0:
448,192,21173,1,0,0:0:0:0:
192,192,21264,1,0,0:0:0:0:
320,192,21264,1,0,0:0:0:0:
64,192,21355,1,0,0:0:0:0:
320,192,21446,1,0,0:0:0:0:
448,192,21446,1,0,0:0:0:0:
192,192,21491,1,0,0:0:0:0:
64,192,21536,1,0,0:0:0:0:
192,192,21582,1,0,0:0:0:0:
320,192,21627,1,0,0:0:0:0:
448,192,21627,1,0,0:0:0:0:
64,192,21718,1,0,0:0:0:0:
192,192,21718,1,0,0:0:0:0:
320,192,21809,1,0,0:0:0:0:
448,192,21809,1,0,0:0:0:0:
192,192,21900,1,0,0:0:0:0:
64,192,21991,1,0,0:0:0:0:
448,192,21991,1,0,0:0:0:0:
192,192,22082,1,0,0:0:0:0:
320,192,22173,1,0,0:0:0:0:
448,192,22173,1,0,0:0:0:0:
64,192,22264,1,0,0:0:0:0:
192,192,22355,1,0,0:0:0:0:
320,192,22355,1,0,0:0:0:0:
64,192,22446,1,0,0:0:0:0:
320,192,22536,1,0,0:0:0:0:
448,192,22536,1,0,0:0:0:0:
192,192,22627,1,0,0:0:0:0:
64,192,22718,1,0,0:0:0:0:
320,192,22718,1,0,0:0:0:0:
448,192,22809,1,0,0:0:0:0:
64,192,22900,1,0,0:0:0:0:
192,192,22900,1,0,0:0:0:0:
320,192,22946,1,0,0:0:0:0:
448,192,22991,1,0,0:0:0:0:
320,192,23036,1,0,0:0:0:0:
64,192,23082,1,0,0:0:0:0:
192,192,23082,1,0,0:0:0:0:
320,192,23173,1,0,0:0:0:0:
448,192,23173,1,0,0:0:0:0:
64,192,23264,1,0,0:0:0:0:
192,192,23264,1,0,0:0:0:0:
64,192,23446,1,0,0:0:0:0:
448,192,23446,1,0,0:0:0:0:
64,192,23536,1,0,0:0:0:0:
320,192,23627,1,0,0:0:0:0:
448,192,23627,1,0,0:0:0:0:
64,192,23809,1,0,0:0:0:0:
448,192,23809,1,0,0:0:0:0:
64,192,23991,1,0,0:0:0:0:
320,192,23991,1,0,0:0:0:0:
192,192,24173,1,0,0:0:0:0:
320,192,24173,1,0,0:0:0:0:
320,192,24264,1,0,0:0:0:0:
192,192,24355,1,0,0:0:0:0:
448,192,24355,1,0,0:0:0:0:
64,192,24536,1,0,0:0:0:0:
448,192,24536,1,0,0:0:0:0:
320,192,24718,1,0,0:0:0:0:
448,192,24718,1,0,0:0:0:0:
64,192,24900,1,0,0:0:0:0:
448,192,24900,1,0,0:0:0:0:
448,192,24991,1,0,0:0:0:0:
64,192,25082,1,0,0:0:0:0:
192,192,25082,1,0,0:0:0:0:
64,192,25264,1,0,0:0:0:0:
448,192,25264,1,0,0:0:0:0:
192,192,25446,1,0,0:0:0:0:
448,192,25446,1,0,0:0:0:0:
192,192,25627,1,0,0:0:0:0:
320,192,25627,1,0,0:0:0:0:
192,192,25718,1,0,0:0:0:0:
64,192,25809,1,0,0:0:0:0:
320,192,25809,1,0,0:0:0:0:
64,192,25991,1,0,0:0:0:0:
448,192,25991,1,0,0:0:0:0:
320,192,26173,1,0,0:0:0:0:
448,192,26173,1,0,0:0:0:0:
64,192,26264,1,0,0:0:0:0:
192,192,26264,1,0,0:0:0:0:
320,192,26355,1,0,0:0:0:0:
448,192,26355,1,0,0:0:0:0:
320,192,26446,1,0,0:0:0:0:
448,192,26446,1,0,0:0:0:0:
64,192,26536,1,0,0:0:0:0:
192,192,26536,1,0,0:0:0:0:
320,192,26627,1,0,0:0:0:0:
448,192,26627,1,0,0:0:0:0:
64,192,26718,1,0,0:0:0:0:
192,192,26718,1,0,0:0:0:0:
64,192,26809,1,0,0:0:0:0:
192,192,26809,1,0,0:0:0:0:
320,192,26900,1,0,0:0:0:0:
448,192,26900,1,0,0:0:0:0:
64,192,26946,1,0,0:0:0:0:
192,192,26991,1,0,0:0:0:0:
448,192,27036,1,0,0:0:0:0:
64,192,27082,1,0,0:0:0:0:
320,192,27127,1,0,0:0:0:0:
448,192,27173,1,0,0:0:0:0:
192,192,27218,1,0,0:0:0:0:
64,192,27264,1,0,0:0:0:0:
320,192,27264,1,0,0:0:0:0:
448,192,27309,1,0,0:0:0:0:
192,192,27355,1,0,0:0:0:0:
64,192,27400,1,0,0:0:0:0:
320,192,27446,1,0,0:0:0:0:
448,192,27446,1,0,0:0:0:0:
64,192,27536,1,0,0:0:0:0:
192,192,27536,1,0,0:0:0:0:
320,192,27627,1,0,0:0:0:0:
448,192,27627,1,0,0:0:0:0:
192,192,27718,1,0,0:0:0:0:
320,192,27809,1,0,0:0:0:0:
192,192,27900,1,0,0:0:0:0:
448,192,27991,1,0,0:0:0:0:
64,192,28082,1,0,0:0:0:0:
448,192,28173,1,0,0:0:0:0:
64,192,28264,1,0,0:0:0:0:
320,192,28355,1,0,0:0:0:0:
192,192,28446,1,0,0:0:0:0:
320,192,28536,1,0,0:0:0:0:
192,192,28627,1,0,0:0:0:0:
64,192,28718,1,0,0:0:0:0:
448,192,28718,1,0,0:0:0:0:
320,192,29082,1,0,0:0:0:0:
448,192,29082,1,0,0:0:0:0:
64,192,29142,1,0,0:0:0:0:
192,192,29203,1,0,0:0:0:0:
448,192,29264,1,0,0:0:0:0:
64,192,29324,1,0,0:0:0:0:
320,192,29385,1,0,0:0:0:0:
448,192,29446,1,0,0:0:0:0:
448,192,29536,1,0,0:0:0:0:
64,192,29627,128,0,29718:0:0:0:0:
192,192,29658,128,0,29809:0:0:0:0:
320,192,29809,1,0,0:0:0:0:
448,192,29809,1,0,0:0:0:0:
64,192,29855,1,0,0:0:0:0:
192,192,29900,1,0,0:0:0:0:
448,192,29946,1,0,0:0:0:0:
64,192,29991,1,0,0:0:0:0:
320,192,30052,1,0,0:0:0:0:
64,192,30173,1,0,0:0:0:0:
320,192,30218,1,0,0:0:0:0:
192,192,30264,1,0,0:0:0:0:
64,192,30309,1,0,0:0:0:0:
448,192,30355,1,0,0:0:0:0:
192,192,30415,1,0,0:0:0:0:
320,192,30536,1,0,0:0:0:0:
448,192,30536,1,0,0:0:0:0:
64,192,30582,1,0,0:0:0:0:
192,192,30627,1,0,0:0:0:0:
448,192,30673,1,0,0:0:0:0:
64,192,30718,1,0,0:0:0:0:
320,192,30779,1,0,0:0:0:0:
64,192,30900,1,0,0:0:0:0:
320,192,30946,1,0,0:0:0:0:
192,192,30991,1,0,0:0:0:0:
64,192,31036,1,0,0:0:0:0:
448,192,31082,1,0,0:0:0:0:
192,192,31142,1,0,0:0:0:0:
320,192,31264,1,0,0:0:0:0:
448,192,31264,1,0,0:0:0:0:
64,192,31309,1,0,0:0:0:0:
192,192,31355,1,0,0:0:0:0:
320,192,31400,1,0,0:0:0:0:
448,192,31446,1,0,0:0:0:0:
192,192,31506,1,0,0:0:0:0:
448,192,31536,1,0,0:0:0:0:
64,192,31627,1,0,0:0:0:0:
320,192,31673,1,0,0:0:0:0:
192,192,31718,1,0,0:0:0:0:
64,192,31764,1,0,0:0:0:0:
448,192,31809,1,0,0:0:0:0:
64,192,31991,1,0,0:0:0:0:
192,192,31991,1,0,0:0:0:0:
320,192,32082,1,0,0:0:0:0:
448,192,32112,1,0,0:0:0:0:
192,192,32173,1,0,0:0:0:0:
320,192,32203,1,0,0:0:0:0:
192,192,32264,1,0,0:0:0:0:
64,192,32294,1,0,0:0:0:0:
320,192,32355,1,0,0:0:0:0:
448,192,32385,1,0,0:0:0:0:
320,192,32446,1,0,0:0:0:0:
448,192,32476,1,0,0:0:0:0:
64,192,32536,1,0,0:0:0:0:
192,192,32536,1,0,0:0:0:0:
64,192,32627,1,0,0:0:0:0:
320,192,32718,1,0,0:0:0:0:
448,192,32718,1,0,0:0:0:0:
64,192,32764,1,0,0:0:0:0:
192,192,32809,1,0,0:0:0:0:
448,192,32855,1,0,0:0:0:0:
64,192,32900,1,0,0:0:0:0:
320,192,32961,1,0,0:0:0:0:
64,192,33082,1,0,0:0:0:0:
320,192,33127,1,0,0:0:0:0:
192,192,33173,1,0,0:0:0:0:
64,192,33218,1,0,0:0:0:0:
448,192,33264,1,0,0:0:0:0:
192,192,33324,1,0,0:0:0:0:
320,192,33446,1,0,0:0:0:0:
448,192,33446,1,0,0:0:0:0:
64,192,33491,1,0,0:0:0:0:
192,192,33536,1,0,0:0:0:0:
448,192,33582,1,0,0:0:0:0:
64,192,33627,1,0,0:0:0:0:
320,192,33688,1,0,0:0:0:0:
64,192,33809,1,0,0:0:0:0:
320,192,33855,1,0,0:0:0:0:
192,192,33900,1,0,0:0:0:0:
64,192,33946,1,0,0:0:0:0:
448,192,33991,1,0,0:0:0:0:
192,192,34052,1,0,0:0:0:0:
320,192,34173,1,0,0:0:0:0:
448,192,34173,1,0,0:0:0:0:
64,192,34218,1,0,0:0:0:0:
192,192,34264,1,0,0:0:0:0:
448,192,34309,1,0,0:0:0:0:
64,192,34355,1,0,0:0:0:0:
320,192,34415,1,0,0:0:0:0:
448,192,34536,128,0,34597:0:0:0:0:
192,192,34567,128,0,34627:0:0:0:0:
64,192,34597,128,0,34627:0:0:0:0:
64,192,34718,128,0,34779:0:0:0:0:
320,192,34749,128,0,34809:0:0:0:0:
448,192,34779,128,0,34809:0:0:0:0:
64,192,34900,1,0,0:0:0:0:
192,192,34900,1,0,0:0:0:0:
448,192,34961,1,0,0:0:0:0:
320,192,35021,1,0,0:0:0:0:
64,192,35082,1,0,0:0:0:0:
448,192,35142,1,0,0:0:0:0:
192,192,35203,1,0,0:0:0:0:
64,192,35264,1,0,0:0:0:0:
64,192,35355,1,0,0:0:0:0:
448,192,35446,128,0,35536:0:0:0:0:
320,192,35476,128,0,35627:0:0:0:0:
64,192,35627,1,0,0:0:0:0:
192,192,35627,1,0,0:0:0:0:
448,192,35673,1,0,0:0:0:0:
320,192,35718,1,0,0:0:0:0:
64,192,35764,1,0,0:0:0:0:
448,192,35809,1,0,0:0:0:0:
192,192,35870,1,0,0:0:0:0:
448,192,35991,1,0,0:0:0:0:
192,192,36036,1,0,0:0:0:0:
320,192,36082,1,0,0:0:0:0:
448,192,36127,1,0,0:0:0:0:
64,192,36173,1,0,0:0:0:0:
320,192,36233,1,0,0:0:0:0:
64,192,36355,1,0,0:0:0:0:
192,192,36355,1,0,0:0:0:0:
448,192,36400,1,0,0:0:0:0:
320,192,36446,1,0,0:0:0:0:
64,192,36491,1,0,0:0:0:0:
448,192,36536,1,0,0:0:0:0:
192,192,36597,1,0,0:0:0:0:
448,192,36718,1,0,0:0:0:0:
192,192,36764,1,0,0:0:0:0:
320,192,36809,1,0,0:0:0:0:
448,192,36855,1,0,0:0:0:0:
64,192,36900,1,0,0:0:0:0:
320,192,36961,1,0,0:0:0:0:
64,192,37082,1,0,0:0:0:0:
192,192,37082,1,0,0:0:0:0:
448,192,37127,1,0,0:0:0:0:
320,192,37173,1,0,0:0:0:0:
64,192,37218,1,0,0:0:0:0:
448,192,37264,1,0,0:0:0:0:
192,192,37324,1,0,0:0:0:0:
448,192,37446,128,0,37809:0:0:0:0:
320,192,37476,128,0,37627:0:0:0:0:
192,192,37506,128,0,37597:0:0:0:0:
64,192,37809,1,0,0:0:0:0:
192,192,37809,1,0,0:0:0:0:
320,192,37900,1,0,0:0:0:0:
448,192,37930,1,0,0:0:0:0:
192,192,37991,1,0,0:0:0:0:
320,192,38021,1,0,0:0:0:0:
192,192,38082,1,0,0:0:0:0:
64,192,38112,1,0,0:0:0:0:
320,192,38173,1,0,0:0:0:0:
448,192,38203,1,0,0:0:0:0:
320,192,38264,1,0,0:0:0:0:
448,192,38294,1,0,0:0:0:0:
64,192,38355,1,0,0:0:0:0:
192,192,38355,1,0,0:0:0:0:
64,192,38446,1,0,0:0:0:0:
320,192,38536,1,0,0:0:0:0:
448,192,38536,1,0,0:0:0:0:
448,192,38627,1,0,0:0:0:0:
192,192,38718,1,0,0:0:0:0:
192,192,38809,1,0,0:0:0:0:
64,192,38900,1,0,0:0:0:0:
320,192,38946,1,0,0:0:0:0:
64,192,38991,1,0,0:0:0:0:
448,192,39082,1,0,0:0:0:0:
448,192,39173,1,0,0:0:0:0:
64,192,39264,1,0,0:0:0:0:
192,192,39264,1,0,0:0:0:0:
64,192,39627,1,0,0:0:0:0:
320,192,39627,1,0,0:0:0:0:
64,192,39991,1,0,0:0:0:0:
448,192,39991,1,0,0:0:0:0:
320,192,40173,1,0,0:0:0:0:
64,192,40355,1,0,0:0:0:0:
192,192,40355,1,0,0:0:0:0:
448,192,40415,1,0,0:0:0:0:
192,192,40476,1,0,0:0:0:0:
320,192,40536,1,0,0:0:0:0:
64,192,40597,1,0,0:0:0:0:
192,192,40658,1,0,0:0:0:0:
320,192,40718,1,0,0:0:0:0:
448,192,40718,1,0,0:0:0:0:
192,192,40779,1,0,0:0:0:0:
64,192,40839,1,0,0:0:0:0:
448,192,40900,1,0,0:0:0:0:
320,192,40961,1,0,0:0:0:0:
64,192,41021,1,0,0:0:0:0:
192,192,41082,1,0,0:0:0:0:
448,192,41082,1,0,0:0:0:0:
64,192,41264,128,0,41355:0:0:0:0:
192,192,41294,128,0,41446:0:0:0:0:
320,192,41446,1,0,0:0:0:0:
448,192,41446,1,0,0:0:0:0:
64,192,41491,1,0,0:0:0:0:
192,192,41536,1,0,0:0:0:0:
320,192,41582,1,0,0:0:0:0:
448,192,41627,1,0,0:0:0:0:
448,192,41718,1,0,0:0:0:0:
64,192,41809,1,0,0:0:0:0:
192,192,41809,1,0,0:0:0:0:
320,192,41855,1,0,0:0:0:0:
448,192,41900,1,0,0:0:0:0:
64,192,41946,1,0,0:0:0:0:
192,192,41991,1,0,0:0:0:0:
192,192,42082,1,0,0:0:0:0:
64,192,42173,1,0,0:0:0:0:
448,192,42173,1,0,0:0:0:0:
320,192,42218,1,0,0:0:0:0:
192,192,42264,1,0,0:0:0:0:
448,192,42309,1,0,0:0:0:0:
64,192,42355,1,0,0:0:0:0:
64,192,42446,1,0,0:0:0:0:
192,192,42536,1,0,0:0:0:0:
448,192,42536,1,0,0:0:0:0:
320,192,42582,1,0,0:0:0:0:
64,192,42627,1,0,0:0:0:0:
192,192,42673,1,0,0:0:0:0:
448,192,42718,1,0,0:0:0:0:
448,192,42809,1,0,0:0:0:0:
64,192,42900,1,0,0:0:0:0:
192,192,42900,1,0,0:0:0:0:
320,192,42946,1,0,0:0:0:0:
448,192,42991,1,0,0:0:0:0:
64,192,43036,1,0,0:0:0:0:
192,192,43082,1,0,0:0:0:0:
192,192,43173,1,0,0:0:0:0:
320,192,43264,1,0,0:0:0:0:
448,192,43264,1,0,0:0:0:0:
64,192,43309,1,0,0:0:0:0:
192,192,43355,1,0,0:0:0:0:
448,192,43400,1,0,0:0:0:0:
320,192,43446,1,0,0:0:0:0:
320,192,43536,1,0,0:0:0:0:
64,192,43627,1,0,0:0:0:0:
192,192,43627,1,0,0:0:0:0:
320,192,43718,1,0,0:0:0:0:
448,192,43749,1,0,0:0:0:0:
192,192,43809,1,0,0:0:0:0:
320,192,43839,1,0,0:0:0:0:
192,192,43900,1,0,0:0:0:0:
64,192,43930,1,0,0:0:0:0:
320,192,43991,1,0,0:0:0:0:
448,192,44021,1,0,0:0:0:0:
320,192,44082,1,0,0:0:0:0:
448,192,44112,1,0,0:0:0:0:
64,192,44173,1,0,0:0:0:0:
192,192,44173,1,0,0:0:0:0:
64,192,44264,1,0,0:0:0:0:
320,192,44355,1,0,0:0:0:0:
448,192,44355,1,0,0:0:0:0:
192,192,44400,1,0,0:0:0:0:
64,192,44446,1,0,0:0:0:0:
448,192,44491,1,0,0:0:0:0:
320,192,44536,1,0,0:0:0:0:
320,192,44627,1,0,0:0:0:0:
64,192,44718,1,0,0:0:0:0:
448,192,44718,1,0,0:0:0:0:
192,192,44764,1,0,0:0:0:0:
320,192,44809,1,0,0:0:0:0:
448,192,44855,1,0,0:0:0:0:
64,192,44900,1,0,0:0:0:0:
64,192,44991,1,0,0:0:0:0:
320,192,45082,1,0,0:0:0:0:
448,192,45082,1,0,0:0:0:0:
192,192,45127,1,0,0:0:0:0:
64,192,45173,1,0,0:0:0:0:
320,192,45218,1,0,0:0:0:0:
448,192,45264,1,0,0:0:0:0:
448,192,45355,1,0,0:0:0:0:
64,192,45446,1,0,0:0:0:0:
192,192,45446,1,0,0:0:0:0:
320,192,45491,1,0,0:0:0:0:
448,192,45536,1,0,0:0:0:0:
64,192,45582,1,0,0:0:0:0:
192,192,45627,1,0,0:0:0:0:
192,192,45718,1,0,0:0:0:0:
64,192,45809,1,0,0:0:0:0:
448,192,45809,1,0,0:0:0:0:
320,192,45855,1,0,0:0:0:0:
192,192,45900,1,0,0:0:0:0:
64,192,45946,1,0,0:0:0:0:
448,192,45991,1,0,0:0:0:0:
448,192,46082,1,0,0:0:0:0:
64,192,46173,1,0,0:0:0:0:
320,192,46173,1,0,0:0:0:0:
192,192,46218,1,0,0:0:0:0:
448,192,46264,1,0,0:0:0:0:
320,192,46309,1,0,0:0:0:0:
64,192,46355,1,0,0:0:0:0:
192,192,46355,1,0,0:0:0:0:
64,192,46446,1,0,0:0:0:0:
320,192,46536,1,0,0:0:0:0:
448,192,46536,1,0,0:0:0:0:
192,192,46597,1,0,0:0:0:0:
320,192,46658,1,0,0:0:0:0:
64,192,46718,1,0,0:0:0:0:
448,192,46718,1,0,0:0:0:0:
192,192,46809,1,0,0:0:0:0:
64,192,46900,1,0,0:0:0:0:
320,192,46900,1,0,0:0:0:0:
192,192,47082,1,0,0:0:0:0:
320,192,47082,1,0,0:0:0:0:
320,192,47264,1,0,0:0:0:0:
448,192,47264,1,0,0:0:0:0:
192,192,47324,1,0,0:0:0:0:
320,192,47385,1,0,0:0:0:0:
64,192,47446,1,0,0:0:0:0:
448,192,47446,1,0,0:0:0:0:
192,192,47536,1,0,0:0:0:0:
64,192,47627,1,0,0:0:0:0:
320,192,47627,1,0,0:0:0:0:
320,192,47809,1,0,0:0:0:0:
448,192,47809,1,0,0:0:0:0:
64,192,47991,1,0,0:0:0:0:
192,192,47991,1,0,0:0:0:0:
320,192,48052,1,0,0:0:0:0:
192,192,48112,1,0,0:0:0:0:
64,192,48173,1,0,0:0:0:0:
448,192,48173,1,0,0:0:0:0:
320,192,48264,1,0,0:0:0:0:
192,192,48355,1,0,0:0:0:0:
448,192,48355,1,0,0:0:0:0:
192,192,48536,1,0,0:0:0:0:
320,192,48536,1,0,0:0:0:0:
64,192,48718,1,0,0:0:0:0:
192,192,48718,1,0,0:0:0:0:
320,192,48779,1,0,0:0:0:0:
192,192,48839,1,0,0:0:0:0:
64,192,48900,1,0,0:0:0:0:
448,192,48900,1,0,0:0:0:0:
320,192,48991,1,0,0:0:0:0:
192,192,49082,1,0,0:0:0:0:
448,192,49082,1,0,0:0:0:0:
64,192,49264,1,0,0:0:0:0:
192,192,49264,1,0,0:0:0:0:
320,192,49446,1,0,0:0:0:0:
448,192,49446,1,0,0:0:0:0:
64,192,49536,1,0,0:0:0:0:
192,192,49536,1,0,0:0:0:0:
320,192,49627,1,0,0:0:0:0:
448,192,49627,1,0,0:0:0:0:
320,192,49718,1,0,0:0:0:0:
448,192,49718,1,0,0:0:0:0:
64,192,49809,1,0,0:0:0:0:
192,192,49809,1,0,0:0:0:0:
320,192,49900,1,0,0:0:0:0:
448,192,49900,1,0,0:0:0:0:
64,192,49991,1,0,0:0:0:0:
192,192,49991,1,0,0:0:0:0:
64,192,50082,1,0,0:0:0:0:
192,192,50082,1,0,0:0:0:0:
320,192,50173,1,0,0:0:0:0:
448,192,50173,1,0,0:0:0:0:
64,192,50218,1,0,0:0:0:0:
192,192,50264,1,0,0:0:0:0:
448,192,50309,1,0,0:0:0:0:
64,192,50355,1,0,0:0:0:0:
320,192,50400,1,0,0:0:0:0:
448,192,50446,1,0,0:0:0:0:
192,192,50491,1,0,0:0:0:0:
64,192,50536,1,0,0:0:0:0:
320,192,50536,1,0,0:0:0:0:
448,192,50582,1,0,0:0:0:0:
192,192,50627,1,0,0:0:0:0:
64,192,50673,1,0,0:0:0:0:
320,192,50718,1,0,0:0:0:0:
448,192,50718,1,0,0:0:0:0:
64,192,50809,1,0,0:0:0:0:
192,192,50809,1,0,0:0:0:0:
320,192,50900,1,0,0:0:0:0:
448,192,50900,1,0,0:0:0:0:
64,192,51991,1,0,0:0:0:0:
192,192,51991,1,0,0:0:0:0:
320,192,52082,1,0,0:0:0:0:
192,192,52173,1,0,0:0:0:0:
320,192,52264,1,0,0:0:0:0:
192,192,52355,1,0,0:0:0:0:
448,192,52355,1,0,0:0:0:0:
320,192,52536,1,0,0:0:0:0:
192,192,52627,1,0,0:0:0:0:
448,192,52809,1,0,0:0:0:0:
64,192,52900,1,0,0:0:0:0:
320,192,52991,1,0,0:0:0:0:
192,192,53082,1,0,0:0:0:0:
320,192,53264,1,0,0:0:0:0:
192,192,53355,1,0,0:0:0:0:
64,192,53446,1,0,0:0:0:0:
448,192,53446,1,0,0:0:0:0:
320,192,53536,1,0,0:0:0:0:
192,192,53627,1,0,0:0:0:0:
448,192,53718,1,0,0:0:0:0:
64,192,53809,1,0,0:0:0:0:
320,192,53809,1,0,0:0:0:0:
192,192,53991,1,0,0:0:0:0:
64,192,54082,1,0,0:0:0:0:
320,192,54173,1,0,0:0:0:0:
448,192,54173,1,0,0:0:0:0:
192,192,54264,1,0,0:0:0:0:
64,192,54355,1,0,0:0:0:0:
320,192,54446,1,0,0:0:0:0:
192,192,54536,1,0,0:0:0:0:
448,192,54536,1,0,0:0:0:0:
64,192,54627,1,0,0:0:0:0:
320,192,54718,1,0,0:0:0:0:
192,192,54809,1,0,0:0:0:0:
64,192,54900,1,0,0:0:0:0:
448,192,54900,1,0,0:0:0:0:
320,192,54991,1,0,0:0:0:0:
64,192,55082,1,0,0:0:0:0:
192,192,55082,1,0,0:0:0:0:
448,192,55173,1,0,0:0:0:0:
64,192,55264,1,0,0:0:0:0:
320,192,55264,1,0,0:0:0:0:
448,192,55446,1,0,0:0:0:0:
320,192,55536,1,0,0:0:0:0:
64,192,55627,1,0,0:0:0:0:
192,192,55627,1,0,0:0:0:0:
448,192,55718,1,0,0:0:0:0:
320,192,55809,1,0,0:0:0:0:
192,192,55900,1,0,0:0:0:0:
64,192,55991,1,0,0:0:0:0:
448,192,55991,1,0,0:0:0:0:
320,192,56082,1,0,0:0:0:0:
448,192,56173,1,0,0:0:0:0:
64,192,56264,1,0,0:0:0:0:
192,192,56355,1,0,0:0:0:0:
320,192,56355,1,0,0:0:0:0:
64,192,56446,1,0,0:0:0:0:
448,192,56536,1,0,0:0:0:0:
320,192,56627,1,0,0:0:0:0:
64,192,56718,1,0,0:0:0:0:
192,192,56718,1,0,0:0:0:0:
448,192,56809,1,0,0:0:0:0:
192,192,56900,1,0,0:0:0:0:
64,192,56991,1,0,0:0:0:0:
192,192,57082,1,0,0:0:0:0:
448,192,57082,1,0,0:0:0:0:
320,192,57173,1,0,0:0:0:0:
64,192,57264,1,0,0:0:0:0:
192,192,57355,1,0,0:0:0:0:
320,192,57446,1,0,0:0:0:0:
448,192,57446,1,0,0:0:0:0:
192,192,57536,1,0,0:0:0:0:
64,192,57627,1,0,0:0:0:0:
192,192,57718,1,0,0:0:0:0:
320,192,57809,1,0,0:0:0:0:
448,192,57809,1,0,0:0:0:0:
64,192,57900,1,0,0:0:0:0:
320,192,57991,1,0,0:0:0:0:
448,192,57991,1,0,0:0:0:0:
192,192,58082,1,0,0:0:0:0:
64,192,58173,1,0,0:0:0:0:
448,192,58173,1,0,0:0:0:0:
192,192,58264,1,0,0:0:0:0:
320,192,58355,1,0,0:0:0:0:
448,192,58355,1,0,0:0:0:0:
64,192,58446,1,0,0:0:0:0:
320,192,58536,1,0,0:0:0:0:
448,192,58536,1,0,0:0:0:0:
64,192,58627,1,0,0:0:0:0:
320,192,58718,1,0,0:0:0:0:
192,192,58809,1,0,0:0:0:0:
64,192,58900,1,0,0:0:0:0:
448,192,58900,1,0,0:0:0:0:
320,192,58991,1,0,0:0:0:0:
448,192,59082,1,0,0:0:0:0:
64,192,59173,1,0,0:0:0:0:
192,192,59264,1,0,0:0:0:0:
320,192,59264,1,0,0:0:0:0:
448,192,59355,1,0,0:0:0:0:
64,192,59446,1,0,0:0:0:0:
320,192,59536,1,0,0:0:0:0:
192,192,59627,1,0,0:0:0:0:
448,192,59627,1,0,0:0:0:0:
64,192,59718,1,0,0:0:0:0:
320,192,59809,1,0,0:0:0:0:
448,192,59900,1,0,0:0:0:0:
64,192,59991,1,0,0:0:0:0:
192,192,59991,1,0,0:0:0:0:
448,192,60082,1,0,0:0:0:0:
320,192,60173,1,0,0:0:0:0:
64,192,60264,1,0,0:0:0:0:
192,192,60355,1,0,0:0:0:0:
448,192,60355,1,0,0:0:0:0:
64,192,60446,1,0,0:0:0:0:
320,192,60536,1,0,0:0:0:0:
448,192,60627,1,0,0:0:0:0:
64,192,60718,1,0,0:0:0:0:
192,192,60718,1,0,0:0:0:0:
320,192,60809,1,0,0:0:0:0:
64,192,60900,1,0,0:0:0:0:
192,192,60900,1,0,0:0:0:0:
448,192,60991,1,0,0:0:0:0:
64,192,61082,1,0,0:0:0:0:
320,192,61082,1,0,0:0:0:0:
192,192,61173,1,0,0:0:0:0:
448,192,61264,1,0,0:0:0:0:
192,192,61355,1,0,0:0:0:0:
64,192,61446,1,0,0:0:0:0:
320,192,61446,1,0,0:0:0:0:
448,192,61536,1,0,0:0:0:0:
192,192,61627,1,0,0:0:0:0:
64,192,61718,1,0,0:0:0:0:
320,192,61809,1,0,0:0:0:0:
448,192,61809,1,0,0:0:0:0:
192,192,61900,1,0,0:0:0:0:
448,192,61991,1,0,0:0:0:0:
64,192,62082,1,0,0:0:0:0:
192,192,62173,1,0,0:0:0:0:
320,192,62173,1,0,0:0:0:0:
448,192,62264,1,0,0:0:0:0:
320,192,62355,1,0,0:0:0:0:
64,192,62446,1,0,0:0:0:0:
192,192,62536,1,0,0:0:0:0:
448,192,62536,1,0,0:0:0:0:
320,192,62627,1,0,0:0:0:0:
64,192,62718,1,0,0:0:0:0:
192,192,62809,1,0,0:0:0:0:
320,192,62900,1,0,0:0:0:0:
448,192,62900,1,0,0:0:0:0:
64,192,62991,1,0,0:0:0:0:
320,192,63082,1,0,0:0:0:0:
192,192,63173,1,0,0:0:0:0:
64,192,63264,1,0,0:0:0:0:
448,192,63264,1,0,0:0:0:0:
320,192,63355,1,0,0:0:0:0:
192,192,63446,1,0,0:0:0:0:
448,192,63536,1,0,0:0:0:0:
64,192,63627,1,0,0:0:0:0:
192,192,63627,1,0,0:0:0:0:
320,192,63673,1,0,0:0:0:0:
448,192,63718,1,0,0:0:0:0:
320,192,63764,1,0,0:0:0:0:
64,192,63809,1,0,0:0:0:0:
192,192,63809,1,0,0:0:0:0:
320,192,63900,1,0,0:0:0:0:
448,192,63900,1,0,0:0:0:0:
64,192,63991,1,0,0:0:0:0:
192,192,63991,1,0,0:0:0:0:
448,192,64082,1,0,0:0:0:0:
192,192,64173,1,0,0:0:0:0:
320,192,64173,1,0,0:0:0:0:
64,192,64264,1,0,0:0:0:0:
320,192,64355,1,0,0:0:0:0:
448,192,64355,1,0,0:0:0:0:
192,192,64446,1,0,0:0:0:0:
64,192,64536,1,0,0:0:0:0:
320,192,64536,1,0,0:0:0:0:
448,192,64627,1,0,0:0:0:0:
64,192,64718,1,0,0:0:0:0:
192,192,64718,1,0,0:0:0:0:
320,192,64809,1,0,0:0:0:0:
64,192,64900,1,0,0:0:0:0:
448,192,64900,1,0,0:0:0:0:
192,192,64991,1,0,0:0:0:0:
320,192,65082,1,0,0:0:0:0:
448,192,65082,1,0,0:0:0:0:
64,192,65127,1,0,0:0:0:0:
192,192,65173,1,0,0:0:0:0:
64,192,65218,1,0,0:0:0:0:
320,192,65264,1,0,0:0:0:0:
448,192,65264,1,0,0:0:0:0:
64,192,65355,1,0,0:0:0:0:
192,192,65355,1,0,0:0:0:0:
320,192,65446,1,0,0:0:0:0:
448,192,65446,1,0,0:0:0:0:
192,192,65536,1,0,0:0:0:0:
64,192,65627,1,0,0:0:0:0:
448,192,65627,1,0,0:0:0:0:
320,192,65718,1,0,0:0:0:0:
64,192,65809,1,0,0:0:0:0:
192,192,65809,1,0,0:0:0:0:
448,192,65900,1,0,0:0:0:0:
64,192,65991,1,0,0:0:0:0:
320,192,65991,1,0,0:0:0:0:
192,192,66082,1,0,0:0:0:0:
320,192,66173,1,0,0:0:0:0:
448,192,66173,1,0,0:0:0:0:
64,192,66264,1,0,0:0:0:0:
192,192,66355,1,0,0:0:0:0:
448,192,66355,1,0,0:0:0:0:
320,192,66446,1,0,0:0:0:0:
64,192,66536,1,0,0:0:0:0:
192,192,66536,1,0,0:0:0:0:
448,192,66582,1,0,0:0:0:0:
320,192,66627,1,0,0:0:0:0:
448,192,66673,1,0,0:0:0:0:
64,192,66718,1,0,0:0:0:0:
192,192,66718,1,0,0:0:0:0:
320,192,66809,1,0,0:0:0:0:
448,192,66809,1,0,0:0:0:0:
64,192,66900,1,0,0:0:0:0:
192,192,66900,1,0,0:0:0:0:
448,192,66991,1,0,0:0:0:0:
192,192,67082,1,0,0:0:0:0:
320,192,67082,1,0,0:0:0:0:
64,192,67173,1,0,0:0:0:0:
320,192,67264,1,0,0:0:0:0:
448,192,67264,1,0,0:0:0:0:
192,192,67355,1,0,0:0:0:0:
64,192,67446,1,0,0:0:0:0:
320,192,67446,1,0,0:0:0:0:
448,192,67536,1,0,0:0:0:0:
64,192,67627,1,0,0:0:0:0:
192,192,67627,1,0,0:0:0:0:
448,192,67718,1,0,0:0:0:0:
192,192,67809,1,0,0:0:0:0:
320,192,67809,1,0,0:0:0:0:
64,192,67900,1,0,0:0:0:0:
320,192,67991,1,0,0:0:0:0:
448,192,67991,1,0,0:0:0:0:
192,192,68036,1,0,0:0:0:0:
64,192,68082,1,0,0:0:0:0:
192,192,68127,1,0,0:0:0:0:
320,192,68173,1,0,0:0:0:0:
448,192,68173,1,0,0:0:0:0:
64,192,68264,1,0,0:0:0:0:
192,192,68264,1,0,0:0:0:0:
320,192,68355,1,0,0:0:0:0:
448,192,68355,1,0,0:0:0:0:
192,192,68446,1,0,0:0:0:0:
64,192,68536,1,0,0:0:0:0:
448,192,68536,1,0,0:0:0:0:
192,192,68627,1,0,0:0:0:0:
320,192,68718,1,0,0:0:0:0:
448,192,68718,1,0,0:0:0:0:
64,192,68809,1,0,0:0:0:0:
192,192,68900,1,0,0:0:0:0:
320,192,68900,1,0,0:0:0:0:
64,192,68991,1,0,0:0:0:0:
320,192,69082,1,0,0:0:0:0:
448,192,69082,1,0,0:0:0:0:
192,192,69173,1,0,0:0:0:0:
64,192,69264,1,0,0:0:0:0:
320,192,69264,1,0,0:0:0:0:
448,192,69355,1,0,0:0:0:0:
64,192,69446,1,0,0:0:0:0:
192,192,69446,1,0,0:0:0:0:
320,192,69491,1,0,0:0:0:0:
448,192,69536,1,0,0:0:0:0:
320,192,69582,1,0,0:0:0:0:
64,192,69627,1,0,0:0:0:0:
192,192,69627,1,0,0:0:0:0:
320,192,69718,1,0,0:0:0:0:
448,192,69718,1,0,0:0:0:0:
64,192,69809,1,0,0:0:0:0:
192,192,69809,1,0,0:0:0:0:
64,192,69991,1,0,0:0:0:0:
448,192,69991,1,0,0:0:0:0:
64,192,70082,1,0,0:0:0:0:
320,192,70173,1,0,0:0:0:0:
448,192,70173,1,0,0:0:0:0:
64,192,70355,1,0,0:0:0:0:
448,192,70355,1,0,0:0:0:0:
64,192,70536,1,0,0:0:0:0:
320,192,70536,1,0,0:0:0:0:
192,192,70718,1,0,0:0:0:0:
320,192,70718,1,0,0:0:0:0:
320,192,70809,1,0,0:0:0:0:
192,192,70900,1,0,0:0:0:0:
448,192,70900,1,0,0:0:0:0:
64,192,71082,1,0,0:0:0:0:
448,192,71082,1,0,0:0:0:0:
320,192,71264,1,0,0:0:0:0:
448,192,71264,1,0,0:0:0:0:
64,192,71446,1,0,0:0:0:0:
448,192,71446,1,0,0:0:0:0:
448,192,71536,1,0,0:0:0:0:
64,192,71627,1,0,0:0:0:0:
192,192,71627,1,0,0:0:0:0:
64,192,71809,1,0,0:0:0:0:
448,192,71809,1,0,0:0:0:0:
192,192,71991,1,0,0:0:0:0:
448,192,71991,1,0,0:0:0:0:
192,192,72173,1,0,0:0:0:0:
320,192,72173,1,0,0:0:0:0:
192,192,72264,1,0,0:0:0:0:
64,192,72355,1,0,0:0:0:0:
320,192,72355,1,0,0:0:0:0:
64,192,72536,1,0,0:0:0:0:
448,192,72536,1,0,0:0:0:0:
320,192,72718,1,0,0:0:0:0:
448,192,72718,1,0,0:0:0:0:
64,192,72809,1,0,0:0:0:0:
192,192,72809,1,0,0:0:0:0:
320,192,72900,1,0,0:0:0:0:
448,192,72900,1,0,0:0:0:0:
320,192,72991,1,0,0:0:0:0:
448,192,72991,1,0,0:0:0:0:
64,192,73082,1,0,0:0:0:0:
192,192,73082,1,0,0:0:0:0:
320,192,73173,1,0,0:0:0:0:
448,192,73173,1,0,0:0:0:0:
64,192,73264,1,0,0:0:0:0:
192,192,73264,1,0,0:0:0:0:
64,192,73355,1,0,0:0:0:0:
192,192,73355,1,0,0:0:0:0:
320,192,73446,1,0,0:0:0:0:
448,192,73446,1,0,0:0:0:0:
64,192,73491,1,0,0:0:0:0:
192,192,73536,1,0,0:0:0:0:
448,192,73582,1,0,0:0:0:0:
64,192,73627,1,0,0:0:0:0:
320,192,73673,1,0,0:0:0:0:
448,192,73718,1,0,0:0:0:0:
192,192,73764,1,0,0:0:0:0:
64,192,73809,1,0,0:0:0:0:
320,192,73809,1,0,0:0:0:0:
448,192,73855,1,0,0:0:0:0:
192,192,73900,1,0,0:0:0:0:
64,192,73946,1,0,0:0:0:0:
320,192,73991,1,0,0:0:0:0:
448,192,73991,1,0,0:0:0:0:
64,192,74082,1,0,0:0:0:0:
192,192,74082,1,0,0:0:0:0:
320,192,74173,1,0,0:0:0:0:
448,192,74173,1,0,0:0:0:0:
192,192,74264,1,0,0:0:0:0:
448,192,74355,1,0,0:0:0:0:
192,192,74446,1,0,0:0:0:0:
320,192,74536,1,0,0:0:0:0:
64,192,74627,1,0,0:0:0:0:
320,192,74718,1,0,0:0:0:0:
64,192,74809,1,0,0:0:0:0:
192,192,74900,1,0,0:0:0:0:
448,192,74991,1,0,0:0:0:0:
192,192,75082,1,0,0:0:0:0:
448,192,75173,1,0,0:0:0:0:
64,192,75264,1,0,0:0:0:0:
192,192,75264,1,0,0:0:0:0:
320,192,75627,1,0,0:0:0:0:
448,192,75627,1,0,0:0:0:0:
64,192,75688,1,0,0:0:0:0:
192,192,75749,1,0,0:0:0:0:
448,192,75809,1,0,0:0:0:0:
64,192,75870,1,0,0:0:0:0:
320,192,75930,1,0,0:0:0:0:
448,192,75991,1,0,0:0:0:0:
192,192,76014,1,0,0:0:0:0:
64,192,76036,1,0,0:0:0:0:
320,192,76082,1,0,0:0:0:0:
192,192,76173,1,0,0:0:0:0:
448,192,76264,1,0,0:0:0:0:
64,192,76355,1,0,0:0:0:0:
192,192,76355,1,0,0:0:0:0:
320,192,76446,1,0,0:0:0:0:
192,192,76536,1,0,0:0:0:0:
448,192,76627,1,0,0:0:0:0:
64,192,76718,1,0,0:0:0:0:
192,192,76749,1,0,0:0:0:0:
448,192,76779,1,0,0:0:0:0:
320,192,76809,1,0,0:0:0:0:
448,192,76900,1,0,0:0:0:0:
320,192,76930,1,0,0:0:0:0:
64,192,76961,1,0,0:0:0:0:
192,192,76991,1,0,0:0:0:0:
64,192,77082,1,0,0:0:0:0:
448,192,77082,1,0,0:0:0:0:
320,192,77173,1,0,0:0:0:0:
192,192,77264,1,0,0:0:0:0:
448,192,77355,1,0,0:0:0:0:
64,192,77446,1,0,0:0:0:0:
192,192,77476,1,0,0:0:0:0:
448,192,77506,1,0,0:0:0:0:
320,192,77536,1,0,0:0:0:0:
448,192,77627,1,0,0:0:0:0:
320,192,77658,1,0,0:0:0:0:
64,192,77688,1,0,0:0:0:0:
192,192,77718,1,0,0:0:0:0:
320,192,77809,1,0,0:0:0:0:
448,192,77809,1,0,0:0:0:0:
64,192,77900,1,0,0:0:0:0:
320,192,77991,1,0,0:0:0:0:
320,192,78082,1,0,0:0:0:0:
448,192,78173,1,0,0:0:0:0:
192,192,78196,1,0,0:0:0:0:
64,192,78218,1,0,0:0:0:0:
320,192,78264,1,0,0:0:0:0:
448,192,78355,1,0,0:0:0:0:
64,192,78536,1,0,0:0:0:0:
192,192,78536,1,0,0:0:0:0:
320,192,78627,1,0,0:0:0:0:
64,192,78718,1,0,0:0:0:0:
448,192,78809,1,0,0:0:0:0:
64,192,78900,1,0,0:0:0:0:
320,192,78923,1,0,0:0:0:0:
448,192,78946,1,0,0:0:0:0:
192,192,78991,1,0,0:0:0:0:
320,192,79082,1,0,0:0:0:0:
448,192,79082,1,0,0:0:0:0:
64,192,79173,1,0,0:0:0:0:
448,192,79173,1,0,0:0:0:0:
64,192,79264,1,0,0:0:0:0:
192,192,79264,1,0,0:0:0:0:
320,192,79355,1,0,0:0:0:0:
192,192,79446,1,0,0:0:0:0:
64,192,79536,1,0,0:0:0:0:
448,192,79627,1,0,0:0:0:0:
320,192,79658,1,0,0:0:0:0:
64,192,79688,1,0,0:0:0:0:
192,192,79718,1,0,0:0:0:0:
64,192,79809,1,0,0:0:0:0:
192,192,79839,1,0,0:0:0:0:
448,192,79870,1,0,0:0:0:0:
320,192,79900,1,0,0:0:0:0:
64,192,79991,1,0,0:0:0:0:
192,192,79991,1,0,0:0:0:0:
448,192,80082,1,0,0:0:0:0:
320,192,80173,1,0,0:0:0:0:
192,192,80264,1,0,0:0:0:0:
448,192,80355,1,0,0:0:0:0:
320,192,80385,1,0,0:0:0:0:
64,192,80415,1,0,0:0:0:0:
192,192,80446,1,0,0:0:0:0:
64,192,80536,1,0,0:0:0:0:
192,192,80567,1,0,0:0:0:0:
448,192,80597,1,0,0:0:0:0:
320,192,80627,1,0,0:0:0:0:
64,192,80718,1,0,0:0:0:0:
448,192,80718,1,0,0:0:0:0:
192,192,80809,1,0,0:0:0:0:
320,192,80900,1,0,0:0:0:0:
64,192,80991,1,0,0:0:0:0:
448,192,81082,128,0,81142:0:0:0:0:
192,192,81112,128,0,81173:0:0:0:0:
64,192,81142,128,0,81173:0:0:0:0:
64,192,81264,128,0,81324:0:0:0:0:
320,192,81294,128,0,81355:0:0:0:0:
448,192,81324,128,0,81355:0:0:0:0:
64,192,81446,1,0,0:0:0:0:
192,192,81446,1,0,0:0:0:0:
448,192,81506,1,0,0:0:0:0:
320,192,81567,1,0,0:0:0:0:
64,192,81627,1,0,0:0:0:0:
448,192,81688,1,0,0:0:0:0:
192,192,81749,1,0,0:0:0:0:
64,192,81809,1,0,0:0:0:0:
320,192,81832,1,0,0:0:0:0:
448,192,81855,1,0,0:0:0:0:
192,192,81900,1,0,0:0:0:0:
320,192,81991,1,0,0:0:0:0:
64,192,82082,1,0,0:0:0:0:
320,192,82173,1,0,0:0:0:0:
448,192,82173,1,0,0:0:0:0:
192,192,82264,1,0,0:0:0:0:
320,192,82355,1,0,0:0:0:0:
64,192,82446,1,0,0:0:0:0:
448,192,82536,1,0,0:0:0:0:
320,192,82567,1,0,0:0:0:0:
64,192,82597,1,0,0:0:0:0:
192,192,82627,1,0,0:0:0:0:
64,192,82718,1,0,0:0:0:0:
192,192,82749,1,0,0:0:0:0:
448,192,82779,1,0,0:0:0:0:
320,192,82809,1,0,0:0:0:0:
64,192,82900,1,0,0:0:0:0:
448,192,82900,1,0,0:0:0:0:
192,192,82991,1,0,0:0:0:0:
320,192,83082,1,0,0:0:0:0:
64,192,83173,1,0,0:0:0:0:
448,192,83264,1,0,0:0:0:0:
320,192,83294,1,0,0:0:0:0:
64,192,83324,1,0,0:0:0:0:
192,192,83355,1,0,0:0:0:0:
64,192,83446,1,0,0:0:0:0:
192,192,83476,1,0,0:0:0:0:
448,192,83506,1,0,0:0:0:0:
320,192,83536,1,0,0:0:0:0:
64,192,83627,1,0,0:0:0:0:
192,192,83627,1,0,0:0:0:0:
448,192,83718,1,0,0:0:0:0:
320,192,83809,1,0,0:0:0:0:
192,192,83900,1,0,0:0:0:0:
64,192,83991,128,0,84355:0:0:0:0:
192,192,84021,128,0,84142:0:0:0:0:
320,192,84052,128,0,84112:0:0:0:0:
448,192,84173,1,0,0:0:0:0:
320,192,84203,1,0,0:0:0:0:
192,192,84264,1,0,0:0:0:0:
320,192,84355,1,0,0:0:0:0:
448,192,84355,1,0,0:0:0:0:
192,192,84446,1,0,0:0:0:0:
320,192,84536,1,0,0:0:0:0:
448,192,84627,1,0,0:0:0:0:
64,192,84718,1,0,0:0:0:0:
192,192,84741,1,0,0:0:0:0:
320,192,84764,1,0,0:0:0:0:
448,192,84809,1,0,0:0:0:0:
64,192,84900,1,0,0:0:0:0:
192,192,84900,1,0,0:0:0:0:
64,192,84991,1,0,0:0:0:0:
320,192,85082,1,0,0:0:0:0:
448,192,85082,1,0,0:0:0:0:
448,192,85173,1,0,0:0:0:0:
192,192,85264,1,0,0:0:0:0:
192,192,85355,1,0,0:0:0:0:
64,192,85446,1,0,0:0:0:0:
320,192,85491,1,0,0:0:0:0:
64,192,85536,1,0,0:0:0:0:
448,192,85627,1,0,0:0:0:0:
448,192,85718,1,0,0:0:0:0:
64,192,85809,1,0,0:0:0:0:
192,192,85809,1,0,0:0:0:0:
64,192,86173,1,0,0:0:0:0:
320,192,86173,1,0,0:0:0:0:
64,192,86536,1,0,0:0:0:0:
448,192,86536,1,0,0:0:0:0:
320,192,86718,1,0,0:0:0:0:
64,192,86900,1,0,0:0:0:0:
192,192,86900,1,0,0:0:0:0:
448,192,86961,1,0,0:0:0:0:
192,192,87021,1,0,0:0:0:0:
320,192,87082,1,0,0:0:0:0:
64,192,87142,1,0,0:0:0:0:
192,192,87203,1,0,0:0:0:0:
320,192,87264,1,0,0:0:0:0:
448,192,87264,1,0,0:0:0:0:
64,192,87309,1,0,0:0:0:0:
448,192,87355,1,0,0:0:0:0:
320,192,87400,1,0,0:0:0:0:
192,192,87446,1,0,0:0:0:0:
448,192,87491,1,0,0:0:0:0:
64,192,87536,1,0,0:0:0:0:
320,192,87582,1,0,0:0:0:0:
192,192,87627,1,0,0:0:0:0:
64,192,87688,1,0,0:0:0:0:
448,192,87749,1,0,0:0:0:0:
320,192,87809,1,0,0:0:0:0:
448,192,87870,1,0,0:0:0:0:
192,192,87930,1,0,0:0:0:0:
64,192,87991,1,0,0:0:0:0:
192,192,88052,1,0,0:0:0:0:
320,192,88112,1,0,0:0:0:0:
448,192,88173,1,0,0:0:0:0:
64,192,88218,1,0,0:0:0:0:
192,192,88264,1,0,0:0:0:0:
320,192,88309,1,0,0:0:0:0:
64,192,88355,1,0,0:0:0:0:
192,192,88400,1,0,0:0:0:0:
448,192,88446,1,0,0:0:0:0:
320,192,88491,1,0,0:0:0:0:
64,192,88536,1,0,0:0:0:0:
448,192,88582,1,0,0:0:0:0:
192,192,88627,1,0,0:0:0:0:
320,192,88718,1,0,0:0:0:0:
448,192,88718,1,0,0:0:0:0:
64,192,88779,1,0,0:0:0:0:
192,192,88839,1,0,0:0:0:0:
448,192,88900,1,0,0:0:0:0:
64,192,88961,1,0,0:0:0:0:
320,192,89021,1,0,0:0:0:0:
192,192,89082,1,0,0:0:0:0:
448,192,89082,1,0,0:0:0:0:
64,192,89264,128,0,89355:0:0:0:0:
192,192,89294,128,0,89446:0:0:0:0:
320,192,89446,1,0,0:0:0:0:
448,192,89446,1,0,0:0:0:0:
64,192,89491,1,0,0:0:0:0:
192,192,89536,1,0,0:0:0:0:
320,192,89582,1,0,0:0:0:0:
448,192,89627,1,0,0:0:0:0:
448,192,89718,1,0,0:0:0:0:
64,192,89809,1,0,0:0:0:0:
192,192,89809,1,0,0:0:0:0:
320,192,89855,1,0,0:0:0:0:
448,192,89900,1,0,0:0:0:0:
64,192,89946,1,0,0:0:0:0:
192,192,89991,1,0,0:0:0:0:
192,192,90082,1,0,0:0:0:0:
64,192,90173,1,0,0:0:0:0:
448,192,90173,1,0,0:0:0:0:
320,192,90218,1,0,0:0:0:0:
192,192,90264,1,0,0:0:0:0:
448,192,90309,1,0,0:0:0:0:
64,192,90355,1,0,0:0:0:0:
64,192,90446,1,0,0:0:0:0:
192,192,90536,1,0,0:0:0:0:
448,192,90536,1,0,0:0:0:0:
320,192,90582,1,0,0:0:0:0:
64,192,90627,1,0,0:0:0:0:
192,192,90673,1,0,0:0:0:0:
448,192,90718,1,0,0:0:0:0:
448,192,90809,1,0,0:0:0:0:
64,192,90900,1,0,0:0:0:0:
192,192,90900,1,0,0:0:0:0:
320,192,90946,1,0,0:0:0:0:
448,192,90991,1,0,0:0:0:0:
64,192,91036,1,0,0:0:0:0:
192,192,91082,1,0,0:0:0:0:
192,192,91173,1,0,0:0:0:0:
320,192,91264,1,0,0:0:0:0:
448,192,91264,1,0,0:0:0:0:
64,192,91309,1,0,0:0:0:0:
192,192,91355,1,0,0:0:0:0:
448,192,91400,1,0,0:0:0:0:
320,192,91446,1,0,0:0:0:0:
320,192,91536,1,0,0:0:0:0:
64,192,91627,1,0,0:0:0:0:
192,192,91627,1,0,0:0:0:0:
320,192,91718,1,0,0:0:0:0:
448,192,91749,1,0,0:0:0:0:
192,192,91809,1,0,0:0:0:0:
320,192,91839,1,0,0:0:0:0:
192,192,91900,1,0,0:0:0:0:
64,192,91930,1,0,0:0:0:0:
320,192,91991,1,0,0:0:0:0:
448,192,92021,1,0,0:0:0:0:
320,192,92082,1,0,0:0:0:0:
448,192,92112,1,0,0:0:0:0:
64,192,92173,1,0,0:0:0:0:
192,192,92173,1,0,0:0:0:0:
64,192,92264,1,0,0:0:0:0:
320,192,92355,1,0,0:0:0:0:
448,192,92355,1,0,0:0:0:0:
192,192,92400,1,0,0:0:0:0:
64,192,92446,1,0,0:0:0:0:
448,192,92491,1,0,0:0:0:0:
320,192,92536,1,0,0:0:0:0:
320,192,92627,1,0,0:0:0:0:
64,192,92718,1,0,0:0:0:0:
448,192,92718,1,0,0:0:0:0:
192,192,92764,1,0,0:0:0:0:
320,192,92809,1,0,0:0:0:0:
448,192,92855,1,0,0:0:0:0:
64,192,92900,1,0,0:0:0:0:
64,192,92991,1,0,0:0:0:0:
320,192,93082,1,0,0:0:0:0:
448,192,93082,1,0,0:0:0:0:
192,192,93127,1,0,0:0:0:0:
64,192,93173,1,0,0:0:0:0:
320,192,93218,1,0,0:0:0:0:
448,192,93264,1,0,0:0:0:0:
448,192,93355,1,0,0:0:0:0:
64,192,93446,1,0,0:0:0:0:
192,192,93446,1,0,0:0:0:0:
320,192,93491,1,0,0:0:0:0:
448,192,93536,1,0,0:0:0:0:
64,192,93582,1,0,0:0:0:0:
192,192,93627,1,0,0:0:0:0:
192,192,93718,1,0,0:0:0:0:
64,192,93809,1,0,0:0:0:0:
448,192,93809,1,0,0:0:0:0:
320,192,93855,1,0,0:0:0:0:
192,192,93900,1,0,0:0:0:0:
64,192,93946,1,0,0:0:0:0:
448,192,93991,1,0,0:0:0:0:
448,192,94082,1,0,0:0:0:0:
64,192,94173,1,0,0:0:0:0:
320,192,94173,1,0,0:0:0:0:
192,192,94218,1,0,0:0:0:0:
448,192,94264,1,0,0:0:0:0:
320,192,94309,1,0,0:0:0:0:
64,192,94355,1,0,0:0:0:0:
192,192,94355,1,0,0:0:0:0:
64,192,94446,1,0,0:0:0:0:
320,192,94536,1,0,0:0:0:0:
448,192,94536,1,0,0:0:0:0:
192,192,94597,1,0,0:0:0:0:
320,192,94658,1,0,0:0:0:0:
64,192,94718,1,0,0:0:0:0:
448,192,94718,1,0,0:0:0:0:
192,192,94809,1,0,0:0:0:0:
64,192,94900,1,0,0:0:0:0:
320,192,94900,1,0,0:0:0:0:
192,192,95082,1,0,0:0:0:0:
320,192,95082,1,0,0:0:0:0:
320,192,95264,1,0,0:0:0:0:
448,192,95264,1,0,0:0:0:0:
192,192,95324,1,0,0:0:0:0:
320,192,95385,1,0,0:0:0:0:
64,192,95446,1,0,0:0:0:0:
448,192,95446,1,0,0:0:0:0:
192,192,95536,1,0,0:0:0:0:
64,192,95627,1,0,0:0:0:0:
320,192,95627,1,0,0:0:0:0:
320,192,95809,1,0,0:0:0:0:
448,192,95809,1,0,0:0:0:0:
64,192,95991,1,0,0:0:0:0:
192,192,95991,1,0,0:0:0:0:
320,192,96052,1,0,0:0:0:0:
192,192,96112,1,0,0:0:0:0:
64,192,96173,1,0,0:0:0:0:
448,192,96173,1,0,0:0:0:0:
320,192,96264,1,0,0:0:0:0:
192,192,96355,1,0,0:0:0:0:
448,192,96355,1,0,0:0:0:0:
192,192,96536,1,0,0:0:0:0:
320,192,96536,1,0,0:0:0:0:
64,192,96718,1,0,0:0:0:0:
192,192,96718,1,0,0:0:0:0:
320,192,96779,1,0,0:0:0:0:
192,192,96839,1,0,0:0:0:0:
64,192,96900,1,0,0:0:0:0:
448,192,96900,1,0,0:0:0:0:
320,192,96991,1,0,0:0:0:0:
192,192,97082,1,0,0:0:0:0:
448,192,97082,1,0,0:0:0:0:
64,192,97264,1,0,0:0:0:0:
192,192,97264,1,0,0:0:0:0:
64,192,97446,1,0,0:0:0:0:
192,192,97446,1,0,0:0:0:0:
320,192,97536,1,0,0:0:0:0:
448,192,97536,1,0,0:0:0:0:
64,192,97627,1,0,0:0:0:0:
192,192,97627,1,0,0:0:0:0:
64,192,97718,1,0,0:0:0:0:
192,192,97718,1,0,0:0:0:0:
320,192,97809,1,0,0:0:0:0:
448,192,97809,1,0,0:0:0:0:
64,192,97900,1,0,0:0:0:0:
192,192,97900,1,0,0:0:0:0:
320,192,97991,1,0,0:0:0:0:
448,192,97991,1,0,0:0:0:0:
320,192,98082,1,0,0:0:0:0:
448,192,98082,1,0,0:0:0:0:
64,192,98173,1,0,0:0:0:0:
192,192,98173,1,0,0:0:0:0:
448,192,98218,1,0,0:0:0:0:
320,192,98264,1,0,0:0:0:0:
64,192,98309,1,0,0:0:0:0:
448,192,98355,1,0,0:0:0:0:
192,192,98400,1,0,0:0:0:0:
64,192,98446,1,0,0:0:0:0:
320,192,98491,1,0,0:0:0:0:
192,192,98536,1,0,0:0:0:0:
448,192,98536,1,0,0:0:0:0:
64,192,98582,1,0,0:0:0:0:
320,192,98627,1,0,0:0:0:0:
448,192,98673,1,0,0:0:0:0:
64,192,98718,1,0,0:0:0:0:
192,192,98718,1,0,0:0:0:0:
320,192,98809,1,0,0:0:0:0:
448,192,98809,1,0,0:0:0:0:
64,192,98900,1,0,0:0:0:0:
192,192,98900,1,0,0:0:0:0:
320,192,99991,1,0,0:0:0:0:
448,192,99991,1,0,0:0:0:0:
192,192,100082,1,0,0:0:0:0:
320,192,100173,1,0,0:0:0:0:
192,192,100264,1,0,0:0:0:0:
64,192,100355,1,0,0:0:0:0:
320,192,100355,1,0,0:0:0:0:
