osu file format v14

[General]
AudioFilename: audio.mp3
AudioLeadIn: 0
PreviewTime: 42590
Countdown: 0
SampleSet: Soft
StackLeniency: 0.6
Mode: 0
LetterboxInBreaks: 0
WidescreenStoryboard: 0

[Editor]
DistanceSpacing: 1.4
BeatDivisor: 4
GridSize: 4
TimelineZoom: 1.4

[Metadata]
Title:Mirai Connection
TitleUnicode:未来コネクション
Artist:ReaL
ArtistUnicode:ЯeaL(リアル)
Creator:leo16834
Version:Hard
Source:ポケットモンスター サン&ムーン
Tags:Pokemon pocket monster Sun Moon satoshi Ash pikachu pokémon Ryoko 喜介 渡辺拓也 opening op CookieBite
BeatmapID:1545230
BeatmapSetID:732350

[Difficulty]
HPDrainRate:6
CircleSize:4
OverallDifficulty:6
ApproachRate:7.3
SliderMultiplier:1.4
SliderTickRate:1

[Events]
//Background and Video events
Video,158,"Mirai Connection Opening.avi"
0,0,"Ultra.jpg",0,0
//Break Periods
//Storyboard Layer 0 (Background)
//Storyboard Layer 1 (Fail)
//Storyboard Layer 2 (Pass)
//Storyboard Layer 3 (Foreground)
//Storyboard Sound Samples

[TimingPoints]
628,419.58041958042,4,2,1,50,1,0
27481,-125,4,2,2,50,0,0
34194,-100,4,2,1,50,0,0
42481,-100,4,2,1,5,0,0
42586,-100,4,2,1,60,0,1
50033,-100,4,2,1,5,0,1
50138,-100,4,2,1,60,0,1
55593,-100,4,2,1,60,0,0
56012,-100,4,2,1,60,0,1
63460,-100,4,2,1,5,0,1
63565,-100,4,2,1,60,0,1
69439,-100,4,2,1,50,0,0
86851,-100,4,2,0,5,0,0

[Colours]
Combo1 : 255,0,128
Combo2 : 255,255,128
Combo3 : 128,255,255
Combo4 : 128,255,0
Combo5 : 255,128,192
Combo6 : 128,128,255
Combo7 : 128,0,255

[HitObjects]
135,195,628,5,2,0:0:0:0:
55,138,837,2,0,L|14:146,2,35,0|0|2,0:0|0:0|3:0,0:0:0:0:
140,88,1257,1,0,0:0:0:0:
222,141,1467,2,0,L|304:131,1,70,0|0,0:0|0:0,0:0:0:0:
284,230,1886,2,0,L|202:240,1,70,2|0,3:0|0:0,0:0:0:0:
122,296,2306,6,0,P|117:275|110:246,3,35,2|0|0|0,0:0|0:0|0:0|0:0,0:0:0:0:
141,221,2725,2,0,P|146:200|153:171,3,35,2|0|0|0,3:0|0:0|0:0|0:0,0:0:0:0:
139,138,3145,1,0,0:0:0:0:
182,50,3355,5,0,1:0:0:0:
310,140,3565,1,4,0:0:0:0:
310,140,3984,6,0,L|317:101,3,35,4|0|0|0,0:0|0:0|0:0|0:0,0:0:0:0:
326,62,4404,2,0,P|358:48|405:39,1,70,0|0,1:0|0:0,0:0:0:0:
485,107,4823,2,0,P|453:121|406:130,1,70,2|0,0:0|0:0,0:0:0:0:
326,62,5243,1,0,1:0:0:0:
418,128,5453,1,0,0:0:0:0:
336,232,5662,6,0,P|322:183|323:142,1,70,2|0,0:0|0:0,0:0:0:0:
425,208,6082,2,0,P|439:257|438:298,1,70,0|0,1:0|0:0,0:0:0:0:
366,345,6502,1,2,0:0:0:0:
280,283,6711,1,0,0:0:0:0:
195,345,6921,1,0,1:0:0:0:
190,354,7341,6,0,L|141:358,3,35,2|0|0|0,0:0|0:0|0:0|0:0,0:0:0:0:
108,349,7760,2,0,P|95:282|91:247,1,70,0|0,1:0|0:0,0:0:0:0:
191,248,8180,2,0,P|204:181|208:146,1,70,2|0,0:0|0:0,0:0:0:0:
170,73,8600,1,0,1:0:0:0:
60,57,8809,1,0,0:0:0:0:
34,170,9019,6,0,P|84:171|123:157,1,70,2|0,0:0|0:0,0:0:0:0:
245,113,9439,2,0,P|279:108|314:111,1,70,0|0,1:0|0:0,0:0:0:0:
421,198,9858,5,2,0:0:0:0:
488,59,10068,1,4,0:0:0:0:
488,59,10278,1,4,0:0:0:0:
247,11,10697,5,0,1:0:0:0:
99,42,10907,1,0,0:0:0:0:
99,42,11117,1,0,0:0:0:0:
197,152,11327,1,0,1:0:0:0:
56,191,11537,1,0,0:0:0:0:
56,191,11746,1,0,0:0:0:0:
148,308,11956,2,0,L|174:234,1,70,0|0,1:0|0:0,0:0:0:0:
278,161,12376,5,12,0:0:0:0:
256,192,12481,12,4,14054,0:0:0:0:
265,184,14474,6,0,P|314:183|351:165,1,70,0|0,1:0|0:0,0:0:0:0:
388,94,14893,1,2,0:0:0:0:
453,167,15103,2,0,P|462:210|446:251,1,70,0|0,0:0|1:0,0:0:0:0:
394,305,15523,2,0,L|325:316,1,70,0|2,0:0|0:0,0:0:0:0:
206,371,15942,2,0,L|287:385,1,70,0|0,0:0|1:0,0:0:0:0:
164,297,16362,2,0,L|95:308,1,70,0|2,0:0|0:0,0:0:0:0:
18,251,16781,1,0,0:0:0:0:
102,200,16991,1,0,1:0:0:0:
16,150,17201,1,0,0:0:0:0:
157,116,17411,6,0,P|230:102|297:51,1,140,2|0,0:0|1:0,0:0:0:0:
372,23,18040,2,0,B|358:73|358:73|381:187,1,140,0|0,0:0|0:0,0:0:0:0:
389,256,18669,2,0,P|421:241|455:233,1,70,0|0,1:0|0:0,0:0:0:0:
401,348,19089,1,2,0:0:0:0:
401,348,19299,1,0,0:0:0:0:
316,297,19509,2,0,L|221:294,1,70,0|0,1:0|0:0,0:0:0:0:
210,194,19928,2,0,L|301:188,2,70,2|0|4,0:0|1:0|1:0,0:0:0:0:
44,286,20767,6,0,L|59:137,1,140,6|0,0:0|1:0,0:0:0:0:
65,42,21397,1,0,0:0:0:0:
145,101,21607,2,0,P|191:107|234:104,1,70,2|0,0:0|0:0,0:0:0:0:
285,33,22026,1,0,1:0:0:0:
385,32,22236,2,0,P|419:43|464:87,1,70
402,144,22655,2,0,P|406:187|395:226,1,70,0|0,0:0|1:0,0:0:0:0:
274,285,23075,2,0,P|332:274|352:261,1,70,0|2,0:0|0:0,0:0:0:0:
274,193,23495,2,0,L|177:198,1,70,0|0,0:0|1:0,0:0:0:0:
95,200,23914,1,0,0:0:0:0:
142,115,24124,5,6,0:0:0:0:
142,115,24544,2,0,P|200:103|225:95,1,70,0|0,1:0|0:0,0:0:0:0:
277,22,24963,2,0,P|308:70|293:159,1,140,2|0,0:0|1:0,0:0:0:0:
231,215,25593,1,2,0:0:0:0:
317,350,25802,2,0,L|308:270,1,70,2|0,0:0|0:0,0:0:0:0:
231,215,26222,2,0,L|240:135,1,70,4|0,0:0|0:0,0:0:0:0:
336,43,26641,2,0,P|280:55|183:9,1,140,0|4,1:0|0:3,0:0:0:0:
92,45,27271,1,4,0:3:0:0:
160,125,27481,5,2,3:0:0:0:
160,125,27900,1,0,0:0:0:0:
93,182,28110,1,0,0:0:0:0:
177,215,28320,1,8,0:0:0:0:
177,215,28739,1,2,3:0:0:0:
251,281,28949,6,0,P|290:287|326:277,1,56,8|0,0:0|0:0,0:0:0:0:
381,162,29369,2,0,P|356:192|346:228,1,56,8|0,0:0|0:0,0:0:0:0:
395,279,29788,1,8,0:0:0:0:
350,207,29998,2,0,L|217:194,1,112,2|10,3:0|0:0,0:0:0:0:
276,111,30628,1,0,0:0:0:0:
223,38,30837,6,0,P|168:36|133:77,1,112,2|8,3:0|0:0,0:0:0:0:
41,80,31467,1,0,0:0:0:0:
90,155,31676,2,0,P|100:188|103:217,1,56,8|0,0:0|0:0,0:0:0:0:
128,304,32096,1,8,0:0:0:0:
213,183,32306,5,12,0:0:0:0:
366,280,32725,1,12,0:0:0:0:
204,360,33145,1,12,0:0:0:0:
205,168,33565,1,0,0:0:0:0:
205,168,33669,1,0,0:0:0:0:
205,168,33774,2,0,P|198:117|202:87,1,56,8|0,0:0|0:0,0:0:0:0:
108,41,34194,6,0,L|29:30,1,70,4|0,0:0|0:0,0:0:0:0:
198,112,34614,2,0,L|119:123,1,70,0|0,1:0|0:0,0:0:0:0:
307,46,35033,2,0,L|228:35,1,70,0|0,1:0|0:0,0:0:0:0:
354,125,35453,1,0,1:0:0:0:
354,125,35662,1,0,0:0:0:0:
415,210,35872,6,0,L|512:226,1,70,0|0,1:0|0:0,0:0:0:0:
313,310,36292,2,0,L|410:294,1,70,0|0,1:0|0:0,0:0:0:0:
196,217,36711,2,0,L|293:233,1,70,0|0,1:0|0:0,0:0:0:0:
125,299,37131,1,0,1:0:0:0:
125,299,37341,1,0,0:0:0:0:
71,205,37551,6,0,P|84:166|104:139,1,70,0|0,1:0|0:0,0:0:0:0:
205,32,37970,2,0,P|192:71|172:98,1,70,0|0,1:0|0:0,0:0:0:0:
67,219,38390,2,0,L|168:203,1,70,0|0,1:0|0:0,0:0:0:0:
263,276,38809,1,0,1:0:0:0:
164,326,39019,6,0,P|66:328|17:285,1,140,4|0,0:0|1:0,0:0:0:0:
62,167,39648,2,0,L|50:120,1,35,0|0,1:0|1:0,0:0:0:0:
162,206,39963,2,0,L|150:253,1,35,0|0,1:0|1:0,0:0:0:0:
269,171,40278,1,8,0:3:0:0:
264,157,40383,1,8,0:3:0:0:
259,143,40488,2,0,L|242:93,2,35,8|4|4,0:3|0:3|0:3,0:3:0:0:
439,219,40907,5,0,1:0:0:0:
469,233,42586,6,0,L|459:84,1,140,6|0,0:0|1:0,0:0:0:0:
386,3,43215,1,0,0:0:0:0:
270,36,43425,2,0,P|284:91|303:119,1,70,0|0,0:0|0:0,0:0:0:0:
360,178,43844,2,0,P|377:130|380:92,1,70,0|0,1:0|0:0,0:0:0:0:
287,217,44264,6,0,P|379:217|430:260,1,140,2|0,0:0|1:0,0:0:0:0:
454,331,44893,1,0,0:0:0:0:
351,338,45103,2,0,L|295:344,2,35,0|0|0,0:0|1:0|0:0,0:0:0:0:
235,284,45523,2,0,L|134:293,1,70,0|0,1:0|0:0,0:0:0:0:
51,129,45942,6,0,P|115:140|155:200,1,140,2|0,0:0|1:0,0:0:0:0:
165,290,46572,2,0,L|317:275,1,140,0|0,0:0|0:0,0:0:0:0:
412,336,47201,1,0,1:0:0:0:
471,228,47411,2,0,P|423:222|378:220,1,70,0|2,0:0|0:0,0:0:0:0:
319,158,47830,1,0,0:0:0:0:
427,123,48040,2,0,L|438:38,1,70,0|0,1:0|0:0,0:0:0:0:
327,88,48460,2,0,L|316:173,1,70
219,272,48879,2,0,P|270:250|283:237,1,70,0|0,1:0|1:0,0:0:0:0:
154,199,49299,6,0,L|7:216,2,140,4|2|0,0:0|0:0|1:0,0:0:0:0:
235,125,50348,1,0,0:0:0:0:
140,85,50558,1,0,1:0:0:0:
38,71,50767,1,0,0:0:0:0:
148,57,50977,6,0,P|184:41|236:51,1,70,2|2,0:0|0:0,0:0:0:0:
357,93,51397,2,0,P|320:108|269:99,1,70,2|2,0:0|0:0,0:0:0:0:
179,201,51816,2,0,P|215:185|267:195,1,70,0|2,1:0|0:0,0:0:0:0:
385,205,52236,1,0,1:0:0:0:
385,205,52341,1,0,1:0:0:0:
385,205,52446,1,0,0:0:0:0:
385,205,52551,1,0,0:0:0:0:
385,205,52655,6,0,P|409:247|405:289,1,70,4|0,0:0|0:0,0:0:0:0:
261,251,53075,2,0,L|331:261,1,70,0|0,0:0|1:0,0:0:0:0:
252,169,53495,2,0,L|182:178,1,70
116,278,53914,2,0,P|115:323|141:360,1,70,0|0,0:0|1:0,0:0:0:0:
253,346,54334,2,0,B|322:331|322:331|398:351,1,140,2|4,0:0|0:0,0:0:0:0:
502,256,54963,1,0,1:0:0:0:
490,268,55383,5,0,0:0:0:0:
352,203,55593,1,8,0:3:0:0:
342,221,56012,6,0,L|317:73,1,140,6|0,0:0|1:0,0:0:0:0:
244,15,56641,1,0,0:0:0:0:
151,48,56851,2,0,P|155:85|185:132,1,70,0|0,0:0|0:0,0:0:0:0:
237,195,57271,2,0,L|148:214,1,70,0|0,1:0|0:0,0:0:0:0:
22,348,57690,6,0,P|95:329|112:260,1,140,2|0,0:0|1:0,0:0:0:0:
24,206,58320,1,0,0:0:0:0:
102,135,58530,2,0,L|95:88,2,35,0|0|0,0:0|1:0|0:0,0:0:0:0:
14,23,58949,2,0,P|52:18|97:31,1,70,0|0,1:0|0:0,0:0:0:0:
216,119,59369,6,0,P|285:124|349:97,1,140,2|0,0:0|1:0,0:0:0:0:
465,5,59998,2,0,B|439:34|406:41|406:41|434:73|428:115,1,140
452,247,60628,1,0,1:0:0:0:
452,247,60837,2,0,P|446:195|435:162,1,70,0|2,0:0|0:0,0:0:0:0:
371,338,61257,1,0,0:0:0:0:
371,338,61467,2,0,P|423:332|456:321,1,70,0|0,1:0|0:0,0:0:0:0:
352,259,61886,2,0,P|300:265|267:276,1,70,0|0,0:0|0:0,0:0:0:0:
221,348,62306,1,0,1:0:0:0:
221,348,62516,1,0,1:0:0:0:
66,259,62725,6,0,B|109:248|109:248|211:267,2,140,4|2|0,0:0|0:0|1:0,0:0:0:0:
1,176,63774,1,0,0:0:0:0:
108,149,63984,1,0,1:0:0:0:
215,125,64194,1,0,0:0:0:0:
323,100,64404,6,0,L|414:117,1,70,2|2,0:0|0:0,0:0:0:0:
456,224,64823,2,0,P|470:187|473:133,1,70,2|2,0:0|0:0,0:0:0:0:
409,45,65243,2,0,P|395:82|392:136,1,70,0|2,1:0|0:0,0:0:0:0:
380,220,65662,1,0,1:0:0:0:
377,230,65767,1,0,1:0:0:0:
374,240,65872,1,0,0:0:0:0:
372,250,65977,1,0,0:0:0:0:
369,262,66082,6,0,L|273:277,1,70,4|0,0:0|0:0,0:0:0:0:
155,339,66502,2,0,P|210:327|235:304,1,70,0|0,0:0|1:0,0:0:0:0:
238,158,66921,2,0,L|227:247,1,70,0|0,0:0|0:0,0:0:0:0:
119,146,67341,2,0,L|130:57,1,70,0|0,0:0|1:0,0:0:0:0:
254,4,67760,6,0,L|403:12,1,140,2|0,0:0|0:0,0:0:0:0:
512,89,68390,2,0,L|366:94,1,140,4|0,0:1|0:0,0:0:0:0:
341,237,69019,2,0,P|363:196|370:149,1,70,0|0,1:0|0:0,0:0:0:0:
442,286,69439,5,4,0:0:0:0:
308,335,69648,1,0,0:0:0:0:
308,335,69858,1,0,1:0:0:0:
166,288,70068,1,4,0:0:0:0:
274,188,70278,1,0,0:0:0:0:
274,188,70488,1,0,1:0:0:0:
149,134,70697,1,4,0:0:0:0:
156,123,71117,6,0,P|162:92|162:69,2,35,0|8|8,0:0|0:3|0:3,0:0:0:0:
48,209,71537,1,0,0:0:0:0:
48,209,71641,1,0,0:0:0:0:
48,209,71746,2,0,P|42:178|42:155,2,35,0|0|0,0:0|0:0|0:0,0:0:0:0:
148,321,72166,2,0,P|164:278|166:239,1,70,4|0,0:3|0:0,0:0:0:0:
201,236,72481,1,0,0:0:0:0:
238,218,72586,1,0,0:0:0:0:
340,251,72795,6,0,L|421:238,1,70,4|0,0:0|0:0,0:0:0:0:
471,158,73215,2,0,L|461:82,1,70,0|0,1:0|0:0,0:0:0:0:
377,25,73634,2,0,L|296:38,1,70,2|0,0:0|0:0,0:0:0:0:
236,115,74054,2,0,L|246:191,1,70,0|0,1:0|0:0,0:0:0:0:
260,316,74474,5,4,1:0:0:0:
258,340,75523,5,0,0:0:0:0:
129,285,75732,1,0,1:0:0:0:
129,285,76152,6,0,P|122:253|117:221,3,35,2|0|0|8,0:0|0:0|0:0|0:3,0:0:0:0:
117,201,76572,2,0,L|202:215,1,70,0|8,1:0|0:3,0:0:0:0:
395,183,76991,2,0,L|310:169,1,70,2|0,0:0|0:0,0:0:0:0:
270,253,77411,2,0,L|355:267,1,70,0|0,1:0|0:0,0:0:0:0:
440,275,77830,6,0,P|465:315|463:362,1,70,2|0,0:0|0:0,0:0:0:0:
395,183,78250,2,0,P|370:143|372:96,1,70,0|8,1:0|0:3,0:0:0:0:
419,36,78669,1,2,0:0:0:0:
295,23,78879,1,0,0:0:0:0:
181,76,79089,1,0,1:0:0:0:
173,86,79509,6,0,P|171:128|173:146,3,35,2|0|0|0,0:0|0:0|0:0|0:0,0:0:0:0:
183,168,79928,2,0,P|187:216|176:251,1,70,0|0,1:0|0:0,0:0:0:0:
93,273,80348,2,0,P|89:225|100:190,1,70,2|0,0:0|0:0,0:0:0:0:
191,318,80767,2,0,L|272:315,1,70,0|0,1:0|0:0,0:0:0:0:
354,358,81187,5,2,0:0:0:0:
354,358,81397,1,0,0:0:0:0:
446,298,81607,2,0,L|441:209,1,70,0|0,1:0|0:0,0:0:0:0:
435,88,82026,5,2,0:0:0:0:
318,163,82236,1,0,0:0:0:0:
442,228,82446,1,0,1:0:0:0:
282,179,82655,1,0,0:0:0:0:
154,246,82865,6,0,L|162:361,2,105,4|4|4,0:0|0:0|0:0,0:0:0:0:
256,192,83704,12,0,86851,0:0:0:0:
