osu file format v14

[General]
AudioFilename: audio.mp3
AudioLeadIn: 0
PreviewTime: 42590
Countdown: 0
SampleSet: Soft
StackLeniency: 0.7
Mode: 0
LetterboxInBreaks: 0
WidescreenStoryboard: 0

[Editor]
DistanceSpacing: 1
BeatDivisor: 4
GridSize: 4
TimelineZoom: 1

[Metadata]
Title:Mirai Connection
TitleUnicode:未来コネクション
Artist:ReaL
ArtistUnicode:ЯeaL(リアル)
Creator:leo16834
Version:Easy
Source:ポケットモンスター サン&ムーン
Tags:Pokemon pocket monster Sun Moon satoshi Ash pikachu pokémon Ryoko 喜介 渡辺拓也 opening op CookieBite
BeatmapID:1545229
BeatmapSetID:732350

[Difficulty]
HPDrainRate:2
CircleSize:2
OverallDifficulty:2
ApproachRate:3
SliderMultiplier:1
SliderTickRate:1

[Events]
//Background and Video events
Video,158,"Mirai Connection Opening.avi"
0,0,"Ultra.jpg",0,0
//Break Periods
//Storyboard Layer 0 (Background)
//Storyboard Layer 1 (Fail)
//Storyboard Layer 2 (Pass)
//Storyboard Layer 3 (Foreground)
//Storyboard Sound Samples

[TimingPoints]
628,419.58041958042,4,2,1,50,1,0
27481,-100,4,2,2,50,0,0
34194,-100,4,2,1,50,0,0
42481,-100,4,2,1,5,0,0
42586,-100,4,2,1,60,0,1
50033,-100,4,2,1,5,0,1
50138,-100,4,2,1,60,0,1
55593,-100,4,2,1,60,0,0
56012,-100,4,2,1,60,0,1
63460,-100,4,2,1,5,0,1
63565,-100,4,2,1,60,0,1
69439,-100,4,2,1,50,0,0
86851,-100,4,2,0,5,0,0

[Colours]
Combo1 : 255,0,128
Combo2 : 255,255,128
Combo3 : 128,255,255
Combo4 : 128,255,0
Combo5 : 255,128,192
Combo6 : 128,128,255
Combo7 : 128,0,255

[HitObjects]
60,124,628,6,0,P|43:45|44:13,2,100,2|2|0,0:0|3:0|0:0,0:0:0:0:
127,197,1886,1,2,3:0:0:0:
192,121,2306,2,0,L|434:138,1,200,2|0,0:0|0:0,0:0:0:0:
491,144,3565,1,4,0:0:0:0:
476,240,3984,6,0,L|356:256,1,100,4|0,0:0|1:0,0:0:0:0:
312,329,4823,2,0,L|200:282,1,100,2|0,0:0|1:0,0:0:0:0:
149,218,5662,2,0,P|97:217|28:242,2,100,2|0|2,0:0|1:0|0:0,0:0:0:0:
129,119,6921,1,0,1:0:0:0:
217,77,7341,6,0,P|265:87|317:77,1,100,2|0,0:0|1:0,0:0:0:0:
405,35,8180,2,0,L|413:137,1,100,2|0,0:0|1:0,0:0:0:0:
368,224,9019,2,0,L|245:212,1,100,2|0,0:0|1:0,0:0:0:0:
168,213,9858,2,0,P|152:166|153:140,2,50,2|4|4,0:0|0:0|0:0,0:0:0:0:
227,293,10697,6,0,P|289:307|364:357,2,150,0|0|0,1:0|1:0|1:0,0:0:0:0:
148,232,12376,2,0,P|121:184|155:84,2,150,12|0|0,0:0|0:0|0:0,0:0:0:0:
218,161,14054,5,4,0:0:0:0:
303,109,14474,2,0,L|423:100,1,100,0|2,1:0|0:0,0:0:0:0:
469,174,15313,1,0,1:0:0:0:
388,233,15732,2,0,L|397:353,2,100,2|0|2,0:0|1:0|0:0,0:0:0:0:
299,186,16991,1,0,1:0:0:0:
205,152,17411,6,0,P|158:167|124:203,1,100,2|0,0:0|1:0,0:0:0:0:
124,306,18250,2,0,P|165:345|212:357,1,100,2|0,0:0|1:0,0:0:0:0:
210,254,19089,2,0,B|254:264|254:264|423:256,1,200,2|2,0:0|0:0,0:0:0:0:
475,330,20348,1,4,1:0:0:0:
375,355,20767,6,0,L|276:360,1,100,6|0,0:0|1:0,0:0:0:0:
176,360,21607,2,0,P|188:313|220:275,1,100,2|0,0:0|1:0,0:0:0:0:
322,274,22446,2,0,P|307:224|263:179,1,100,2|0,0:0|1:0,0:0:0:0:
210,112,23285,2,0,L|331:90,1,100,2|0,0:0|1:0,0:0:0:0:
391,38,24124,5,6,0:0:0:0:
484,71,24544,2,0,P|503:129|485:184,1,100,0|2,1:0|0:0,0:0:0:0:
413,226,25383,1,0,1:0:0:0:
332,284,25802,2,0,P|313:226|331:171,2,100,2|4|0,0:0|0:0|1:0,0:0:0:0:
172,162,27481,5,2,3:0:0:0:
139,67,27900,2,0,L|410:56,1,250,0|8,0:0|0:0,0:0:0:0:
415,153,29369,2,0,L|248:160,1,150,8|2,0:0|3:0,0:0:0:0:
121,298,30837,5,2,3:0:0:0:
49,227,31257,2,0,L|65:43,1,150,8|0,0:0|0:0,0:0:0:0:
160,56,32306,2,0,L|287:46,2,100,12|12|12,0:0|0:0|0:0,0:0:0:0:
26,123,33774,1,8,0:0:0:0:
84,203,34194,6,0,P|83:271|64:316,2,100,4|0|0,0:0|1:0|1:0,0:0:0:0:
121,110,35453,1,0,1:0:0:0:
188,183,35872,2,0,P|256:184|301:203,2,100,0|0|0,1:0|1:0|1:0,0:0:0:0:
144,273,37131,1,0,1:0:0:0:
241,294,37551,54,0,B|334:297|369:250|369:250|327:208|327:208|381:140|472:149,1,350,0|4,1:0|0:0,0:0:0:0:
457,148,40907,5,0,1:0:0:0:
333,52,42586,6,0,L|200:59,1,100,6|0,0:0|1:0,0:0:0:0:
133,48,43425,2,0,P|126:106|147:166,1,100,0|0,0:0|1:0,0:0:0:0:
184,233,44264,2,0,P|151:256|49:277,2,100,2|0|0,0:0|1:0|0:0,0:0:0:0:
281,211,45523,1,0,1:0:0:0:
353,279,45942,6,0,P|372:238|369:167,2,100,2|0|0,0:0|1:0|0:0,0:0:0:0:
281,211,47201,1,0,1:0:0:0:
181,217,47621,2,0,L|60:225,1,100,2|0,0:0|1:0,0:0:0:0:
55,126,48460,2,0,L|154:119,1,100,0|0,0:0|1:0,0:0:0:0:
245,75,49299,5,4,0:0:0:0:
337,38,49718,2,0,P|379:21|433:40,2,100,2|0|0,0:0|1:0|1:0,0:0:0:0:
245,75,50977,2,0,P|186:59|228:194,1,300,2|0,0:0|1:0,0:0:0:0:
309,250,52655,6,0,B|363:238|363:238|478:259,2,150,4|0|0,0:0|1:0|1:0,0:0:0:0:
217,284,54334,2,0,B|163:296|163:296|69:278,2,150,2|0|8,0:0|1:0|0:3,0:0:0:0:
294,345,56012,6,0,P|314:280|304:237,1,100,6|0,0:0|1:0,0:0:0:0:
223,195,56851,2,0,P|203:149|208:100,1,100,0|0,0:0|1:0,0:0:0:0:
258,14,57690,2,0,P|209:5|124:0,2,100,2|0|0,0:0|1:0|0:0,0:0:0:0:
356,29,58949,1,0,1:0:0:0:
395,122,59369,6,0,P|421:205|421:249,2,100,2|0|0,0:0|1:0|0:0,0:0:0:0:
294,119,60628,1,0,1:0:0:0:
210,174,61047,2,0,L|93:158,1,100,2|0,0:0|1:0,0:0:0:0:
71,252,61886,2,0,L|188:268,1,100,0|0,0:0|1:0,0:0:0:0:
269,255,62725,5,4,0:0:0:0:
210,174,63145,2,0,P|199:92|197:44,2,100,2|0|0,0:0|1:0|1:0,0:0:0:0:
306,156,64404,2,0,P|374:173|259:218,1,300,2|0,0:0|1:0,0:0:0:0:
181,205,66082,6,0,B|137:195|137:195|23:251,2,150,4|0|0,0:0|1:0|1:0,0:0:0:0:
281,209,67760,2,0,B|325:219|325:219|439:163,2,150,2|4|0,0:0|0:1|1:0,0:0:0:0:
223,126,69439,6,0,P|126:106|45:102,2,150,4|4|4,0:0|0:0|0:0,0:0:0:0:
294,55,71117,2,0,P|259:173|258:275,1,200,0|0,0:0|0:0,0:0:0:0:
63,304,72795,6,0,P|161:324|225:331,2,150,4|0|0,0:0|0:0|1:0,0:0:0:0:
32,208,74474,1,4,1:0:0:0:
32,208,76152,6,0,B|34:162|34:162|57:116|57:116|62:24,2,150,2|8|0,0:0|0:3|1:0,0:0:0:0:
124,246,77830,2,0,P|175:235|235:248,1,100,2|0,0:0|1:0,0:0:0:0:
262,335,78669,2,0,P|312:346|362:331,1,100,2|0,0:0|1:0,0:0:0:0:
417,253,79509,6,0,B|439:157|439:157|428:97,2,150,2|0|0,0:0|0:0|1:0,0:0:0:0:
319,229,81187,2,0,L|191:206,1,100,2|0,0:0|1:0,0:0:0:0:
164,128,82026,2,0,L|292:105,1,100,2|0,0:0|1:0,0:0:0:0:
359,133,82865,6,0,P|408:120|444:97,2,75,4|4|4,0:0|0:0|0:0,0:0:0:0:
256,192,83704,12,0,86851,0:0:0:0:
