osu file format v14

[General]
AudioFilename: audio.mp3
AudioLeadIn: 0
PreviewTime: 42590
Countdown: 0
SampleSet: Soft
StackLeniency: 0.6
Mode: 0
LetterboxInBreaks: 0
WidescreenStoryboard: 0

[Editor]
Bookmarks: 34760,35599,36438
DistanceSpacing: 1.4
BeatDivisor: 4
GridSize: 4
TimelineZoom: 2.1

[Metadata]
Title:Mirai Connection
TitleUnicode:未来コネクション
Artist:ReaL
ArtistUnicode:ЯeaL(リアル)
Creator:leo16834
Version:Connected: Poipole
Source:ポケットモンスター サン&ムーン
Tags:Pokemon pocket monster Sun Moon satoshi Ash pikachu pokémon Ryoko 喜介 渡辺拓也 opening op CookieBite
BeatmapID:1545231
BeatmapSetID:732350

[Difficulty]
HPDrainRate:7
CircleSize:4
OverallDifficulty:7
ApproachRate:9
SliderMultiplier:1.8
SliderTickRate:1

[Events]
//Background and Video events
Video,158,"Mirai Connection Opening.avi"
0,0,"lunalaa.jpg",0,0
//Break Periods
//Storyboard Layer 0 (Background)
//Storyboard Layer 1 (Fail)
//Storyboard Layer 2 (Pass)
//Storyboard Layer 3 (Foreground)
//Storyboard Sound Samples

[TimingPoints]
628,419.58041958042,4,2,1,50,1,0
3355,-76.9230769230769,4,2,1,50,0,0
3984,-100,4,2,1,50,0,0
14474,-100,4,2,1,50,0,0
27481,-125,4,2,2,50,0,0
34194,-100,4,2,1,50,0,0
42166,-66.6666666666667,4,2,1,50,0,0
42481,-66.6666666666667,4,2,1,5,0,0
42586,-100,4,2,1,60,0,1
49299,-76.9230769230769,4,2,1,60,0,1
50033,-76.9230769230769,4,2,1,5,0,1
50138,-76.9230769230769,4,2,1,60,0,1
52655,-100,4,2,1,60,0,1
55593,-100,4,2,1,60,0,0
56012,-100,4,2,1,60,0,1
62725,-76.9230769230769,4,2,1,60,0,1
63460,-76.9230769230769,4,2,1,5,0,1
63565,-76.9230769230769,4,2,1,60,0,1
66082,-100,4,2,1,60,0,1
69439,-100,4,2,1,50,0,0
83075,-100,4,2,1,5,0,0
83180,-100,4,2,1,50,0,0
83390,-100,4,2,1,5,0,0
83495,-100,4,2,1,50,0,0
86851,-100,4,2,0,5,0,0

[Colours]
Combo1 : 255,0,128
Combo2 : 255,255,128
Combo3 : 128,255,255
Combo4 : 128,255,0
Combo5 : 255,128,192
Combo6 : 128,128,255
Combo7 : 128,0,255

[HitObjects]
166,313,628,5,2,0:0:0:0:
47,237,837,1,0,0:0:0:0:
43,220,942,1,0,0:0:0:0:
40,203,1047,2,0,P|47:138|53:96,1,90,2|0,3:0|0:0,0:0:0:0:
217,49,1467,2,0,P|224:114|230:156,1,90,0|0,0:0|0:0,0:0:0:0:
365,209,1886,1,2,3:0:0:0:
365,209,2096,1,0,0:0:0:0:
99,162,2306,5,2,0:0:0:0:
125,157,2411,1,0,0:0:0:0:
152,153,2516,1,0,0:0:0:0:
179,149,2621,1,0,0:0:0:0:
217,110,2725,5,2,3:0:0:0:
261,113,2830,1,0,0:0:0:0:
306,117,2935,1,0,0:0:0:0:
351,120,3040,1,0,0:0:0:0:
405,170,3145,5,0,0:0:0:0:
87,180,3355,2,0,L|155:171,1,58.4999973220826,0|0,1:0|0:0,0:0:0:0:
392,184,3565,2,0,L|186:202,1,175.499991966248,4|0,0:0|0:0,0:0:0:0:
50,241,3984,5,4,0:0:0:0:
76,250,4089,1,0,0:0:0:0:
101,259,4194,1,0,0:0:0:0:
127,268,4299,1,0,0:0:0:0:
152,278,4404,2,0,L|256:263,1,90,0|0,1:0|0:0,0:0:0:0:
313,130,4823,1,2,0:0:0:0:
313,130,5033,1,0,0:0:0:0:
148,62,5243,2,0,P|84:80|39:103,1,90,0|0,1:0|0:0,0:0:0:0:
276,152,5662,5,2,0:0:0:0:
302,0,5872,1,0,0:0:0:0:
138,81,6082,2,0,L|231:71,1,90,0|0,1:0|0:0,0:0:0:0:
412,39,6502,1,2,0:0:0:0:
349,221,6711,1,0,0:0:0:0:
217,51,6921,2,0,L|310:41,1,90,0|0,1:0|0:0,0:0:0:0:
142,170,7341,5,2,0:0:0:0:
168,165,7446,1,0,0:0:0:0:
195,160,7551,1,0,0:0:0:0:
221,156,7655,1,0,0:0:0:0:
248,153,7760,2,0,P|261:197|263:257,1,90,0|0,1:0|0:0,0:0:0:0:
164,360,8180,1,2,0:0:0:0:
164,360,8390,1,0,0:0:0:0:
68,249,8600,2,0,P|80:192|86:134,1,90,0|0,1:0|0:0,0:0:0:0:
266,260,9019,6,0,P|310:271|366:305,1,90,2|0,0:0|0:0,0:0:0:0:
412,352,9439,1,0,1:0:0:0:
187,253,9648,1,0,0:0:0:0:
349,165,9858,5,2,0:0:0:0:
282,359,10068,1,4,0:0:0:0:
488,128,10278,1,4,0:0:0:0:
75,146,10697,5,0,1:0:0:0:
263,198,10907,1,0,0:0:0:0:
263,198,11117,1,0,0:0:0:0:
110,269,11327,5,0,1:0:0:0:
186,60,11537,1,0,0:0:0:0:
186,60,11746,1,0,0:0:0:0:
267,229,11956,5,0,1:0:0:0:
90,92,12166,1,0,0:0:0:0:
431,212,12376,1,12,0:0:0:0:
256,192,12481,12,4,14054,0:0:0:0:
126,314,14474,6,0,P|143:265|144:215,1,90,0|0,1:0|0:0,0:0:0:0:
124,101,14893,1,2,0:0:0:0:
60,161,15103,1,0,0:0:0:0:
223,187,15313,1,0,1:0:0:0:
234,305,15523,6,0,P|243:247|233:195,1,90,0|2,0:0|0:0,0:0:0:0:
148,74,15942,2,0,P|139:132|149:184,1,90,0|0,0:0|1:0,0:0:0:0:
322,251,16362,2,0,L|217:207,1,90,0|2,0:0|0:0,0:0:0:0:
393,351,16781,1,0,0:0:0:0:
477,236,16991,2,0,L|495:120,1,90,0|0,1:0|0:0,0:0:0:0:
316,100,17411,6,0,P|268:100|221:140,1,90,2|0,0:0|0:0,0:0:0:0:
139,206,17830,1,0,1:0:0:0:
277,287,18040,2,0,L|179:302,1,90,0|2,0:0|0:0,0:0:0:0:
13,175,18460,2,0,L|111:190,1,90,0|0,0:0|1:0,0:0:0:0:
203,75,18879,1,0,0:0:0:0:
373,117,19089,5,2,0:0:0:0:
266,161,19299,1,0,0:0:0:0:
336,33,19509,2,0,P|395:37|439:28,1,90,0|0,1:0|0:0,0:0:0:0:
264,181,19928,1,2,0:0:0:0:
378,131,20138,1,0,1:0:0:0:
345,291,20348,1,4,1:0:0:0:
338,311,20767,6,0,P|310:254|287:222,1,90,6|0,0:0|0:0,0:0:0:0:
172,106,21187,1,0,1:0:0:0:
170,204,21397,1,0,0:0:0:0:
274,91,21607,2,0,P|337:97|385:120,1,90,2|0,0:0|0:0,0:0:0:0:
470,197,22026,1,0,1:0:0:0:
352,270,22236,6,0,P|331:217|329:171,1,90,0|2,0:0|0:0,0:0:0:0:
189,43,22655,2,0,P|210:96|212:142,1,90,0|0,0:0|1:0,0:0:0:0:
369,246,23075,2,0,P|312:237|271:216,1,90,0|2,0:0|0:0,0:0:0:0:
97,100,23495,2,0,P|153:108|194:129,1,90,0|0,0:0|1:0,0:0:0:0:
296,248,23914,1,0,0:0:0:0:
99,328,24124,5,6,0:0:0:0:
99,328,24544,1,0,1:0:0:0:
221,169,24753,1,0,0:0:0:0:
99,328,24963,1,2,0:0:0:0:
90,348,25383,2,0,P|144:337|188:332,1,90,0|2,1:0|0:0,0:0:0:0:
403,286,25802,6,0,P|330:269|301:255,1,90,2|0,0:0|0:0,0:0:0:0:
109,98,26222,2,0,P|182:115|211:129,1,90,4|0,0:0|0:0,0:0:0:0:
317,282,26641,1,0,1:0:0:0:
128,220,26851,1,8,0:3:0:0:
172,213,26956,1,8,0:3:0:0:
217,207,27061,1,4,0:3:0:0:
261,200,27166,1,4,0:3:0:0:
302,194,27271,1,4,0:3:0:0:
454,357,27481,5,2,3:0:0:0:
441,361,27900,1,0,0:0:0:0:
312,282,28110,1,0,0:0:0:0:
435,192,28320,1,8,0:0:0:0:
422,206,28739,5,2,3:0:0:0:
232,106,28949,1,8,0:0:0:0:
228,95,29369,1,8,0:0:0:0:
224,84,29788,1,8,0:0:0:0:
94,238,29998,2,0,P|160:212|181:195,1,72,2|0,3:0|0:0,0:0:0:0:
223,66,30418,2,0,L|210:167,1,72,10|0,0:0|0:0,0:0:0:0:
50,62,30837,5,2,3:0:0:0:
53,73,31257,1,8,0:0:0:0:
196,159,31467,1,0,0:0:0:0:
27,254,31676,1,8,0:0:0:0:
210,171,31886,1,0,0:0:0:0:
10,233,32096,1,8,0:0:0:0:
233,189,32306,5,12,0:0:0:0:
240,204,32725,1,12,0:0:0:0:
247,224,33145,1,12,0:0:0:0:
303,384,33565,2,0,L|312:337,1,36
384,300,33774,2,0,L|377:264,1,36,8|0,0:0|0:0,0:0:0:0:
322,193,33984,1,0,0:0:0:0:
354,18,34194,6,0,L|348:123,1,90,4|0,0:0|0:0,0:0:0:0:
177,184,34614,1,0,1:0:0:0:
234,84,34823,1,0,0:0:0:0:
277,242,35033,1,0,1:0:0:0:
226,53,35243,1,0,0:0:0:0:
226,53,35348,1,0,0:0:0:0:
226,53,35453,1,0,1:0:0:0:
59,112,35662,1,0,0:0:0:0:
160,233,35872,5,0,1:0:0:0:
256,92,36082,1,0,0:0:0:0:
275,101,36187,1,0,0:0:0:0:
295,104,36292,2,0,P|346:94|392:74,1,90,0|0,1:0|0:0,0:0:0:0:
493,21,36711,1,0,1:0:0:0:
407,202,36921,1,0,0:0:0:0:
407,202,37026,1,0,0:0:0:0:
407,202,37131,1,0,1:0:0:0:
286,32,37341,1,0,0:0:0:0:
158,156,37551,6,0,P|236:145|263:129,1,90,0|0,1:0|0:0,0:0:0:0:
115,31,37970,1,0,1:0:0:0:
29,172,38180,1,0,0:0:0:0:
324,291,38390,1,0,1:0:0:0:
291,114,38600,1,0,0:0:0:0:
172,224,38809,1,0,1:0:0:0:
393,328,39019,5,4,0:0:0:0:
96,207,39439,1,0,1:0:0:0:
186,359,39648,1,0,1:0:0:0:
191,345,39753,1,0,1:0:0:0:
274,93,39963,1,0,1:0:0:0:
269,107,40068,1,0,1:0:0:0:
0,234,40278,5,8,0:3:0:0:
42,246,40383,1,8,0:3:0:0:
87,239,40488,1,8,0:3:0:0:
126,217,40593,1,4,0:3:0:0:
155,183,40697,1,4,0:3:0:0:
168,48,40907,5,0,1:0:0:0:
153,64,41956,6,0,L|122:64,3,22.5,0|0|0|0,0:0|0:0|0:0|0:0,0:0:0:0:
67,9,42166,2,0,P|95:67|19:188,1,202.500007724762,4|0,0:0|0:0,0:0:0:0:
0,265,42586,6,0,P|61:253|165:301,1,180,6|0,0:0|1:0,0:0:0:0:
325,367,43215,1,0,0:0:0:0:
389,204,43425,1,0,0:0:0:0:
250,251,43634,1,0,0:0:0:0:
447,267,43844,1,0,1:0:0:0:
359,99,44054,1,0,0:0:0:0:
96,152,44264,6,0,P|205:150|283:108,1,180,2|0,0:0|1:0,0:0:0:0:
389,204,44893,1,0,0:0:0:0:
470,75,45103,1,0,0:0:0:0:
463,64,45208,1,0,1:0:0:0:
455,54,45313,1,0,0:0:0:0:
408,246,45523,1,0,1:0:0:0:
444,31,45732,1,0,0:0:0:0:
194,90,45942,6,0,P|286:88|400:120,1,180,2|0,0:0|1:0,0:0:0:0:
481,285,46572,1,0,0:0:0:0:
328,210,46781,1,0,0:0:0:0:
480,160,46991,1,0,0:0:0:0:
356,319,47201,1,0,1:0:0:0:
270,138,47411,1,0,0:0:0:0:
137,311,47621,6,0,P|171:238|159:131,1,180,2|0,0:0|1:0,0:0:0:0:
91,46,48250,1,0,0:0:0:0:
259,82,48460,1,0,0:0:0:0:
259,93,48565,1,0,1:0:0:0:
259,103,48669,1,0,0:0:0:0:
417,37,48879,1,0,1:0:0:0:
257,141,49089,1,0,1:0:0:0:
100,22,49299,5,4,0:0:0:0:
100,22,49718,2,0,P|178:47|180:129,1,175.499991966248,2|0,0:0|0:0,0:0:0:0:
119,220,50138,2,0,P|174:203|252:235,1,116.999994644165,0|0,1:0|0:0,0:0:0:0:
425,321,50558,2,0,P|370:338|292:306,1,116.999994644165,0|0,1:0|0:0,0:0:0:0:
101,266,50977,5,2,0:0:0:0:
95,266,51082,1,2,0:0:0:0:
89,267,51187,1,2,0:0:0:0:
83,267,51292,1,2,0:0:0:0:
77,268,51397,1,2,0:0:0:0:
71,268,51502,1,2,0:0:0:0:
66,269,51607,1,2,0:0:0:0:
60,270,51711,1,2,0:0:0:0:
27,271,51816,6,0,L|38:207,1,58.4999973220826,0|0,1:0|0:0,0:0:0:0:
124,174,52026,2,0,L|113:110,1,58.4999973220826,2|0,0:0|0:0,0:0:0:0:
100,22,52236,1,0,1:0:0:0:
100,22,52341,1,0,1:0:0:0:
100,22,52446,1,0,0:0:0:0:
263,71,52655,6,0,P|302:70|368:90,1,90,4|0,0:0|0:0,0:0:0:0:
466,180,53075,1,0,0:0:0:0:
285,216,53285,2,0,L|390:197,1,90,0|0,1:0|0:0,0:0:0:0:
495,306,53704,1,0,0:0:0:0:
332,372,53914,1,0,1:0:0:0:
167,316,54124,1,0,1:0:0:0:
264,128,54334,6,0,P|271:181|291:229,1,90
461,114,54753,1,4,0:0:0:0:
274,19,54963,1,0,1:0:0:0:
274,19,55383,5,0,0:0:0:0:
88,161,55593,1,8,0:3:0:0:
79,135,55697,1,8,0:3:0:0:
71,109,55802,1,4,0:3:0:0:
62,84,55907,1,4,0:3:0:0:
25,42,56012,6,0,L|217:74,1,180,6|0,0:0|1:0,0:0:0:0:
16,203,56641,1,0,0:0:0:0:
123,328,56851,1,0,0:0:0:0:
215,214,57061,1,0,0:0:0:0:
104,353,57271,1,0,1:0:0:0:
239,178,57481,1,0,0:0:0:0:
420,263,57690,6,0,B|464:322|440:387|440:387|402:366|381:330,1,180,2|0,0:0|1:0,0:0:0:0:
328,157,58320,1,0,0:0:0:0:
139,206,58530,1,0,0:0:0:0:
152,204,58634,1,0,1:0:0:0:
166,202,58739,1,0,0:0:0:0:
380,178,58949,1,0,1:0:0:0:
125,237,59159,1,0,0:0:0:0:
362,318,59369,6,0,P|273:306|173:266,1,180,2|0,0:0|1:0,0:0:0:0:
98,114,59998,1,0,0:0:0:0:
30,236,60208,1,0,0:0:0:0:
228,153,60418,1,0,0:0:0:0:
67,28,60628,1,0,1:0:0:0:
30,236,60837,1,0,0:0:0:0:
180,63,61047,6,0,P|291:59|357:137,1,180,2|0,0:0|1:0,0:0:0:0:
490,245,61676,1,0,0:0:0:0:
287,321,61886,1,0,0:0:0:0:
290,307,61991,1,0,1:0:0:0:
291,292,62096,1,0,0:0:0:0:
380,98,62306,1,0,1:0:0:0:
193,232,62516,1,0,1:0:0:0:
22,85,62725,5,4,0:0:0:0:
22,85,63145,2,0,P|57:188|137:155,1,175.499991966248,2|0,0:0|0:0,0:0:0:0:
183,127,63565,2,0,P|237:115|315:158,1,116.999994644165,0|0,1:0|0:0,0:0:0:0:
418,249,63984,2,0,P|364:261|286:218,1,116.999994644165,0|0,1:0|0:0,0:0:0:0:
339,26,64404,5,2,0:0:0:0:
344,27,64509,1,2,0:0:0:0:
350,28,64614,1,2,0:0:0:0:
356,29,64718,1,2,0:0:0:0:
361,31,64823,1,2,0:0:0:0:
367,32,64928,1,2,0:0:0:0:
373,33,65033,1,2,0:0:0:0:
378,34,65138,1,2,0:0:0:0:
421,62,65243,6,0,L|349:79,1,58.4999973220826,0|0,1:0|0:0,0:0:0:0:
275,134,65453,2,0,L|203:151,1,58.4999973220826,2|0,0:0|0:0,0:0:0:0:
141,223,65662,1,0,1:0:0:0:
141,223,65767,1,0,1:0:0:0:
141,223,65872,1,0,0:0:0:0:
358,335,66082,6,0,P|391:267|395:217,1,90,4|0,0:0|0:0,0:0:0:0:
364,75,66502,1,0,0:0:0:0:
506,184,66711,2,0,P|446:184|397:173,1,90,0|0,1:0|0:0,0:0:0:0:
280,64,67131,1,0,0:0:0:0:
431,23,67341,1,0,1:0:0:0:
293,175,67551,1,0,1:0:0:0:
128,245,67760,6,0,L|150:102,1,135,2|0,0:0|0:0,0:0:0:0:
159,35,68180,1,0,0:0:0:0:
32,105,68390,2,0,L|19:38,1,45,4|0,0:1|0:0,0:0:0:0:
10,185,68600,2,0,P|53:207|123:209,1,90,4|0,0:3|0:0,0:0:0:0:
281,121,69019,1,0,1:0:0:0:
174,51,69229,1,0,0:0:0:0:
255,231,69439,6,0,L|379:245,1,90,4|0,0:0|0:0,0:0:0:0:
475,186,69858,1,0,1:0:0:0:
289,307,70068,6,0,L|165:321,1,90,4|0,0:0|0:0,0:0:0:0:
47,365,70488,1,0,1:0:0:0:
23,198,70697,6,0,B|62:188|62:188|79:217|79:217|123:190|203:202|203:200,1,180,4|0,0:0|0:0,0:0:0:0:
221,226,71222,1,8,0:3:0:0:
263,238,71327,1,8,0:3:0:0:
434,277,71537,1,0,0:0:0:0:
431,241,71641,1,0,0:0:0:0:
429,205,71746,1,0,0:0:0:0:
426,169,71851,1,0,0:0:0:0:
424,133,71956,1,0,0:0:0:0:
256,31,72166,5,4,0:3:0:0:
81,120,72376,1,0,0:0:0:0:
77,155,72481,1,0,0:0:0:0:
73,191,72586,1,0,0:0:0:0:
70,227,72690,1,0,0:0:0:0:
66,265,72795,6,0,P|133:263|194:239,1,90,4|0,0:0|0:0,0:0:0:0:
326,236,73215,1,0,1:0:0:0:
213,165,73425,1,0,0:0:0:0:
296,329,73634,2,0,P|376:319|429:321,1,90,2|0,0:0|0:0,0:0:0:0:
502,196,74054,1,0,1:0:0:0:
320,128,74264,1,0,0:0:0:0:
495,308,74474,5,4,1:0:0:0:
495,308,75523,5,0,0:0:0:0:
399,92,75732,1,0,1:0:0:0:
29,298,76152,5,2,0:0:0:0:
41,254,76257,1,0,0:0:0:0:
52,211,76362,1,0,0:0:0:0:
61,167,76467,1,8,0:3:0:0:
68,123,76572,2,0,P|128:99|163:95,1,90,0|8,1:0|0:3,0:0:0:0:
274,209,76991,1,2,0:0:0:0:
262,203,77096,1,8,0:3:0:0:
252,197,77201,1,0,0:0:0:0:
388,103,77411,1,0,1:0:0:0:
393,116,77516,1,8,0:3:0:0:
398,128,77621,1,0,0:0:0:0:
430,276,77830,5,2,0:0:0:0:
311,88,78040,1,0,0:0:0:0:
316,76,78145,1,8,0:3:0:0:
322,64,78250,1,0,1:0:0:0:
290,206,78460,1,8,0:3:0:0:
250,2,78669,1,2,0:0:0:0:
261,7,78774,1,0,0:0:0:0:
272,12,78879,1,0,0:0:0:0:
96,62,79089,2,0,P|86:111|90:171,1,90,0|0,1:0|0:0,0:0:0:0:
59,346,79509,5,2,0:0:0:0:
103,340,79614,1,0,0:0:0:0:
146,327,79718,1,0,0:0:0:0:
185,305,79823,1,0,0:0:0:0:
213,267,79928,2,0,L|208:162,1,90,0|0,1:0|0:0,0:0:0:0:
190,21,80348,1,2,0:0:0:0:
175,17,80453,1,8,0:3:0:0:
161,12,80558,1,0,0:0:0:0:
303,171,80767,1,0,1:0:0:0:
309,158,80872,1,8,0:3:0:0:
316,144,80977,1,0,0:0:0:0:
430,306,81187,5,2,0:0:0:0:
473,166,81397,1,0,0:0:0:0:
292,24,81607,5,0,1:0:0:0:
336,201,81816,1,0,0:0:0:0:
192,296,82026,5,2,0:0:0:0:
251,95,82236,1,0,0:0:0:0:
95,0,82446,5,0,1:0:0:0:
168,222,82656,1,0,0:0:0:0:
292,24,82865,6,0,P|348:32|395:76,1,90,4|0,0:0|0:0,0:0:0:0:
323,215,83180,2,0,P|301:162|316:99,1,90,4|0,0:0|0:0,0:0:0:0:
439,141,83495,1,4,0:0:0:0:
256,192,83704,12,0,86851,0:0:0:0:
