osu file format v14

[General]
AudioFilename: audio.mp3
AudioLeadIn: 0
PreviewTime: 49699
Countdown: 0
SampleSet: None
StackLeniency: 0.2
Mode: 0
LetterboxInBreaks: 0
WidescreenStoryboard: 1

[Editor]
Bookmarks: 3418,26833,30400,38540,42931,46955,86101
DistanceSpacing: 1.5
BeatDivisor: 4
GridSize: 8
TimelineZoom: 1

[Metadata]
Title:Kagerou
TitleUnicode:Kagerou
Artist:ReaL
ArtistUnicode:ReaL
Creator:Troponoop
Version:Insane
Source:銀魂
Tags:Gintama 2017
BeatmapID:1288579
BeatmapSetID:601813

[Difficulty]
HPDrainRate:5
CircleSize:4
OverallDifficulty:8
ApproachRate:9
SliderMultiplier:1.69
SliderTickRate:1

[Events]
//Background and Video events
0,0,"cropped-1920-1080-744891.png",0,0
//Break Periods
//Storyboard Layer 0 (Background)
//Storyboard Layer 1 (Fail)
//Storyboard Layer 2 (Pass)
//Storyboard Layer 3 (Foreground)
//Storyboard Sound Samples

[TimingPoints]
492,365.853658536585,4,3,0,70,1,0
492,-100,4,3,0,70,0,0
9272,-100,4,3,0,70,0,0
15126,-100,4,3,0,70,0,0
38174,-200,4,3,0,70,0,0
39089,-100,4,3,0,70,0,0
42931,-200,4,3,0,70,0,0
43296,-133.333333333333,4,3,0,70,0,0
43662,-100,4,3,0,70,0,0
44028,-79.9999999999999,4,3,0,70,0,0
44394,-100,4,3,0,70,0,0
50248,-100,4,3,0,85,0,0
61955,-100,4,3,0,85,0,1
64150,-100,4,3,0,85,0,0
64882,-100,4,3,0,85,0,1
67077,-100,4,3,0,85,0,0
75126,-100,4,3,0,85,0,1
80248,-100,4,3,0,85,0,0
85735,-100,4,3,0,35,0,0
86101,-100,4,3,0,5,0,0

[Colours]
Combo1 : 208,121,138
Combo2 : 255,128,128
Combo3 : 197,226,29
Combo4 : 128,128,255

[HitObjects]
24,323,492,5,0,0:0:0:0:
24,323,674,1,0,0:0:0:0:
184,320,857,1,0,0:0:0:0:
184,320,1040,1,0,0:0:0:0:
111,279,1223,2,0,P|104:321|112:362,1,84.5,4|0,0:0|0:0,0:0:0:0:
42,246,1589,2,0,P|35:204|43:163,1,84.5,4|0,0:0|0:0,0:0:0:0:
136,112,1955,5,0,0:0:0:0:
159,98,2046,1,0,0:0:0:0:
182,87,2138,1,0,0:0:0:0:
204,75,2229,1,0,0:0:0:0:
229,64,2321,1,0,0:0:0:0:
220,86,2412,1,0,0:0:0:0:
213,110,2504,1,0,0:0:0:0:
206,133,2595,1,0,0:0:0:0:
176,203,2687,6,0,P|217:206|255:190,1,84.5,2|0,0:0|0:0,0:0:0:0:
358,67,3418,6,0,L|352:239,1,169
495,93,4150,2,0,L|500:261,1,169
396,374,4882,6,0,B|396:302|396:302|380:334,1,84.5,8|0,0:0|0:0,0:0:0:0:
328,199,5248,2,0,B|328:271|328:271|334:260,1,84.5
211,384,5613,6,0,B|250:323|250:323|219:341,1,84.5,8|0,0:0|0:0,0:0:0:0:
249,200,5979,2,0,B|209:260|209:260|220:254,1,84.5
64,276,6345,6,0,B|129:246|129:246|94:245,1,84.5,8|0,0:0|0:0,0:0:0:0:
196,142,6711,2,0,B|130:171|130:171|142:172,1,84.5
0,106,7077,6,0,B|71:117|71:117|42:96,1,84.5,8|0,0:0|0:0,0:0:0:0:
183,66,7443,2,0,B|111:54|111:54|121:62,1,84.5
196,142,7809,5,8,0:0:0:0:
344,104,8083,1,8,0:0:0:0:
196,142,8357,1,8,0:0:0:0:
346,201,8540,2,0,P|401:150|343:103,1,169,2|0,0:0|0:0,0:0:0:0:
144,56,9272,6,0,L|136:160,1,84.5
119,240,9638,2,0,P|161:233|202:221,1,84.5,8|0,0:0|0:0,0:0:0:0:
264,144,10004,1,4,0:0:0:0:
263,144,10095,2,0,P|305:135|346:141,1,84.5
408,198,10370,2,0,P|424:158|424:118,1,84.5,8|0,0:0|0:0,0:0:0:0:
307,58,10735,1,0,0:0:0:0:
305,213,10918,1,0,0:0:0:0:
179,102,11101,2,0,P|181:148|187:198,1,84.5,8|0,0:0|0:0,0:0:0:0:
305,213,11467,5,4,0:0:0:0:
305,213,11559,2,0,L|296:312,1,84.5
375,264,11833,2,0,L|391:348,1,84.5,8|0,0:0|0:0,0:0:0:0:
165,302,12199,2,0,B|190:266|190:266|227:248,1,84.5
368,120,12565,1,8,0:0:0:0:
424,256,12748,1,0,0:0:0:0:
464,40,12931,5,0,0:0:0:0:
464,40,13113,1,0,0:0:0:0:
294,83,13296,2,0,P|294:125|303:167,1,84.5,8|0,0:0|0:0,0:0:0:0:
441,336,13662,6,0,P|425:296|425:248,1,84.5,2|0,0:0|0:0,0:0:0:0:
346,236,13937,2,0,P|305:244|264:239,1,84.5,2|0,0:0|0:0,0:0:0:0:
214,301,14211,2,0,L|258:324,1,42.25,8|0,0:0|0:0,0:0:0:0:
317,367,14394,2,0,P|374:310|346:236,1,169,2|0,0:0|0:0,0:0:0:0:
214,301,15126,6,0,L|238:133,1,169,8|0,0:0|0:0,0:0:0:0:
333,69,15674,2,0,P|299:43|247:24,1,84.5,8|0,0:0|0:0,0:0:0:0:
261,26,16040,1,4,0:0:0:0:
137,74,16223,2,0,P|101:125|109:186,1,126.75,8|0,0:0|0:0,0:0:0:0:
171,143,16589,6,0,B|43:135|43:135|91:151,1,169,2|0,0:0|0:0,0:0:0:0:
174,222,17138,2,0,P|213:208|244:179,1,84.5,8|0,0:0|0:0,0:0:0:0:
245,179,17504,1,4,0:0:0:0:
348,115,17687,2,0,B|364:219|364:219|351:201,1,126.75,8|0,0:0|0:0,0:0:0:0:
292,253,18052,6,0,P|241:265|249:177,1,169,2|0,0:0|0:0,0:0:0:0:
422,103,18601,2,0,L|436:186,1,84.5,8|0,0:0|0:0,0:0:0:0:
436,186,18967,1,4,0:0:0:0:
292,253,19150,2,0,P|224:240|208:176,1,126.75,8|0,0:0|0:0,0:0:0:0:
290,128,19516,6,0,P|338:190|292:253,1,169,2|0,0:0|0:0,0:0:0:0:
158,261,20065,2,0,L|204:190,1,84.5,8|0,0:0|0:0,0:0:0:0:
205,191,20431,1,4,0:0:0:0:
268,328,20613,2,0,B|299:333|330:322|330:322|357:339|390:342,1,126.75,8|0,0:0|0:0,0:0:0:0:
475,283,20979,6,0,B|499:243|499:243|435:219|387:267,1,169,2|0,0:0|0:0,0:0:0:0:
289,255,21528,2,0,P|236:261|192:308,1,84.5,8|0,0:0|0:0,0:0:0:0:
211,277,21894,1,4,0:0:0:0:
72,235,22077,2,0,B|-6:177|-6:177|2:205,1,126.75,8|0,0:0|0:0,0:0:0:0:
35,299,22443,6,0,P|114:292|142:217,1,169,2|0,0:0|0:0,0:0:0:0:
88,104,22991,2,0,L|208:88,1,84.5,8|0,0:0|0:0,0:0:0:0:
171,92,23357,1,4,0:0:0:0:
280,160,23540,2,0,P|271:97|291:38,1,126.75,8|0,0:0|0:0,0:0:0:0:
350,106,23906,6,0,B|376:232|376:232|392:192,1,169,2|0,0:0|0:0,0:0:0:0:
448,80,24455,2,0,B|462:42|462:42|488:168,1,169,2|0,0:0|0:0,0:0:0:0:
344,305,25004,1,0,0:0:0:0:
119,166,25370,2,0,B|149:171|183:166|183:166|228:182|228:182|257:175|284:181,1,169,8|0,0:0|0:0,0:0:0:0:
257,252,25918,2,0,P|179:278|105:237,1,169,8|0,0:0|0:0,0:0:0:0:
151,95,26467,5,0,0:0:0:0:
168,88,26559,1,0,0:0:0:0:
184,80,26650,1,0,0:0:0:0:
200,72,26741,1,0,0:0:0:0:
216,64,26833,1,0,0:0:0:0:
336,96,27016,5,0,0:0:0:0:
223,152,27199,2,0,P|214:201|215:248,1,84.5,8|0,0:0|0:0,0:0:0:0:
277,346,27565,1,0,0:0:0:0:
277,346,27748,1,0,0:0:0:0:
361,252,27931,2,0,P|329:224|292:204,1,84.5,8|0,0:0|0:0,0:0:0:0:
190,315,28296,5,0,0:0:0:0:
108,221,28479,1,0,0:0:0:0:
154,104,28662,2,0,P|190:124|222:151,1,84.5,8|0,0:0|0:0,0:0:0:0:
361,252,29028,1,0,0:0:0:0:
361,252,29211,1,0,0:0:0:0:
311,105,29394,2,0,L|303:190,1,84.5,8|0,0:0|0:0,0:0:0:0:
288,320,29760,5,0,0:0:0:0:
192,232,29943,1,0,0:0:0:0:
104,328,30126,2,0,P|145:320|186:327,1,84.5,8|0,0:0|0:0,0:0:0:0:
371,361,30491,1,0,0:0:0:0:
371,361,30674,1,0,0:0:0:0:
352,222,30857,2,0,P|310:225|271:242,1,84.5,8|0,0:0|0:0,0:0:0:0:
160,304,31223,5,0,0:0:0:0:
70,214,31406,1,0,0:0:0:0:
159,124,31589,1,8,0:0:0:0:
248,213,31772,2,0,P|199:215|149:213,1,84.5
40,216,32138,5,8,0:0:0:0:
255,296,32321,2,0,P|256:257|247:211,1,84.5,8|0,0:0|0:0,0:0:0:0:
208,88,32687,2,0,L|296:96,1,84.5
408,136,33052,2,0,L|332:173,1,84.5,8|0,0:0|0:0,0:0:0:0:
184,164,33418,1,0,0:0:0:0:
184,164,33601,1,0,0:0:0:0:
171,290,33784,2,0,P|224:298|275:290,1,84.5,8|0,0:0|0:0,0:0:0:0:
376,264,34150,5,0,0:0:0:0:
312,152,34333,1,0,0:0:0:0:
184,164,34516,2,0,P|141:162|100:171,1,84.5,8|0,0:0|0:0,0:0:0:0:
40,280,34882,1,0,0:0:0:0:
40,280,35065,1,0,0:0:0:0:
158,326,35248,2,0,L|150:241,1,84.5,8|0,0:0|0:0,0:0:0:0:
208,128,35613,5,8,0:0:0:0:
256,248,35796,1,8,0:0:0:0:
208,128,35979,2,0,P|253:124|296:128,1,84.5,8|0,0:0|0:0,0:0:0:0:
396,134,36345,2,0,B|372:120|372:120|349:69,1,84.5,4|0,0:0|0:0,0:0:0:0:
338,191,36711,2,0,B|362:205|362:205|386:257,1,84.5,4|0,0:0|0:0,0:0:0:0:
473,131,37077,2,0,P|429:64|348:68,1,169,2|0,0:0|0:0,0:0:0:0:
208,84,37626,2,0,P|281:116|347:68,1,169,2|0,0:0|0:0,0:0:0:0:
392,140,38174,6,0,L|372:207,1,63.375,4|0,0:0|0:0,0:0:0:0:
417,263,38540,2,0,P|377:274|336:267,1,84.5,4|0,0:0|0:0,0:0:0:0:
224,208,39089,1,8,0:0:0:0:
192,328,39272,1,0,0:0:0:0:
104,240,39455,1,0,0:0:0:0:
224,208,39638,2,0,L|320:192,1,84.5,8|0,0:0|0:0,0:0:0:0:
400,104,40004,5,4,0:0:0:0:
432,288,40278,1,4,0:0:0:0:
480,103,40552,2,0,P|456:47|406:115,1,169,2|0,0:0|0:0,0:0:0:0:
307,194,41101,2,0,P|264:184|224:160,1,84.5,8|0,0:0|0:0,0:0:0:0:
144,80,41467,6,0,B|8:80|8:80|56:96,1,169,2|0,0:0|0:0,0:0:0:0:
129,180,42016,2,0,B|160:190|160:190|24:190,1,169,2|0,0:0|0:0,0:0:0:0:
24,190,42473,1,0,0:0:0:0:
24,190,42565,1,0,0:0:0:0:
264,272,42931,5,0,0:0:0:0:
281,254,43296,5,0,0:0:0:0:
304,230,43662,5,0,0:0:0:0:
333,200,44028,5,0,0:0:0:0:
430,72,44394,5,8,0:0:0:0:
430,88,44485,1,0,0:0:0:0:
430,104,44577,1,0,0:0:0:0:
430,120,44668,1,0,0:0:0:0:
430,136,44760,1,0,0:0:0:0:
430,152,44851,1,0,0:0:0:0:
430,168,44943,6,0,L|414:208,5,42.25,8|0|0|0|0|0,0:0|0:0|0:0|0:0|0:0|0:0,0:0:0:0:
410,283,45491,6,0,P|390:277|371:269,3,42.25,8|0|0|0,0:0|0:0|0:0|0:0,0:0:0:0:
352,264,45857,5,8,0:0:0:0:
336,256,45949,1,0,0:0:0:0:
320,248,46040,1,0,0:0:0:0:
304,240,46132,1,0,0:0:0:0:
288,232,46223,1,0,0:0:0:0:
272,224,46315,1,0,0:0:0:0:
256,216,46406,6,0,L|216:240,4,42.25,8|0|0|0|0,0:0|0:0|0:0|0:0|0:0,0:0:0:0:
346,125,46955,5,8,0:0:0:0:
96,144,47321,1,0,0:0:0:0:
96,144,47687,5,8,0:0:0:0:
186,233,47870,1,0,0:0:0:0:
276,143,48052,1,8,0:0:0:0:
366,232,48235,1,0,0:0:0:0:
456,142,48418,1,12,0:0:0:0:
456,142,48510,1,4,0:0:0:0:
456,142,48601,2,0,L|456:240,1,84.5,4|0,0:0|0:0,0:0:0:0:
456,290,48876,5,4,0:0:0:0:
456,305,48967,1,4,0:0:0:0:
457,320,49059,2,0,P|384:336|302:313,1,126.75,4|0,0:0|0:0,0:0:0:0:
248,232,49516,5,8,0:0:0:0:
248,232,49699,1,8,0:0:0:0:
512,24,50248,6,0,L|400:40,1,84.5,2|0,0:0|0:0,0:0:0:0:
368,152,50613,1,8,0:0:0:0:
368,152,50796,1,0,0:0:0:0:
278,62,50979,2,0,L|194:73,1,84.5
136,184,51345,1,8,0:0:0:0:
136,184,51528,1,0,0:0:0:0:
249,146,51711,6,0,P|253:187|245:229,1,84.5,2|0,0:0|0:0,0:0:0:0:
173,257,51985,1,4,0:0:0:0:
173,257,52077,2,0,P|202:287|241:304,1,84.5,8|0,0:0|0:0,0:0:0:0:
328,208,52443,1,0,0:0:0:0:
424,296,52626,1,0,0:0:0:0:
308,350,52809,2,0,P|278:319|240:303,1,84.5,8|0,0:0|0:0,0:0:0:0:
152,208,53174,5,2,0:0:0:0:
64,304,53357,1,0,0:0:0:0:
230,209,53540,2,0,P|217:169|189:137,1,84.5,8|0,0:0|0:0,0:0:0:0:
296,72,53906,1,0,0:0:0:0:
337,196,54089,1,0,0:0:0:0:
249,291,54272,2,0,L|225:187,1,84.5,8|0,0:0|0:0,0:0:0:0:
296,72,54638,6,0,L|376:96,1,84.5,2|0,0:0|0:0,0:0:0:0:
449,72,54912,1,4,0:0:0:0:
449,72,55004,2,0,P|450:114|432:151,1,84.5,8|0,0:0|0:0,0:0:0:0:
368,264,55370,1,0,0:0:0:0:
318,163,55552,1,0,0:0:0:0:
414,327,55735,2,0,P|374:339|332:332,1,84.5,8|0,0:0|0:0,0:0:0:0:
248,232,56101,6,0,P|237:184|216:144,1,84.5,2|0,0:0|0:0,0:0:0:0:
96,152,56467,1,8,0:0:0:0:
96,152,56650,1,0,0:0:0:0:
168,258,56833,2,0,P|216:247|256:226,1,84.5
343,144,57199,1,8,0:0:0:0:
248,232,57382,1,0,0:0:0:0:
379,213,57565,6,0,P|409:183|421:143,1,84.5,2|0,0:0|0:0,0:0:0:0:
384,73,57839,1,4,0:0:0:0:
384,73,57931,2,0,P|355:103|343:144,1,84.5,8|0,0:0|0:0,0:0:0:0:
320,272,58296,1,0,0:0:0:0:
262,151,58479,1,0,0:0:0:0:
184,256,58662,2,0,P|136:246|88:248,1,84.5,8|0,0:0|0:0,0:0:0:0:
128,368,59028,5,2,0:0:0:0:
128,368,59211,1,0,0:0:0:0:
248,319,59394,2,0,P|265:281|274:240,1,84.5,8|0,0:0|0:0,0:0:0:0:
304,112,59760,1,0,0:0:0:0:
184,80,59943,1,0,0:0:0:0:
303,112,60126,2,0,P|345:105|387:112,1,84.5,8|0,0:0|0:0,0:0:0:0:
424,232,60491,6,0,P|368:216|344:200,1,84.5,2|0,0:0|0:0,0:0:0:0:
303,262,60766,1,4,0:0:0:0:
303,262,60857,2,0,P|278:228|274:186,1,84.5,8|0,0:0|0:0,0:0:0:0:
312,64,61223,1,4,0:0:0:0:
328,56,61315,1,0,0:0:0:0:
344,48,61406,1,0,0:0:0:0:
360,40,61498,1,0,0:0:0:0:
376,48,61589,5,4,0:0:0:0:
392,56,61681,1,0,0:0:0:0:
408,64,61772,1,0,0:0:0:0:
424,72,61863,1,0,0:0:0:0:
440,80,61955,2,0,P|464:128|464:168,1,84.5,2|0,0:0|0:0,0:0:0:0:
506,222,62229,6,0,P|465:231|425:222,1,84.5,8|0,0:0|0:0,0:0:0:0:
349,200,62504,2,0,P|371:268|424:221,1,169,8|0,0:0|0:0,0:0:0:0:
387,134,62961,6,0,P|346:128|306:139,1,84.5,8|0,0:0|0:0,0:0:0:0:
267,203,63235,2,0,P|226:214|224:120,1,169,8|0,0:0|0:0,0:0:0:0:
274,70,63693,2,0,P|236:51|195:51,1,84.5,8|0,0:0|0:0,0:0:0:0:
135,95,63967,1,8,0:0:0:0:
45,184,64150,5,4,0:0:0:0:
45,184,64333,1,4,0:0:0:0:
134,273,64516,1,4,0:0:0:0:
134,273,64699,1,4,0:0:0:0:
224,183,64882,2,0,P|265:176|308:184,1,84.5,2|0,0:0|0:0,0:0:0:0:
383,188,65156,6,0,P|366:227|334:255,1,84.5,8|0,0:0|0:0,0:0:0:0:
257,259,65431,2,0,P|186:245|223:183,1,169,8|0,0:0|0:0,0:0:0:0:
257,117,65888,2,0,B|313:93|313:93|337:98,1,84.5,8|0,0:0|0:0,0:0:0:0:
410,114,66162,1,8,0:0:0:0:
248,38,66345,5,4,0:0:0:0:
232,37,66437,1,0,0:0:0:0:
216,37,66528,1,0,0:0:0:0:
200,37,66620,1,0,0:0:0:0:
184,38,66711,1,4,0:0:0:0:
168,37,66802,1,0,0:0:0:0:
152,38,66894,1,0,0:0:0:0:
135,38,66985,1,0,0:0:0:0:
120,38,67077,5,8,0:0:0:0:
184,280,67443,5,0,0:0:0:0:
184,280,67626,1,0,0:0:0:0:
287,197,67809,2,0,B|223:213|223:213|199:205,1,84.5,2|0,0:0|0:0,0:0:0:0:
61,244,68174,1,8,0:0:0:0:
61,244,68357,1,0,0:0:0:0:
144,141,68540,2,0,B|128:205|128:205|136:229,1,84.5
158,354,68906,2,0,P|214:349|262:314,1,84.5,8|0,0:0|0:0,0:0:0:0:
280,216,69272,6,0,L|304:296,1,84.5,2|0,0:0|0:0,0:0:0:0:
305,373,69546,1,4,0:0:0:0:
305,373,69638,2,0,P|345:358|377:331,1,84.5,8|0,0:0|0:0,0:0:0:0:
391,202,70004,1,0,0:0:0:0:
391,202,70187,1,0,0:0:0:0:
285,133,70370,2,0,B|273:168|273:168|281:224,1,84.5,8|0,0:0|0:0,0:0:0:0:
305,373,70735,1,0,0:0:0:0:
120,200,71101,5,0,0:0:0:0:
209,110,71284,1,0,0:0:0:0:
209,236,71467,1,0,0:0:0:0:
130,121,71650,1,0,0:0:0:0:
48,216,71833,2,4,P|47:194|50:174,2,42.25
112,328,72199,5,0,0:3:0:0:
360,288,72565,1,0,0:3:0:0:
120,200,72931,1,0,0:3:0:0:
368,152,73296,2,0,L|408:136,2,42.25
360,288,73662,5,0,0:0:0:0:
248,224,73845,1,0,0:0:0:0:
248,350,74028,1,0,0:0:0:0:
360,288,74211,1,0,0:0:0:0:
360,288,74394,2,0,P|405:294|456:288,1,84.5
451,154,74760,2,0,P|406:148|355:154,1,84.5
260,221,75126,6,0,B|204:221|204:221|172:197,1,84.5,2|0,0:0|0:0,0:0:0:0:
117,155,75400,1,0,0:0:0:0:
117,155,75491,2,0,P|106:195|108:237,1,84.5,8|0,0:0|0:0,0:0:0:0:
223,297,75857,6,0,L|258:221,1,84.5,2|0,0:0|0:0,0:0:0:0:
278,143,76132,1,0,0:0:0:0:
278,143,76223,2,0,P|311:168|340:212,1,84.5,8|0,0:0|0:0,0:0:0:0:
300,327,76589,6,0,P|255:316|220:295,1,84.5,2|0,0:0|0:0,0:0:0:0:
218,223,76863,1,0,0:0:0:0:
218,223,76955,2,0,B|186:223|186:223|153:264,1,84.5,8|0,0:0|0:0,0:0:0:0:
64,352,77321,6,0,L|80:256,1,84.5,2|0,0:0|0:0,0:0:0:0:
8,231,77595,1,0,0:0:0:0:
8,231,77687,2,0,P|41:204|81:190,1,84.5,8|0,0:0|0:0,0:0:0:0:
198,141,78052,6,0,L|217:223,1,84.5,2|0,0:0|0:0,0:0:0:0:
278,286,78327,1,0,0:0:0:0:
278,286,78418,2,0,L|302:198,1,84.5,8|0,0:0|0:0,0:0:0:0:
257,84,78784,6,0,P|221:106|197:140,1,84.5,2|0,0:0|0:0,0:0:0:0:
159,208,79059,1,0,0:0:0:0:
159,208,79150,2,0,P|132:177|120:137,1,84.5,8|0,0:0|0:0,0:0:0:0:
25,56,79516,6,0,P|66:67|108:60,1,84.5,2|0,0:0|0:0,0:0:0:0:
180,48,79790,1,0,0:0:0:0:
180,48,79882,2,0,L|256:83,1,84.5,8|0,0:0|0:0,0:0:0:0:
368,144,80248,1,0,0:0:0:0:
281,161,80431,2,0,L|232:160,2,42.25
504,272,80979,6,0,B|432:280|432:280|384:264|384:264|336:272,1,169
173,271,81711,2,0,B|245:263|245:263|293:279|293:279|341:271,1,169
439,199,82260,5,0,0:0:0:0:
438,183,82351,1,0,0:0:0:0:
437,167,82443,1,0,0:0:0:0:
436,151,82534,1,0,0:0:0:0:
435,135,82626,1,0,0:0:0:0:
435,118,82717,5,0,0:0:0:0:
425,105,82809,1,0,0:0:0:0:
416,91,82900,1,0,0:0:0:0:
407,78,82991,1,0,0:0:0:0:
397,65,83083,1,0,0:0:0:0:
388,53,83174,1,0,0:0:0:0:
272,96,83357,1,0,0:0:0:0:
272,96,83540,2,0,P|278:140|272:200,1,84.5
323,299,83906,5,0,0:0:0:0:
275,179,84089,1,0,0:0:0:0:
251,307,84272,1,0,0:0:0:0:
203,187,84455,1,0,0:0:0:0:
179,315,84638,1,0,0:0:0:0:
131,195,84821,1,0,0:0:0:0:
107,323,85004,1,0,0:0:0:0:
61,207,85187,6,0,B|56:152|56:152|26:105|26:105|96:72|136:104|136:104|201:68|201:68|261:98|328:64,1,422.5
