osu file format v14

[General]
AudioFilename: audio.mp3
AudioLeadIn: 0
PreviewTime: 49699
Countdown: 0
SampleSet: None
StackLeniency: 0.2
Mode: 0
LetterboxInBreaks: 0
WidescreenStoryboard: 1

[Editor]
Bookmarks: 3418,46955,86101
DistanceSpacing: 1.5
BeatDivisor: 4
GridSize: 8
TimelineZoom: 1

[Metadata]
Title:Kagerou
TitleUnicode:Kagerou
Artist:ReaL
ArtistUnicode:ReaL
Creator:Troponoop
Version:Hard
Source:銀魂
Tags:Gintama 2017
BeatmapID:1278732
BeatmapSetID:601813

[Difficulty]
HPDrainRate:3
CircleSize:3.2
OverallDifficulty:3
ApproachRate:6
SliderMultiplier:1.1
SliderTickRate:1

[Events]
//Background and Video events
0,0,"cropped-1920-1080-744891.png",0,0
//Break Periods
//Storyboard Layer 0 (Background)
//Storyboard Layer 1 (Fail)
//Storyboard Layer 2 (Pass)
//Storyboard Layer 3 (Foreground)
//Storyboard Sound Samples

[TimingPoints]
492,365.853658536585,4,3,0,70,1,0
492,-100,4,3,0,70,0,0
9272,-100,4,3,0,70,0,0
15126,-100,4,3,0,70,0,0
43296,-133.333333333333,4,3,0,70,0,0
43662,-100,4,3,0,70,0,0
44028,-79.9999999999999,4,3,0,70,0,0
44394,-100,4,3,0,70,0,0
50248,-100,4,3,0,85,0,0
61955,-100,4,3,0,85,0,1
64150,-100,4,3,0,85,0,0
64882,-100,4,3,0,85,0,1
67077,-100,4,3,0,85,0,0
75126,-100,4,3,0,85,0,1
80248,-100,4,3,0,85,0,0

[Colours]
Combo1 : 203,157,192
Combo2 : 203,157,252
Combo3 : 117,157,252
Combo4 : 117,230,252
Combo5 : 117,230,192
Combo6 : 203,230,192

[HitObjects]
151,224,492,6,0,P|206:216|261:219,3,110
344,304,1955,2,0,L|368:272,8,27.5
154,183,3418,2,0,P|112:151|66:183,1,110
98,262,4150,2,0,P|152:269|216:261,1,110
272,112,4882,1,8,0:0:0:0:
272,112,5248,1,0,0:0:0:0:
432,88,5613,2,0,P|468:128|485:180,1,110,8|0,0:0|0:0,0:0:0:0:
385,312,6345,1,8,0:0:0:0:
385,312,6711,1,0,0:0:0:0:
227,265,7077,2,0,L|96:240,1,110,8|0,0:0|0:0,0:0:0:0:
33,158,7809,5,4,0:0:0:0:
0,40,8083,1,4,0:0:0:0:
124,66,8357,1,4,0:0:0:0:
124,66,8540,2,0,B|179:97|202:151,1,110,8|0,0:0|0:0,0:0:0:0:
257,220,9272,6,0,P|201:229|147:220,1,110,2|8,0:0|0:0,0:0:0:0:
24,328,10004,2,0,P|78:336|144:336,1,110,0|8,0:0|0:0,0:0:0:0:
296,336,10735,1,0,0:0:0:0:
369,294,10918,1,0,0:0:0:0:
432,240,11101,2,0,L|408:128,1,110,8|0,0:0|0:0,0:0:0:0:
280,32,11833,2,0,P|216:32|146:48,1,110,8|0,0:0|0:0,0:0:0:0:
24,112,12565,1,8,0:0:0:0:
40,192,12748,1,0,0:0:0:0:
114,228,12931,2,0,P|97:286|96:344,1,110,0|8,0:0|0:0,0:0:0:0:
222,362,13662,5,4,0:0:0:0:
256,240,13937,1,4,0:0:0:0:
346,335,14211,1,4,0:0:0:0:
346,335,14394,2,0,L|466:343,1,110,2|0,0:0|0:0,0:0:0:0:
504,184,15126,6,0,B|385:156,1,110,2|0,0:0|0:0,0:0:0:0:
321,140,15674,2,0,P|289:132|201:140,1,110,8|0,0:0|0:0,0:0:0:0:
128,152,16223,1,8,0:0:0:0:
48,296,16589,2,0,P|96:310|160:312,1,110,8|0,0:0|0:0,0:0:0:0:
214,253,17138,2,0,B|267:240|331:252,1,110,8|0,0:0|0:0,0:0:0:0:
381,309,17687,1,8,0:0:0:0:
497,192,18052,6,0,B|495:145|495:145|514:112|513:72,1,110,2|0,0:0|0:0,0:0:0:0:
429,92,18601,2,0,P|371:79|309:100,1,110,8|0,0:0|0:0,0:0:0:0:
264,150,19150,1,8,0:0:0:0:
104,176,19516,2,0,P|112:127|131:69,1,110,8|0,0:0|0:0,0:0:0:0:
211,41,20065,2,0,B|261:68|261:68|288:70|312:82,1,110,8|0,0:0|0:0,0:0:0:0:
371,141,20613,1,8,0:0:0:0:
286,300,20979,6,0,P|222:276|174:284,1,110,2|0,0:0|0:0,0:0:0:0:
101,256,21528,2,0,P|125:192|117:144,1,110,8|0,0:0|0:0,0:0:0:0:
176,88,22077,1,8,0:0:0:0:
336,40,22443,2,0,P|338:95|355:148,1,110,8|0,0:0|0:0,0:0:0:0:
412,205,22991,2,0,P|428:257|431:313,1,110,8|0,0:0|0:0,0:0:0:0:
372,370,23540,1,8,0:0:0:0:
208,360,23906,6,0,L|215:250,1,110,2|0,0:0|0:0,0:0:0:0:
178,176,24455,2,0,P|231:169|279:196,1,110,8|0,0:0|0:0,0:0:0:0:
336,256,25004,1,8,0:0:0:0:
280,100,25370,2,0,P|328:72|384:64,1,110,8|0,0:0|0:0,0:0:0:0:
464,56,25918,1,8,0:0:0:0:
362,156,26284,5,0,0:0:0:0:
362,156,26467,2,0,L|384:192,4,27.5
480,264,27199,2,0,L|416:280,1,55,8|0,0:0|0:0,0:0:0:0:
344,296,27565,1,0,0:0:0:0:
344,296,27748,1,0,0:0:0:0:
264,304,27931,2,0,L|210:290,1,55,8|0,0:0|0:0,0:0:0:0:
158,357,28296,6,0,P|130:309|133:255,1,110,0|8,0:0|0:0,0:0:0:0:
15,139,29028,2,0,P|43:187|40:241,1,110,0|8,0:0|0:0,0:0:0:0:
172,178,29760,2,0,P|197:198|220:226,1,55
295,215,30126,1,8,0:0:0:0:
295,215,30309,1,0,0:0:0:0:
377,215,30491,2,0,P|395:194|417:177,1,55
465,92,30857,6,0,P|417:92|345:108,1,110,8|0,0:0|0:0,0:0:0:0:
200,55,31589,2,0,P|193:110|201:164,1,110,8|0,0:0|0:0,0:0:0:0:
219,253,32138,1,2,0:0:0:0:
219,252,32321,2,0,P|165:247|124:211,1,110,8|0,0:0|0:0,0:0:0:0:
288,192,33052,6,0,P|323:193|360:200,1,55,8|0,0:0|0:0,0:0:0:0:
408,259,33418,1,0,0:0:0:0:
408,259,33601,1,0,0:0:0:0:
342,312,33784,2,0,P|307:311|270:304,1,55,8|0,0:0|0:0,0:0:0:0:
208,288,34150,2,0,P|157:269|129:223,1,110,0|8,0:0|0:0,0:0:0:0:
156,64,34882,2,0,P|93:62|44:88,1,110,0|8,0:0|0:0,0:0:0:0:
50,247,35613,5,0,0:0:0:0:
129,223,35796,1,8,0:0:0:0:
208,200,35979,1,8,0:0:0:0:
320,320,36345,2,0,P|321:287|328:248,1,55,4|0,0:0|0:0,0:0:0:0:
382,206,36711,2,0,P|385:178|386:151,1,55,4|0,0:0|0:0,0:0:0:0:
328,96,37077,2,0,P|288:96|208:136,1,110,2|0,0:0|0:0,0:0:0:0:
165,180,37626,2,0,P|115:203|60:206,1,110,2|0,0:0|0:0,0:0:0:0:
16,136,38174,1,0,0:0:0:0:
160,64,38540,6,0,P|212:59|280:64,1,110
339,110,39089,2,0,P|317:128|293:141,1,55,8|0,0:0|0:0,0:0:0:0:
224,184,39455,1,0,0:0:0:0:
224,184,39638,2,0,B|218:221|224:264,1,55,8|0,0:0|0:0,0:0:0:0:
280,297,40004,5,4,0:0:0:0:
367,209,40278,1,4,0:0:0:0:
470,277,40552,2,0,P|486:217|480:157,1,110,4|0,0:0|0:0,0:0:0:0:
472,88,41101,1,8,0:0:0:0:
312,56,41467,2,0,L|200:64,1,110,2|0,0:0|0:0,0:0:0:0:
114,87,42016,2,0,P|148:130|196:157,1,110,2|0,0:0|0:0,0:0:0:0:
280,176,42565,1,8,0:0:0:0:
144,272,42931,5,0,0:0:0:0:
144,272,43296,1,0,0:0:0:0:
144,272,43662,1,0,0:0:0:0:
144,272,44028,1,0,0:0:0:0:
144,272,44394,6,0,P|110:269|70:276,2,55,2|0|8,0:0|0:0|0:0,0:0:0:0:
228,265,44943,2,0,P|220:238|208:214,2,55,2|0|0,0:0|0:0|0:0,0:0:0:0:
295,322,45491,1,8,0:0:0:0:
295,322,45674,1,0,0:0:0:0:
339,247,45857,6,0,P|358:266|374:288,2,55,2|0|8,0:0|0:0|0:0,0:0:0:0:
400,192,46406,2,0,P|383:170|364:150,2,55,2|0|0,0:0|0:0|0:0,0:0:0:0:
456,256,46955,1,8,0:0:0:0:
432,96,47321,1,0,0:0:0:0:
264,96,47687,5,8,0:0:0:0:
205,154,47870,1,0,0:0:0:0:
263,212,48052,1,8,0:0:0:0:
204,270,48235,1,0,0:0:0:0:
262,328,48418,2,0,L|283:349,2,27.5,2|0|0,0:0|0:0|0:0,0:0:0:0:
144,328,48876,2,0,L|123:349,2,27.5,2|0|0,0:0|0:0|0:0,0:0:0:0:
344,272,49516,2,0,P|373:261|408:256,1,55
235,45,50248,6,0,P|216:74|200:104,1,55,2|0,0:0|0:0,0:0:0:0:
161,169,50613,2,0,P|215:173|268:159,1,110,8|0,0:0|0:0,0:0:0:0:
328,104,51162,1,0,0:0:0:0:
357,25,51345,2,0,P|383:43|417:77,1,55,8|0,0:0|0:0,0:0:0:0:
424,136,51711,2,0,P|463:145|505:145,2,82.5,2|4|4,0:0|0:0|0:0,0:0:0:0:
360,192,52443,1,0,0:0:0:0:
320,264,52626,1,0,0:0:0:0:
320,346,52809,6,0,L|200:352,1,110,8|0,0:0|0:0,0:0:0:0:
48,344,53540,2,0,P|61:287|88:240,1,110,8|0,0:0|0:0,0:0:0:0:
203,125,54272,2,0,P|256:136|304:163,1,110,8|0,0:0|0:0,0:0:0:0:
363,221,54821,1,0,0:0:0:0:
421,162,55004,1,8,0:0:0:0:
362,103,55187,1,0,0:0:0:0:
420,44,55370,2,0,L|488:48,2,55,4|4|8,0:0|0:0|0:0,0:0:0:0:
256,32,56101,6,0,B|197:32|197:32|144:56,1,110,0|8,0:0|0:0,0:0:0:0:
33,170,56833,2,0,B|92:170|92:170|145:146,1,110,0|8,0:0|0:0,0:0:0:0:
217,115,57382,1,0,0:0:0:0:
217,115,57565,2,0,P|219:170|193:217,1,110,0|8,0:0|0:0,0:0:0:0:
142,287,58113,1,0,0:0:0:0:
224,296,58296,1,0,0:0:0:0:
288,240,58479,1,0,0:0:0:0:
316,157,58662,2,0,P|272:129|217:115,1,110,8|0,0:0|0:0,0:0:0:0:
56,112,59394,6,0,L|48:232,1,110,8|0,0:0|0:0,0:0:0:0:
168,336,60126,1,8,0:0:0:0:
168,336,60309,1,0,0:0:0:0:
221,262,60491,2,0,P|243:296|257:335,2,82.5,2|4|4,0:0|0:0|0:0,0:0:0:0:
184,184,61223,1,0,0:0:0:0:
248,128,61406,2,0,L|274:119,4,27.5,0|0|8|0|0,0:0|0:0|0:0|0:0|0:0,0:0:0:0:
168,96,61955,6,0,P|128:96|80:112,1,82.5,10|4,0:0|0:0,0:0:0:0:
64,232,62504,1,4,0:0:0:0:
64,232,62687,2,0,P|104:224|140:204,1,82.5,8|4,0:0|0:0,0:0:0:0:
248,144,63235,1,4,0:0:0:0:
248,144,63418,2,0,P|256:184|256:232,1,82.5,8|4,0:0|0:0,0:0:0:0:
192,336,63967,1,4,0:0:0:0:
192,336,64150,2,4,P|190:309|185:282,3,55
121,224,64882,6,0,L|129:136,1,82.5,8|4,0:0|0:0,0:0:0:0:
78,31,65431,1,4,0:0:0:0:
78,31,65613,2,0,P|132:22|181:21,1,82.5,8|4,0:0|0:0,0:0:0:0:
264,88,66162,1,4,0:0:0:0:
264,88,66345,2,0,L|296:128,6,27.5,8|0|0|0|0|0|0,0:0|0:0|0:0|0:0|0:0|0:0|0:0,0:0:0:0:
336,40,67077,1,8,0:0:0:0:
464,144,67443,5,0,0:0:0:0:
464,144,67626,1,0,0:0:0:0:
486,226,67809,2,0,P|458:226|431:223,1,55,2|0,0:0|0:0,0:0:0:0:
348,223,68174,1,8,0:0:0:0:
348,223,68357,1,0,0:0:0:0:
268,196,68540,2,0,P|282:172|299:151,1,55
275,71,68906,5,8,0:0:0:0:
275,71,69089,1,0,0:0:0:0:
208,128,69272,2,0,P|192:90|190:49,2,82.5,2|4|4,0:0|0:0|0:0,0:0:0:0:
168,200,70004,1,0,0:0:0:0:
208,272,70187,1,0,0:0:0:0:
168,344,70370,2,0,L|96:336,1,55,8|0,0:0|0:0,0:0:0:0:
56,280,70735,2,0,L|112:234,1,55
168,200,71101,6,0,P|202:191|248:192,1,55
304,208,71467,2,0,L|368:232,1,55
423,278,71833,2,0,L|439:246,2,27.5,8|0|0,0:0|0:0|0:0,0:0:0:0:
485,341,72199,5,0,0:0:0:0:
488,176,72565,1,0,0:0:0:0:
485,341,72931,1,0,0:0:0:0:
320,344,73296,2,0,L|339:363,2,27.5,8|0|0,0:0|0:0|0:0,0:0:0:0:
256,288,73662,5,8,0:0:0:0:
320,232,73845,1,0,0:0:0:0:
256,184,74028,1,8,0:0:0:0:
320,128,74211,1,0,0:0:0:0:
256,80,74394,2,0,P|223:74|179:75,1,55,4|0,0:0|0:0,0:0:0:0:
128,112,74760,2,0,P|119:159|120:188,1,55,4|0,0:0|0:0,0:0:0:0:
51,215,75126,2,0,P|85:239|125:248,1,82.5,10|4,0:0|0:0,0:0:0:0:
248,248,75674,5,4,0:0:0:0:
248,247,75857,2,0,P|288:256|321:279,1,82.5,8|4,0:0|0:0,0:0:0:0:
409,367,76406,1,4,0:0:0:0:
409,367,76589,2,0,L|440:272,1,82.5,8|4,0:0|0:0,0:0:0:0:
472,168,77138,1,4,0:0:0:0:
472,168,77321,2,0,P|422:163|374:167,1,82.5,8|4,0:0|0:0,0:0:0:0:
264,176,77870,5,4,0:0:0:0:
264,176,78052,2,0,P|242:132|204:93,1,82.5,8|4,0:0|0:0,0:0:0:0:
128,24,78601,1,4,0:0:0:0:
128,24,78784,2,0,L|96:104,1,82.5,8|4,0:0|0:0,0:0:0:0:
32,208,79333,1,4,0:0:0:0:
32,208,79516,2,0,L|104:272,1,82.5,8|4,0:0|0:0,0:0:0:0:
168,344,80065,1,4,0:0:0:0:
168,344,80248,1,8,0:0:0:0:
208,272,80431,2,0,L|240:304,2,27.5
324,155,80979,5,0,0:0:0:0:
403,99,81711,2,0,P|410:153|402:217,1,110
384,288,82260,1,0,0:0:0:0:
308,324,82443,2,0,L|323:348,8,27.5,8|0|0|0|8|0|0|0|8,0:0|0:0|0:0|0:0|0:0|0:0|0:0|0:0|0:0,0:0:0:0:
225,324,83357,2,0,P|186:314|161:300,2,55
226,241,83906,6,0,P|232:208|248:168,1,55,8|0,0:0|0:0,0:0:0:0:
288,120,84272,1,8,0:0:0:0:
288,120,84455,1,0,0:0:0:0:
358,72,84638,2,0,P|366:98|371:126,1,55,8|0,0:0|0:0,0:0:0:0:
368,208,85004,1,8,0:0:0:0:
368,208,85187,1,2,0:0:0:0:
