osu file format v14

[General]
AudioFilename: audio.mp3
AudioLeadIn: 0
PreviewTime: 50938
Countdown: 0
SampleSet: Soft
StackLeniency: 0.4
Mode: 0
LetterboxInBreaks: 0
WidescreenStoryboard: 0

[Editor]
Bookmarks: 4474,8865,10328,16182,26426,27889,39596,43987,45450,48377,51304,57157,63011,68865,73255,76182,82035,84962
DistanceSpacing: 0.8
BeatDivisor: 4
GridSize: 16
TimelineZoom: 1.8

[Metadata]
Title:Kagerou (TV Size)
TitleUnicode:カゲロウ (TV Size)
Artist:ReaL
ArtistUnicode:ЯeaL
Creator:hypercyte
Version:Terminal
Source:Gintama.
Tags:銀魂。 gintama season 5 2017 period full stop final terminal japanese anime opening op 18 リアル hypercute
BeatmapID:2287873
BeatmapSetID:1094687

[Difficulty]
HPDrainRate:6
CircleSize:4.4
OverallDifficulty:8
ApproachRate:9.2
SliderMultiplier:1.74
SliderTickRate:1

[Events]
//Background and Video events
0,0,"75316749_p0.jpg",0,0
Video,0,"real kagerou 4.mp4"
//Break Periods
//Storyboard Layer 0 (Background)
//Storyboard Layer 1 (Fail)
//Storyboard Layer 2 (Pass)
//Storyboard Layer 3 (Foreground)
//Storyboard Layer 4 (Overlay)
//Storyboard Sound Samples

[TimingPoints]
1548,365.853658536585,4,2,4,34,1,0
1548,-200,4,2,4,34,0,0
3011,-100,4,2,4,44,0,0
4108,-200,4,2,4,44,0,0
4474,-83.3333333333333,4,2,4,64,0,0
4840,-200,4,2,4,64,0,0
5206,-83.3333333333333,4,2,4,64,0,0
5572,-200,4,2,4,64,0,0
5938,-83.3333333333333,4,2,4,64,0,0
6304,-100,4,2,4,64,0,0
6669,-83.3333333333333,4,2,4,64,0,0
7035,-100,4,2,4,64,0,0
8865,-80.6451612903226,4,2,4,64,0,0
9596,-135.135135135135,4,2,4,64,0,0
10328,-100,4,2,4,64,0,0
14718,-83.3333333333333,4,2,4,64,0,0
16182,-133.333333333333,4,2,4,54,0,0
24962,-100,4,2,4,54,0,0
38133,-90.9090909090909,4,2,4,54,0,0
39230,-133.333333333333,4,2,4,54,0,0
39596,-133.333333333333,4,2,4,44,0,0
41060,-100,4,2,4,44,0,0
41608,-200,4,2,4,44,0,0
42157,-133.333333333333,4,2,4,44,0,0
45450,-133.333333333333,4,2,4,54,0,0
48377,-100,4,2,4,54,0,0
51304,-74.6268656716418,4,2,4,74,0,1
54230,-83.3333333333333,4,2,4,74,0,0
57157,-74.6268656716418,4,2,4,74,0,1
60084,-83.3333333333333,4,2,4,74,0,0
63011,-74.6268656716418,4,2,4,74,0,1
65938,-74.6268656716418,4,2,4,74,0,0
68865,-74.6268656716418,4,2,4,74,0,1
71791,-74.6268656716418,4,2,4,74,0,0
73255,-74.6268656716418,4,2,4,64,0,0
73987,-161.290322580645,4,2,4,64,0,0
74718,-161.290322580645,4,2,4,74,0,1
76182,-74.6268656716418,4,2,4,64,0,0
82035,-133.333333333333,4,2,4,64,0,0
83499,-133.333333333333,4,2,4,54,0,0

[Colours]
Combo1 : 156,224,162
Combo2 : 121,151,255
Combo3 : 174,191,251
Combo4 : 101,201,108

[HitObjects]
276,374,1548,6,0,P|285:346|297:324,1,43.5,2|0,0:0|0:0,0:0:0:0:
201,307,1913,2,0,P|180:274|165:264,1,43.5,0|0,0:0|0:0,0:0:0:0:
283,206,2279,2,0,P|297:167|309:151,1,43.5,0|0,0:0|0:0,0:0:0:0:
254,55,2645,1,2,0:0:0:0:
254,55,3011,5,8,0:1:0:0:
221,56,3102,1,8,0:1:0:0:
197,79,3194,1,8,0:1:0:0:
194,111,3285,1,8,0:1:0:0:
204,142,3377,1,8,0:1:0:0:
202,174,3468,1,8,0:1:0:0:
180,199,3560,1,8,0:1:0:0:
147,204,3651,1,8,0:1:0:0:
116,192,3743,1,10,0:1:0:0:
116,192,4108,6,0,P|148:182|172:178,1,43.5,0|0,0:0|0:0,0:0:0:0:
473,152,4474,6,0,P|404:140|374:58,1,156.599995220947,14|0,0:0|0:0,0:0:0:0:
490,161,4840,2,0,P|498:191|493:216,1,43.5,0|0,0:0|0:0,0:0:0:0:
333,322,5206,6,0,B|277:310|277:310|246:277|246:277|191:266,1,156.599995220947,14|0,0:0|0:0,0:0:0:0:
353,326,5572,2,0,P|366:287|363:265,1,43.5,0|0,0:0|0:0,0:0:0:0:
161,112,5938,6,0,L|197:288,1,156.599995220947,14|0,0:0|0:0,0:0:0:0:
192,265,6304,2,0,L|211:172,1,87,10|0,0:0|0:0,0:0:0:0:
247,3,6669,6,0,B|306:12|306:12|343:40|343:40|397:49,1,156.599995220947,14|0,0:0|0:0,0:0:0:0:
392,48,7035,2,0,P|416:97|404:128,1,87,8|0,0:0|0:0,0:0:0:0:
131,62,7401,6,0,P|106:111|118:142,1,87,12|0,0:0|0:0,0:0:0:0:
196,219,7767,2,0,L|311:205,1,87,8|0,0:0|0:0,0:0:0:0:
471,219,8133,2,0,P|479:260|455:295,1,87,12|0,0:0|0:0,0:0:0:0:
356,310,8499,1,8,0:0:0:0:
124,173,8865,6,0,B|101:223|101:223|132:268,1,107.879995720093,8|0,0:1|0:0,0:0:0:0:
198,134,9139,2,0,P|201:88|130:58,1,107.879995720093,8|0,0:1|0:0,0:0:0:0:
141,277,9413,1,8,0:1:0:0:
141,277,9596,2,0,B|194:271|194:271|229:277|229:277|268:273,1,128.760003143555,10|0,0:1|0:0,0:0:0:0:
429,138,10328,6,0,B|373:132|373:132|309:156|309:156|246:150,1,174,14|8,0:0|0:1,0:0:0:0:
172,94,10877,1,0,0:0:0:0:
49,180,11060,1,8,0:0:0:0:
87,180,11151,1,8,0:1:0:0:
107,213,11243,1,8,0:0:0:0:
273,334,11426,1,10,0:1:0:0:
354,240,11608,1,0,0:0:0:0:
255,347,11791,6,0,L|158:333,1,87,10|0,0:0|0:0,0:0:0:0:
68,88,12157,1,8,0:1:0:0:
231,195,12340,1,0,0:0:0:0:
283,113,12523,1,10,0:0:0:0:
253,86,12615,1,8,0:1:0:0:
215,98,12706,1,8,0:0:0:0:
115,290,12889,1,10,0:1:0:0:
5,240,13072,1,0,0:0:0:0:
257,198,13255,6,0,B|300:203|323:248|299:266|331:311|377:314,1,174,14|8,0:0|0:1,0:0:0:0:
468,231,13804,1,8,0:1:0:0:
298,71,13987,1,8,0:3:0:0:
203,125,14169,1,8,0:3:0:0:
27,30,14352,2,0,L|167:43,1,130.5,4|0,0:3|0:0,0:0:0:0:
12,33,14718,6,0,B|-10:83|-10:83|19:139,1,104.399996813965,14|0,0:1|0:0,0:0:0:0:
9,235,14993,2,0,P|64:200|107:227,1,104.399996813965,14|0,0:1|0:0,0:0:0:0:
158,281,15267,2,0,P|143:309|141:333,1,52.1999984069825,14|0,0:1|0:0,0:0:0:0:
19,384,15450,1,14,0:1:0:0:
287,375,16182,6,0,P|297:316|243:270,1,130.50000497818,12|8,0:0|0:0,0:0:0:0:
145,290,16730,1,10,0:1:0:0:
261,191,16913,2,0,P|222:175|209:156,1,65.2500024890901,8|2,0:0|0:0,0:0:0:0:
353,183,17279,2,0,P|336:144|340:121,1,65.2500024890901,8|2,0:1|0:0,0:0:0:0:
467,22,17645,6,0,B|460:39|444:46|444:46|345:30,1,130.50000497818,8|8,0:1|0:0,0:0:0:0:
157,20,18194,1,10,0:1:0:0:
126,112,18377,2,0,L|206:95,1,65.2500024890901,8|2,0:0|0:0,0:0:0:0:
337,46,18743,2,0,L|257:29,1,65.2500024890901,8|0,0:1|0:0,0:0:0:0:
38,168,19108,5,8,0:1:0:0:
121,130,19291,1,2,0:0:0:0:
197,179,19474,1,10,0:0:0:0:
184,269,19657,1,10,0:1:0:0:
251,330,19840,1,10,0:0:0:0:
337,301,20023,1,2,0:0:0:0:
226,352,20206,2,0,L|154:343,1,65.2500024890901,8|2,0:1|0:0,0:0:0:0:
344,217,20572,6,0,P|382:285|440:285,1,130.50000497818,8|8,0:1|0:0,0:0:0:0:
403,126,21121,1,10,0:1:0:0:
314,212,21304,2,0,P|297:170|279:150,1,65.2500024890901,8|2,0:0|0:0,0:0:0:0:
81,81,21669,2,0,L|194:61,1,97.8750037336351,10|0,0:1|0:0,0:0:0:0:
198,62,22035,6,0,P|225:113|184:182,1,130.50000497818,12|10,0:1|0:0,0:0:0:0:
99,210,22584,1,10,0:1:0:0:
309,176,22767,2,0,B|353:167|353:167|374:168|374:168|412:158,1,97.8750037336351,10|0,0:0|0:0,0:0:0:0:
295,179,23133,1,10,0:1:0:0:
408,250,23316,1,2,0:0:0:0:
497,107,23499,5,8,0:1:0:0:
446,331,23682,2,0,L|426:268,1,65.2500024890901,2|8,0:0|0:0,0:0:0:0:
295,179,24047,1,10,0:1:0:0:
156,279,24230,1,8,0:0:0:0:
68,239,24413,1,0,0:0:0:0:
152,111,24596,6,0,P|192:107|205:158,1,97.8750037336351,10|0,0:0|0:0,0:0:0:0:
134,103,24962,6,0,P|198:74|224:14,1,130.5,14|0,0:1|0:0,0:0:0:0:
225,10,25328,1,10,0:0:0:0:
366,109,25511,2,0,B|326:88|326:88|281:103,1,87,14|10,0:1|0:0,0:0:0:0:
170,200,25877,1,2,0:0:0:0:
234,288,26060,1,8,0:0:0:0:
178,380,26243,1,2,0:0:0:0:
157,181,26426,6,0,P|172:103|210:15,1,174,12|0,0:1|0:0,0:0:0:0:
428,193,26974,6,0,B|410:218|379:215|379:215|361:205|361:205|334:198|312:219,1,130.5,14|0,0:1|0:0,0:0:0:0:
432,177,27340,1,10,0:0:0:0:
286,223,27523,1,10,0:1:0:0:
235,209,27615,1,8,0:1:0:0:
229,157,27706,1,10,0:1:0:0:
263,117,27797,1,8,0:1:0:0:
314,127,27889,6,0,P|366:103|364:60,1,87,12|2,0:0|0:0,0:0:0:0:
125,25,28255,2,0,P|147:78|145:126,1,87,10|2,0:1|0:0,0:0:0:0:
18,303,28621,2,0,B|63:301|90:257|71:236|92:202|144:191,1,174,10|8,0:0|0:1,0:0:0:0:
312,321,29169,1,2,0:0:0:0:
379,239,29352,6,0,L|291:223,1,87,8|2,0:0|0:0,0:0:0:0:
139,192,29718,1,8,0:1:0:0:
288,91,29901,2,0,P|331:161|264:222,1,174,2|2,0:0|0:0,0:0:0:0:
146,47,30450,2,0,P|197:34|243:6,1,87,10|0,0:1|0:0,0:0:0:0:
414,43,30816,5,8,0:0:0:0:
394,196,30999,1,2,0:0:0:0:
311,149,31182,1,10,0:1:0:0:
238,214,31365,1,2,0:0:0:0:
82,143,31547,1,10,0:0:0:0:
173,11,31730,2,0,B|235:29|235:29|275:57|275:57|338:72,1,174,2|2,0:0|0:0,0:0:0:0:
389,258,32279,6,0,P|441:210|472:208,1,87,8|2,0:0|0:0,0:0:0:0:
408,349,32645,1,10,0:1:0:0:
276,229,32828,2,0,L|179:250,1,87,2|8,0:0|0:0,0:0:0:0:
7,55,33194,5,14,0:1:0:0:
79,315,33377,1,14,0:1:0:0:
79,315,33743,2,0,P|124:298|96:179,1,174,12|10,0:0|0:1,0:0:0:0:
250,332,34291,1,2,0:0:0:0:
384,208,34474,2,0,P|316:193|292:213,1,87,10|0,0:0|0:0,0:0:0:0:
421,309,34840,1,10,0:1:0:0:
346,83,35023,6,0,P|358:33|402:8,1,87,2|8,0:0|0:0,0:0:0:0:
200,229,35389,2,0,L|309:210,1,87,2|8,0:0|0:1,0:0:0:0:
506,294,35755,2,0,L|420:308,1,87,2|8,0:0|0:0,0:0:0:0:
303,337,36121,1,0,0:0:0:0:
368,186,36304,1,10,0:1:0:0:
368,186,36487,1,2,0:0:0:0:
232,59,36669,5,10,0:0:0:0:
98,278,36852,1,14,0:1:0:0:
203,231,37035,1,14,0:1:0:0:
251,34,37218,1,2,0:0:0:0:
356,81,37401,1,10,0:3:0:0:
202,213,37584,1,2,0:0:0:0:
45,138,37767,1,6,0:3:0:0:
116,67,37950,1,2,0:0:0:0:
241,291,38133,6,0,B|274:290|300:260|289:239|312:210|352:208,1,143.550004380798,12|0,0:1|0:0,0:0:0:0:
370,212,38499,2,0,P|385:228|391:263,1,47.8500014602662,8|0,0:0|0:0,0:0:0:0:
512,102,38682,6,0,B|465:105|439:151|453:178|423:216|367:212,1,191.400005841065,12|8,0:1|0:3,0:0:0:0:
290,41,39230,6,0,P|279:80|222:99,1,97.8750037336351,4|0,0:3|0:0,0:0:0:0:
288,21,39596,6,0,B|347:13|347:13|364:18|364:18|420:12,1,130.50000497818,12|0,0:0|0:0,0:0:0:0:
208,106,40145,2,0,B|148:98|148:98|131:103|131:103|76:97,1,130.50000497818,10|10,0:1|0:0,0:0:0:0:
296,210,40694,1,10,0:1:0:0:
296,210,41060,6,0,P|320:158|302:124,1,87,10|0,0:0|0:0,0:0:0:0:
287,233,41334,2,0,P|320:279|358:281,1,87,10|0,0:0|0:0,0:0:0:0:
267,209,41608,2,0,P|209:214|189:246,1,87,14|8,0:1|0:0,0:0:0:0:
394,362,42157,5,10,0:1:0:0:
460,280,42340,1,2,0:0:0:0:
352,76,42523,2,0,P|391:179|389:209,1,130.50000497818,14|10,0:1|0:0,0:0:0:0:
324,55,43072,2,0,P|339:12|362:-5,1,65.2500024890901,8|2,0:1|0:0,0:0:0:0:
159,178,43438,1,8,0:0:0:0:
122,191,43529,1,8,0:0:0:0:
89,169,43621,2,0,P|79:131|101:95,1,65.2500024890901,14|0,0:1|0:0,0:0:0:0:
256,192,43987,5,10,0:1:0:0:
256,192,44352,5,10,0:1:0:0:
256,192,44718,5,10,0:1:0:0:
256,192,45084,5,10,0:1:0:0:
58,248,45450,5,14,0:0:0:0:
83,223,45541,1,8,0:0:0:0:
118,216,45633,1,8,0:0:0:0:
150,231,45724,1,8,0:0:0:0:
168,261,45816,1,8,0:0:0:0:
163,296,45907,1,8,0:0:0:0:
139,323,45999,2,0,L|93:317,1,32.625001244545,12|8,0:1|0:0,0:0:0:0:
262,368,46182,5,8,0:0:0:0:
296,359,46273,1,8,0:0:0:0:
314,328,46365,1,8,0:0:0:0:
342,306,46456,1,8,0:0:0:0:
377,301,46547,2,0,L|430:312,1,32.625001244545,12|8,0:1|0:0,0:0:0:0:
500,241,46730,1,8,0:0:0:0:
500,241,46822,1,8,0:0:0:0:
500,241,46913,2,0,L|441:230,1,32.625001244545,12|8,0:1|0:0,0:0:0:0:
340,195,47096,5,8,0:0:0:0:
310,174,47188,1,8,0:0:0:0:
307,138,47279,1,8,0:0:0:0:
324,106,47371,1,8,0:0:0:0:
357,94,47462,2,0,L|408:100,1,32.625001244545,12|8,0:1|0:0,0:0:0:0:
256,32,47645,5,8,0:0:0:0:
220,40,47737,1,8,0:0:0:0:
198,68,47828,1,8,0:0:0:0:
171,91,47919,1,8,0:0:0:0:
135,99,48011,2,0,L|46:93,1,65.2500024890901,14|2,0:0|0:0,0:0:0:0:
340,195,48377,6,0,L|437:181,1,87,14|2,0:0|0:0,0:0:0:0:
121,253,48743,5,10,0:1:0:0:
238,299,48926,1,10,0:1:0:0:
439,151,49108,5,10,0:1:0:0:
322,197,49291,1,8,0:1:0:0:
162,55,49474,5,10,0:1:0:0:
201,82,49566,1,8,0:1:0:0:
188,127,49657,2,0,L|50:154,1,130.5,8|8,0:1|0:1,0:1:0:0:
33,162,50023,1,8,0:1:0:0:
33,162,50115,1,10,0:1:0:0:
33,162,50206,2,0,P|17:207|36:244,1,87,4|0,0:3|0:0,0:0:0:0:
282,141,50572,5,12,0:1:0:0:
387,305,50755,1,8,0:1:0:0:
268,116,51304,6,0,B|216:121|197:161|222:176|202:229|147:228,1,174.869991728257,14|0,0:0|0:0,0:0:0:0:
284,100,51669,2,0,L|409:118,1,116.579994485504,10|2,0:1|0:0,0:0:0:0:
133,231,52035,2,0,P|128:178|70:106,1,116.579994485504,10|0,0:0|0:0,0:0:0:0:
163,25,52310,1,0,0:0:0:0:
163,25,52401,2,0,P|131:73|125:131,1,116.579994485504,10|2,0:1|0:0,0:0:0:0:
278,305,52767,5,10,0:0:0:0:
316,203,52950,1,8,0:1:0:0:
287,182,53041,1,8,0:1:0:0:
256,199,53133,1,10,0:1:0:0:
118,344,53316,1,10,0:1:0:0:
8,288,53499,2,0,P|-12:230|25:177,1,116.579994485504,10|0,0:0|0:0,0:0:0:0:
153,50,53865,2,0,B|223:64|223:64|253:83|253:83|324:97,1,174.869991728257,8|0,0:1|0:0,0:0:0:0:
126,42,54230,6,0,P|90:91|116:133,1,104.399996813965,8|2,0:0|0:0,0:0:0:0:
336,237,54596,1,10,0:1:0:0:
415,185,54779,1,2,0:0:0:0:
318,250,54962,2,0,L|196:227,1,104.399996813965,8|2,0:0|0:0,0:0:0:0:
54,317,55328,1,10,0:1:0:0:
204,214,55511,1,2,0:0:0:0:
117,83,55694,5,10,0:0:0:0:
201,17,55877,1,10,0:1:0:0:
225,35,55968,1,8,0:1:0:0:
223,66,56060,1,10,0:1:0:0:
84,223,56243,1,10,0:1:0:0:
168,310,56426,1,14,0:0:0:0:
336,199,56608,1,8,0:1:0:0:
489,360,56791,2,0,B|508:310|508:310|477:262,1,104.399996813965,14|2,0:1|0:0,0:0:0:0:
316,185,57157,6,0,B|360:179|376:135|360:107|378:65|430:60,1,174.869991728257,14|0,0:0|0:0,0:0:0:0:
294,183,57523,2,0,P|248:155|245:88,1,116.579994485504,10|2,0:1|0:0,0:0:0:0:
20,269,57889,2,0,P|109:245|149:238,1,116.579994485504,10|0,0:0|0:0,0:0:0:0:
360,288,58255,1,10,0:1:0:0:
250,368,58438,1,2,0:0:0:0:
82,128,58621,5,10,0:0:0:0:
45,220,58804,1,8,0:1:0:0:
75,236,58895,1,8,0:1:0:0:
107,222,58987,1,10,0:1:0:0:
238,76,59169,1,10,0:1:0:0:
378,149,59352,2,0,B|406:201|406:201|378:262,1,116.579994485504,10|0,0:0|0:0,0:0:0:0:
146,298,59718,2,0,P|229:292|252:377,1,174.869991728257,8|0,0:1|0:0,0:0:0:0:
128,307,60084,6,0,L|107:184,1,104.399996813965,8|2,0:0|0:0,0:0:0:0:
263,49,60450,1,10,0:1:0:0:
219,176,60633,1,2,0:0:0:0:
360,240,60816,1,10,0:0:0:0:
360,240,60999,1,2,0:0:0:0:
424,149,61182,1,10,0:1:0:0:
348,75,61365,1,2,0:0:0:0:
189,332,61547,5,10,0:0:0:0:
104,265,61730,1,10,0:1:0:0:
117,232,61822,1,8,0:1:0:0:
151,229,61913,1,10,0:1:0:0:
357,322,62096,1,10,0:1:0:0:
438,254,62279,5,10,0:1:0:0:
447,223,62371,1,8,0:1:0:0:
436,193,62462,1,8,0:1:0:0:
409,176,62554,1,8,0:1:0:0:
357,172,62645,1,8,0:1:0:0:
315,203,62737,1,8,0:1:0:0:
263,198,62828,1,8,0:1:0:0:
235,154,62919,1,8,0:1:0:0:
246,102,63011,6,0,B|302:118|302:118|350:78,1,116.579994485504,14|0,0:0|0:0,0:0:0:0:
177,57,63285,1,8,0:1:0:0:
177,57,63377,2,0,P|121:98|125:150,1,116.579994485504,10|10,0:1|0:1,0:0:0:0:
276,342,63743,2,0,P|296:274|236:259,1,116.579994485504,10|0,0:0|0:0,0:0:0:0:
274,360,64017,1,8,0:1:0:0:
274,360,64108,1,10,0:1:0:0:
144,308,64291,1,10,0:1:0:0:
269,146,64474,6,0,P|356:149|385:129,1,116.579994485504,10|8,0:0|0:1,0:0:0:0:
472,183,64749,1,8,0:1:0:0:
472,183,64840,2,0,P|418:160|362:172,1,116.579994485504,10|10,0:1|0:1,0:0:0:0:
137,69,65206,1,10,0:0:0:0:
57,196,65389,1,4,0:3:0:0:
57,196,65480,1,4,0:3:0:0:
57,196,65572,2,0,L|213:162,1,116.579994485504,8|0,0:1|0:0,0:0:0:0:
364,26,65938,5,8,0:0:0:0:
413,114,66121,1,10,0:1:0:0:
388,139,66212,1,8,0:1:0:0:
353,135,66304,1,10,0:1:0:0:
213,60,66487,1,10,0:1:0:0:
117,130,66669,1,10,0:0:0:0:
9,69,66852,1,10,0:1:0:0:
9,69,66944,1,8,0:1:0:0:
9,69,67035,1,10,0:1:0:0:
136,144,67218,1,10,0:1:0:0:
88,275,67401,5,8,0:1:0:0:
113,251,67493,1,8,0:1:0:0:
147,248,67584,1,8,0:1:0:0:
177,264,67676,1,8,0:1:0:0:
196,292,67767,1,8,0:1:0:0:
237,312,67858,1,8,0:1:0:0:
280,293,67950,1,8,0:1:0:0:
88,275,68133,2,0,L|2:269,1,58.2899972427522,12|0,0:1|0:0,0:0:0:0:
88,275,68499,6,0,P|65:214|150:168,1,174.869991728257,14|0,0:1|0:0,0:0:0:0:
157,155,68865,6,0,B|212:176|212:176|278:146,1,116.579994485504,14|0,0:0|0:0,0:0:0:0:
400,327,69230,1,10,0:1:0:0:
501,256,69413,1,2,0:0:0:0:
332,70,69596,2,0,B|385:94|385:94|440:73,1,116.579994485504,10|0,0:0|0:0,0:0:0:0:
195,183,69962,1,10,0:1:0:0:
59,102,70145,2,0,P|85:80|130:73,1,58.2899972427522,2|0,0:0|0:0,0:0:0:0:
179,176,70328,6,0,P|178:122|76:112,1,174.869991728257,10|8,0:0|0:1,0:0:0:0:
195,183,70694,1,10,0:1:0:0:
333,115,70877,1,10,0:1:0:0:
456,259,71060,2,0,B|417:257|386:220|409:187|384:144|337:137,1,174.869991728257,10|0,0:0|0:0,0:0:0:0:
472,266,71426,2,0,P|487:314|442:365,1,116.579994485504,8|0,0:1|0:0,0:0:0:0:
273,226,71791,6,0,B|222:237|222:237|209:250|209:250|154:264,1,116.579994485504,8|2,0:0|0:0,0:0:0:0:
79,77,72157,1,10,0:1:0:0:
188,118,72340,1,10,0:1:0:0:
403,105,72523,1,10,0:1:0:0:
294,146,72706,1,10,0:1:0:0:
75,178,72889,1,10,0:1:0:0:
115,182,72980,1,8,0:1:0:0:
134,218,73072,1,10,0:1:0:0:
294,146,73255,6,0,L|279:218,1,58.2899972427522,14|0,0:1|0:0,0:0:0:0:
294,146,73621,6,0,L|279:218,1,58.2899972427522,14|0,0:1|0:0,0:0:0:0:
294,146,73987,6,0,L|276:232,1,80.9099967900697,14|8,0:1|0:0,0:0:0:0:
277,225,74352,1,8,0:0:0:0:
277,225,74444,1,8,0:0:0:0:
69,155,74718,5,14,0:1:0:0:
252,47,74901,1,14,0:1:0:0:
454,262,75084,1,14,0:1:0:0:
265,206,75267,1,14,0:1:0:0:
83,304,75450,1,14,0:0:0:0:
293,372,75633,1,10,0:0:0:0:
480,253,75816,2,0,P|485:198|448:176,1,80.9099967900697,14|0,0:0|0:0,0:0:0:0:
451,172,76182,6,0,B|372:185|372:185|354:198|354:198|268:210,1,174.869991728257,14|8,0:0|0:1,0:0:0:0:
259,206,76547,2,0,P|236:162|276:107,1,116.579994485504,8|8,0:0|0:1,0:0:0:0:
253,357,76913,1,8,0:0:0:0:
185,277,77096,1,8,0:1:0:0:
284,103,77279,2,0,L|423:115,1,116.579994485504,10|8,0:0|0:1,0:0:0:0:
160,36,77645,5,10,0:0:0:0:
55,89,77828,1,8,0:1:0:0:
71,126,77919,1,8,0:1:0:0:
111,129,78011,1,8,0:0:0:0:
262,17,78194,1,8,0:1:0:0:
382,80,78377,2,0,P|412:144|381:185,1,116.579994485504,10|8,0:0|0:1,0:0:0:0:
245,315,78743,1,10,0:0:0:0:
61,255,78926,1,8,0:1:0:0:
157,131,79108,6,0,B|149:201|149:201|157:227|157:227|145:313,1,174.869991728257,6|8,0:0|0:1,0:0:0:0:
77,370,79474,2,0,L|59:241,1,116.579994485504,8|8,0:0|0:1,0:0:0:0:
170,18,79840,1,8,0:0:0:0:
263,90,80023,1,8,0:1:0:0:
303,92,80115,1,8,0:1:0:0:
329,61,80206,1,10,0:0:0:0:
446,137,80389,1,8,0:1:0:0:
145,13,80572,6,0,P|106:21|67:93,1,116.579994485504,14|0,0:0|0:0,0:0:0:0:
49,214,80846,1,8,0:1:0:0:
49,214,80938,2,0,P|90:177|167:204,1,116.579994485504,8|8,0:0|0:1,0:0:0:0:
322,330,81304,1,10,0:0:0:0:
380,250,81487,1,8,0:1:0:0:
357,216,81578,1,8,0:1:0:0:
317,223,81669,1,10,0:0:0:0:
139,384,81852,1,8,0:1:0:0:
115,256,82035,6,0,B|128:312|128:312|127:334|127:334|139:385,1,130.50000497818,14|0,0:0|0:0,0:0:0:0:
408,186,83316,5,8,0:0:0:0:
391,170,83407,1,8,0:0:0:0:
348,171,83499,5,10,0:1:0:0:
327,208,83590,1,8,0:1:0:0:
293,234,83682,1,8,0:1:0:0:
251,239,83773,1,8,0:1:0:0:
209,227,83865,1,8,0:1:0:0:
188,189,83956,1,8,0:1:0:0:
191,146,84047,1,8,0:1:0:0:
228,125,84139,1,8,0:1:0:0:
263,147,84230,1,8,0:1:0:0:
373,299,84413,5,8,0:3:0:0:
459,320,84596,1,8,0:3:0:0:
512,247,84779,1,8,0:3:0:0:
345,40,84962,5,12,0:1:0:0:
226,230,85145,1,8,0:1:0:0:
459,320,85328,1,8,0:1:0:0:
345,40,85511,1,8,0:1:0:0:
124,186,85694,5,8,0:1:0:0:
298,384,85877,1,8,0:1:0:0:
510,238,86060,1,8,0:1:0:0:
345,40,86243,1,14,0:1:0:0:
