osu file format v14

[General]
AudioFilename: audio.mp3
AudioLeadIn: 0
PreviewTime: 49484
Countdown: 0
SampleSet: Soft
StackLeniency: 0.6
Mode: 0
LetterboxInBreaks: 0
WidescreenStoryboard: 1

[Editor]
Bookmarks: 31995,32178,35606,50058
DistanceSpacing: 1.4
BeatDivisor: 4
GridSize: 32
TimelineZoom: 2.8

[Metadata]
Title:Kagerou (TV Size)
TitleUnicode:カゲロウ (TV Size)
Artist:ReaL
ArtistUnicode:ЯeaL
Creator:Zekao
Version:Synaelle's Normal
Source:Gintama.
Tags:銀魂。 gintama season 5 2017 period full stop final terminal japanese anime opening op 18 リアル Synaelle Shiyzo AlBA- jrock j-rock rock
BeatmapID:3045025
BeatmapSetID:1450366

[Difficulty]
HPDrainRate:4
CircleSize:3.3
OverallDifficulty:4
ApproachRate:5
SliderMultiplier:1.07
SliderTickRate:1

[Events]
//Background and Video events
Video,-1500,"op18.mp4"
0,0,"memento.jpg",0,0
//Break Periods
//Storyboard Layer 0 (Background)
//Storyboard Layer 1 (Fail)
//Storyboard Layer 2 (Pass)
//Storyboard Layer 3 (Foreground)
//Storyboard Layer 4 (Overlay)
//Storyboard Sound Samples

[TimingPoints]
293,379.746835443038,4,2,1,35,1,0
672,333.333333333333,4,2,1,35,1,0
838,365.853658536585,4,2,1,35,1,0
1203,379.746835443038,4,2,1,35,1,0
1392,355.029585798817,4,2,1,35,1,0
1747,344.827586206897,4,2,1,60,1,0
2109,337.078651685393,4,2,1,60,1,0
2473,368.098159509202,4,2,1,60,1,0
3209,365.853658536585,4,2,1,50,1,0
3209,-100,4,2,1,50,0,0
23696,-100,4,2,1,60,0,0
44186,363.636363636364,4,2,1,60,1,0
44186,-100,4,2,1,70,0,0
44932,363.636363636364,4,2,1,70,1,0
46204,346.820809248555,4,2,1,70,1,0
46554,342.857142857143,4,2,1,70,1,0
46756,361.44578313253,4,2,1,70,1,0
46756,-100,4,2,1,70,0,0
47117,-100,4,2,1,60,0,0
48191,370.37037037037,4,2,1,60,1,0
48398,372.670807453416,4,2,1,80,1,0
48770,333.333333333333,4,2,1,80,1,0
48956,350.877192982456,4,2,1,80,1,0
49306,357.142857142857,4,2,1,80,1,0
49484,326.086956521739,4,2,1,80,1,0
49647,382.165605095541,4,2,1,60,1,0
50026,365.853658536585,4,2,1,60,1,0
50026,-90.9090909090909,4,2,1,80,0,1
50409,365.853658536585,4,2,1,80,1,1
50774,-90.9090909090909,4,2,1,80,0,1
51506,365.853658536585,4,2,1,80,1,1
52237,-90.9090909090909,4,2,1,80,0,1
66871,-90.9090909090909,4,2,1,80,0,0
67603,-90.9090909090909,4,2,1,80,0,1
74920,-100,4,2,1,70,0,0

[Colours]
Combo1 : 255,79,79
Combo2 : 148,148,148
Combo3 : 132,0,3
Combo4 : 65,65,65

[HitObjects]
256,192,293,12,2,2473,2:0:0:0:
343,38,3209,6,0,P|337:104|335:158,1,107,6|0,3:2|2:0,0:0:0:0:
250,209,3940,2,0,P|256:275|258:329,1,107,6|0,3:2|2:0,0:0:0:0:
169,377,4672,1,6,3:2:0:0:
91,303,5038,1,0,3:0:0:0:
128,202,5404,2,0,B|149:175|149:175|136:98,1,107,6|0,3:2|3:0,0:0:0:0:
220,35,6135,2,0,B|274:46|274:46|335:22,1,107,6|2,3:2|3:0,0:0:0:0:
393,106,6867,2,0,L|378:228,1,107,6|2,3:2|3:0,0:0:0:0:
305,289,7599,6,0,P|263:256|221:259,2,80.25,8|8|8,2:0|2:0|2:0,0:0:0:0:
318,340,8330,1,12,2:0:0:0:
502,231,9062,6,0,P|506:177|484:118,1,107,6|10,3:2|2:0,0:0:0:0:
454,26,9794,2,0,L|396:20,1,53.5,2|0,3:0|0:0,0:0:0:0:
347,25,10160,1,10,3:2:0:0:
257,83,10526,2,0,P|252:136|243:189,1,107,2|10,3:0|2:0,0:0:0:0:
166,263,11257,2,0,P|135:265|110:267,1,53.5,2|0,3:0|0:0,0:0:0:0:
58,267,11623,1,10,3:2:0:0:
6,173,11989,6,0,B|28:153|28:153|19:75,1,107,2|10,3:2|2:0,0:0:0:0:
43,28,12538,1,10,2:0:0:0:
43,28,12721,2,0,P|87:35|108:48,1,53.5,10|10,0:3|0:3,0:0:0:0:
138,70,13087,1,6,0:3:0:0:
238,106,13452,6,0,L|250:206,2,80.25,10|10|10,2:0|2:0|2:0,0:0:0:0:
278,70,14184,1,10,2:0:0:0:
463,177,14916,6,0,B|446:206|446:206|455:279,1,107,4|0,3:2|3:0,0:0:0:0:
435,331,15465,1,10,2:0:0:0:
435,331,15648,2,0,B|381:341|381:341|316:329,1,107,2|10,3:2|3:2,0:0:0:0:
261,248,16379,2,0,L|147:242,1,107,8|2,3:2|3:0,0:0:0:0:
105,266,16928,1,10,2:0:0:0:
105,266,17111,2,0,B|131:242|131:242|120:158,1,107,2|10,3:0|3:2,0:0:0:0:
219,126,17843,6,0,B|273:132|273:132|330:109,1,107,8|2,3:2|3:2,0:0:0:0:
361,148,18391,1,10,2:0:0:0:
361,148,18574,2,0,L|346:271,1,107,2|10,3:2|3:2,0:0:0:0:
428,325,19306,2,0,P|482:328|506:273,1,107,8|2,3:2|3:0,0:0:0:0:
505,233,19855,1,10,2:0:0:0:
505,233,20038,2,0,L|498:169,1,53.5,2|6,3:0|0:3,0:0:0:0:
495,126,20404,1,10,3:2:0:0:
413,54,20769,6,0,P|331:37|301:43,1,107,8|2,3:2|3:2,0:0:0:0:
272,79,21318,1,10,2:0:0:0:
272,79,21501,2,0,B|240:92|240:92|159:82,1,107,2|10,3:2|3:2,0:0:0:0:
144,187,22233,2,0,P|136:237|125:297,1,107,8|2,3:2|3:0,0:0:0:0:
154,344,22782,1,10,2:0:0:0:
154,344,22965,2,0,B|181:327|181:327|269:334,1,107,0|2,3:0|3:0,0:0:0:0:
355,272,23696,5,14,3:2:0:0:
299,180,24062,1,2,3:0:0:0:
359,91,24428,2,0,P|386:77|470:86,1,107,2|4,3:0|0:3,0:0:0:0:
504,179,25160,2,0,L|496:288,1,107,12|4,3:2|3:0,0:0:0:0:
469,332,25708,1,14,2:0:0:0:
361,329,26074,2,0,L|370:384,2,53.5,2|8|8,3:0|2:0|2:0,0:0:0:0:
322,291,26623,6,0,L|330:235,1,53.5,4|2,3:2|2:0,0:0:0:0:
298,194,26989,2,0,L|285:78,1,107,10|2,3:2|3:0,0:0:0:0:
189,41,27721,1,10,3:2:0:0:
189,41,27904,2,0,P|149:46|113:111,1,107,2|2,2:0|2:0,0:0:0:0:
45,180,28635,2,0,P|85:185|121:250,1,107,2|2,2:0|2:0,0:0:0:0:
125,290,29184,1,10,3:2:0:0:
205,361,29550,6,0,L|261:353,1,53.5,0|2,3:0|2:0,0:0:0:0:
289,309,29916,2,0,B|321:323|321:323|401:311,1,107,10|2,3:2|3:0,0:0:0:0:
436,281,30465,1,2,3:2:0:0:
366,199,30830,2,0,P|339:163|354:88,1,107,2|2,2:0|2:0,0:0:0:0:
373,58,31379,1,8,3:2:0:0:
373,58,31562,2,0,P|322:54|261:53,1,107,2|10,2:0|2:0,0:0:0:0:
232,94,32111,1,14,2:0:0:0:
181,188,32477,6,0,L|117:178,1,53.5,4|2,3:2|2:0,0:0:0:0:
108,129,32843,2,0,P|117:91|89:21,1,107,10|2,3:2|3:0,0:0:0:0:
4,83,33574,1,10,3:2:0:0:
4,83,33757,2,0,L|12:205,1,107,2|2,2:0|2:0,0:0:0:0:
72,278,34489,2,0,P|110:291|177:258,1,107,2|0,2:0|0:0,0:0:0:0:
199,222,35038,1,10,3:2:0:0:
185,115,35404,6,0,L|195:57,2,53.5,2|10|10,3:0|2:0|2:0,0:0:0:0:
284,75,36135,2,0,L|274:17,2,53.5,10|10|6,0:3|0:3|0:3,0:0:0:0:
366,143,36867,2,0,L|349:261,1,107,12|0,3:2|3:0,0:0:0:0:
368,299,37416,2,0,P|412:331|461:306,1,107,8|8,0:2|0:3,0:0:0:0:
482,265,37965,1,6,0:3:0:0:
493,158,38330,6,0,P|485:102|457:46,1,107,14|0,3:2|0:0,0:0:0:0:
415,33,38879,1,10,2:0:0:0:
415,33,39062,2,0,B|375:49|375:49|296:33,1,107,2|10,2:0|2:0,0:0:0:0:
231,107,39794,2,0,B|219:163|219:163|249:200,2,80.25,2|2|10,3:0|3:0|3:2,0:0:0:0:
133,63,40708,1,0,3:0:0:0:
133,63,40891,2,0,P|94:58|66:58,1,53.5,10|2,2:0|2:0,0:0:0:0:
33,85,41257,5,10,2:0:0:0:
99,168,41623,1,2,3:0:0:0:
34,253,41989,2,0,P|21:321|14:366,1,107,2|10,2:0|2:0,0:0:0:0:
121,375,42721,5,10,2:0:0:0:
213,321,43087,1,10,2:0:0:0:
309,365,43452,1,10,2:0:0:0:
392,297,43818,1,10,2:0:0:0:
330,214,44186,6,0,B|297:196|297:196|216:190,1,107,14|8,3:2|3:3,0:0:0:0:
181,217,44731,1,14,2:0:0:0:
181,217,44932,1,10,3:3:0:0:
86,167,45295,1,12,0:2:0:0:
150,82,45659,6,0,B|183:64|183:64|268:58,1,107,12|8,0:2|3:3,0:0:0:0:
294,91,46204,1,14,2:0:0:0:
294,91,46377,1,8,3:3:0:0:
380,158,46756,6,0,L|368:228,1,53.5,6|2,3:2|2:0,0:0:0:0:
405,251,47117,2,0,L|417:321,1,53.5,6|2,3:2|2:0,0:0:0:0:
378,343,47478,1,10,2:0:0:0:
275,313,47840,6,0,P|235:297|167:298,1,104,10|10,2:0|2:0,0:0:0:0:
121,322,48398,1,2,3:2:0:0:
64,225,48770,2,0,L|72:163,1,60,8|4,2:0|3:0,0:0:0:0:
173,132,49306,1,8,2:0:0:0:
173,132,49484,1,8,2:0:0:0:
332,61,50026,6,0,P|382:49|432:94,1,123.5,6|10,3:2|3:2,0:0:0:0:
470,137,50591,1,2,2:0:0:0:
470,137,50774,2,0,P|420:125|366:174,1,117.700003591919,2|10,3:0|3:2,0:0:0:0:
336,210,51323,1,2,2:0:0:0:
336,210,51506,1,2,3:0:0:0:
253,277,51871,1,2,3:0:0:0:
188,178,52237,2,0,B|212:148|212:148|194:61,1,117.700003591919,2|8,3:0|3:2,0:0:0:0:
80,44,52969,6,0,P|55:33|17:39,1,58.8500017959595,0|2,3:3|2:0,0:0:0:0:
8,95,53335,1,10,3:2:0:0:
8,95,53518,2,0,L|27:220,1,117.700003591919,2|2,2:0|2:0,0:0:0:0:
19,270,54067,1,10,3:2:0:0:
107,348,54433,2,0,P|152:372|223:366,1,117.700003591919,2|2,3:0|3:0,0:0:0:0:
251,321,54981,1,10,2:0:0:0:
251,321,55164,2,0,L|261:262,1,58.8500017959595,2|0,3:0|0:0,0:0:0:0:
273,205,55530,1,10,2:0:0:0:
326,100,55896,6,0,P|382:107|442:155,1,117.700003591919,6|10,3:2|3:2,0:0:0:0:
483,179,56445,1,2,2:0:0:0:
483,179,56628,2,0,P|427:186|367:234,1,117.700003591919,2|10,3:0|3:2,0:0:0:0:
346,270,57177,1,2,2:0:0:0:
346,270,57360,1,2,3:0:0:0:
265,355,57725,1,2,3:0:0:0:
161,299,58091,2,0,B|133:283|133:283|31:292,1,117.700003591919,2|8,3:0|3:2,0:0:0:0:
4,174,58823,6,0,L|9:103,1,58.8500017959595,0|2,3:2|2:0,0:0:0:0:
52,76,59188,2,0,B|111:92|111:92|167:59,1,117.700003591919,10|2,3:2|3:0,0:0:0:0:
214,36,59737,1,2,2:0:0:0:
214,36,59920,1,10,3:2:0:0:
287,127,60286,2,0,P|277:194|272:249,1,117.700003591919,2|2,3:2|3:0,0:0:0:0:
299,301,60835,1,10,2:0:0:0:
299,301,61018,1,2,3:2:0:0:
414,324,61384,2,0,P|471:299|486:298,1,58.8500017959595,10|10,3:2|2:0,0:0:0:0:
496,248,61750,6,0,P|454:211|455:140,1,117.700003591919,6|2,3:2|3:2,0:0:0:0:
443,97,62299,1,10,2:0:0:0:
443,97,62482,2,0,P|406:55|335:56,1,117.700003591919,2|2,3:2|3:2,0:0:0:0:
297,77,63030,1,10,2:0:0:0:
297,77,63213,1,6,3:2:0:0:
193,132,63579,1,2,3:2:0:0:
80,97,63945,2,0,P|71:172|65:227,1,117.700003591919,2|8,3:2|0:3,0:0:0:0:
66,332,64677,6,0,L|138:317,1,58.8500017959595,4|2,3:2|2:0,0:0:0:0:
171,353,65042,2,0,L|243:338,1,58.8500017959595,2|10,3:2|2:0,0:0:0:0:
285,356,65408,2,0,P|324:347|312:268,1,117.700003591919,2|2,3:2|3:2,0:0:0:0:
227,218,66140,2,0,P|218:170|214:142,1,58.8500017959595,10|10,2:0|2:0,0:0:0:0:
254,114,66506,2,0,P|263:66|267:38,1,58.8500017959595,10|10,2:0|2:0,0:0:0:0:
306,14,66872,1,14,2:0:0:0:
391,98,67238,2,0,P|405:143|408:167,1,58.8500017959595,14|2,2:0|2:0,0:0:0:0:
385,209,67603,6,0,P|349:194|284:249,1,117.700003591919,6|10,3:2|3:2,0:0:0:0:
262,288,68152,1,2,2:0:0:0:
262,288,68335,2,0,P|298:273|363:328,1,117.700003591919,2|10,3:0|0:2,0:0:0:0:
391,361,68884,1,2,0:2:0:0:
391,361,69067,1,6,3:2:0:0:
476,280,69433,1,2,3:0:0:0:
403,187,69799,2,0,P|372:169|288:156,1,117.700003591919,2|8,3:2|0:2,0:0:0:0:
193,220,70530,6,0,P|152:231|121:233,1,58.8500017959595,4|2,3:2|2:0,0:0:0:0:
84,202,70896,2,0,P|53:171|36:146,1,58.8500017959595,10|10,2:0|2:0,0:0:0:0:
25,102,71262,2,0,P|48:53|111:39,1,117.700003591919,10|10,2:0|2:0,0:0:0:0:
164,32,71810,1,10,2:3:0:0:
164,32,71994,1,10,2:0:0:0:
281,27,72360,1,10,2:0:0:0:
352,119,72725,2,0,P|345:181|337:244,1,117.700003591919,10|8,2:0|2:0,0:0:0:0:
317,293,73274,1,10,2:0:0:0:
317,293,73457,6,0,P|263:286|246:282,1,58.8500017959595,14|10,2:0|2:0,0:0:0:0:
220,239,73823,2,0,P|166:246|149:250,1,58.8500017959595,10|10,2:0|2:0,0:0:0:0:
123,291,74188,1,14,2:0:0:0:
57,192,74554,1,10,2:0:0:0:
156,153,74920,6,0,B|180:132|180:132|157:42,1,107,6|2,3:2|3:2,0:0:0:0:
64,13,75652,2,0,B|40:34|40:34|63:124,1,107,2|2,3:2|3:2,0:0:0:0:
44,160,76200,1,10,2:0:0:0:
44,160,76383,2,0,P|32:210|22:270,1,107,2|2,3:2|3:2,0:0:0:0:
99,339,77115,2,0,B|130:321|130:321|213:328,1,107,2|2,3:2|3:2,0:0:0:0:
250,359,77664,1,10,2:0:0:0:
250,359,77847,6,0,P|279:338|271:261,1,107,2|2,3:2|3:2,0:0:0:0:
202,197,78579,2,0,P|173:176|181:99,1,107,2|2,3:2|3:2,0:0:0:0:
216,78,79127,1,10,2:0:0:0:
216,78,79310,2,0,B|247:89|247:89|329:71,1,107,2|2,3:2|3:2,0:0:0:0:
407,133,80042,2,0,L|388:257,1,107,6|10,3:3|2:0,0:0:0:0:
348,270,80590,1,6,3:0:0:0:
348,270,80774,5,6,3:2:0:0:
244,295,81140,2,0,L|185:289,1,53.5
138,280,81505,1,0,0:0:0:0:
134,173,81871,2,0,L|193:167,1,53.5,0|2,0:0|3:0,0:0:0:0:
240,162,82237,6,0,B|266:180|266:180|345:169,1,107,10|10,2:0|2:0,0:0:0:0:
397,163,82786,1,10,2:0:0:0:
397,163,82969,1,10,3:0:0:0:
486,220,83335,1,0,3:0:0:0:
403,288,83701,6,0,P|361:279|345:278,1,53.5,10|10,2:0|2:0,0:0:0:0:
297,270,84066,2,0,P|254:275|239:280,1,53.5,10|10,2:0|2:0,0:0:0:0:
199,308,84432,2,0,P|156:302|141:297,1,53.5,10|10,2:0|2:0,0:0:0:0:
104,275,84798,1,10,2:0:0:0:
104,275,84981,1,10,2:0:0:0:
