osu file format v14

[General]
AudioFilename: audio.mp3
AudioLeadIn: 0
PreviewTime: 50937
Countdown: 0
SampleSet: Soft
StackLeniency: 0.4
Mode: 0
LetterboxInBreaks: 0
WidescreenStoryboard: 0

[Editor]
DistanceSpacing: 0.9
BeatDivisor: 4
GridSize: 16
TimelineZoom: 2.5

[Metadata]
Title:Kagerou (TV Size)
TitleUnicode:カゲロウ (TV Size)
Artist:ReaL
ArtistUnicode:ЯeaL
Creator:Milar001
Version:Normal
Source:Gintama.
Tags:銀魂。 gintama season 5 2017 period full stop final terminal japanese anime opening op 18 リアル jrock j-rock rock 19. 19 mayfly
BeatmapID:2793179
BeatmapSetID:1104046

[Difficulty]
HPDrainRate:3.5
CircleSize:3.5
OverallDifficulty:5
ApproachRate:6
SliderMultiplier:1.1
SliderTickRate:1

[Events]
//Background and Video events
0,0,"cropped-1366-768-227339.jpg",0,0
//Break Periods
//Storyboard Layer 0 (Background)
//Storyboard Layer 1 (Fail)
//Storyboard Layer 2 (Pass)
//Storyboard Layer 3 (Foreground)
//Storyboard Layer 4 (Overlay)
//Storyboard Sound Samples

[TimingPoints]
1569,365.853658536585,4,2,1,20,1,0
3024,346.820809248555,4,2,1,70,1,0
3717,-100,4,2,1,40,0,0
4064,-100,4,2,1,20,0,0
4475,365.853658536585,4,2,1,60,1,0
4475,-100,4,2,1,60,0,0
4840,-100,4,2,1,40,0,0
5206,-100,4,2,1,60,0,0
5572,-100,4,2,1,40,0,0
5938,-100,4,2,1,50,0,0
8865,-100,4,2,1,50,0,0
9596,-100,4,2,1,50,0,0
10328,-100,4,2,1,70,0,0
13621,-100,4,2,1,70,0,0
13667,-100,4,2,1,5,0,0
13804,-100,4,2,1,70,0,0
13849,-100,4,2,1,5,0,0
13987,-100,4,2,1,60,0,0
14718,-100,4,2,1,70,0,0
16182,-100,4,2,1,50,0,0
22035,-100,4,2,2,50,0,0
22218,-100,4,2,1,50,0,0
24962,-100,4,2,1,60,0,0
33194,-100,4,2,1,60,0,0
33240,-100,4,2,1,5,0,0
33377,-100,4,2,1,60,0,0
33423,-100,4,2,1,5,0,0
33743,-100,4,2,1,60,0,0
36853,-100,4,2,1,60,0,0
36898,-100,4,2,1,5,0,0
37035,-100,4,2,1,60,0,0
37081,-100,4,2,1,5,0,0
37218,-100,4,2,1,50,0,0
37310,-100,4,2,1,5,0,0
37401,-100,4,2,1,50,0,0
38042,-100,4,2,1,5,0,0
38133,-100,4,2,1,50,0,0
39505,-100,4,2,1,5,0,0
39596,-100,4,2,1,50,0,0
41060,-100,4,2,1,60,0,0
41106,-100,4,2,1,5,0,0
41334,-100,4,2,1,60,0,0
41380,-100,4,2,1,5,0,0
41609,-100,4,2,1,60,0,0
42157,-100,4,2,1,50,0,0
43987,-100,4,2,1,40,0,0
45450,-100,4,2,2,60,0,0
45542,-100,4,2,1,60,0,0
48377,-100,4,2,1,70,0,0
49954,346.820809248555,4,2,1,70,1,0
50206,365.853658536585,4,2,1,60,1,0
50571,-100,4,2,1,70,0,0
51304,365.853658536585,4,2,1,80,1,1
51304,-100,4,2,1,80,0,1
56608,-100,4,2,1,80,0,1
56654,-100,4,2,1,5,0,1
56792,-100,4,2,1,80,0,1
56837,-100,4,2,1,5,0,1
56974,-100,4,2,1,80,0,0
57066,-100,4,2,1,5,0,0
57157,-100,4,2,1,80,0,1
62828,-100,4,2,1,80,0,0
63011,-100,4,2,1,80,0,1
68133,-100,4,2,1,60,0,0
68864,-100,4,2,1,80,0,1
76090,-100,4,2,1,5,0,1
76182,-100,4,2,1,70,0,0
82035,-100,4,2,1,60,0,0
83499,-100,4,2,1,70,0,0
84230,-100,4,2,1,60,0,0
84962,-100,4,2,1,70,0,0
86243,-100,4,2,1,70,0,0
86974,-100,4,2,1,40,0,0

[Colours]
Combo1 : 255,128,0
Combo2 : 255,0,128
Combo3 : 0,128,64

[HitObjects]
64,88,3024,6,0,P|85:137|149:133,2,110,8|8|2,0:1|0:1|1:0,0:0:0:0:
259,13,4475,6,0,L|254:130,1,110,6|2,1:2|0:0,0:0:0:0:
318,198,5206,2,0,L|323:315,1,110,6|2,1:2|0:0,0:0:0:0:
232,350,5938,6,0,P|213:305|242:249,1,110,4|0,1:2|1:0,0:0:0:0:
318,198,6670,2,0,P|370:215|421:197,1,110,4|0,1:2|1:0,0:0:0:0:
367,111,7401,2,0,L|247:106,2,110,6|2|4,1:2|1:0|1:2,0:0:0:0:
445,50,8499,1,0,1:0:0:0:
475,144,8865,6,0,B|472:188|472:188|465:198|465:198|460:245,2,82.5,8|8|8,0:1|0:1|0:1,0:0:0:0:
512,111,9596,1,14,0:1:0:0:
302,170,10328,6,0,P|270:127|200:135,1,110,6|8,1:2|0:1,0:0:0:0:
175,152,10877,1,2,0:0:0:0:
175,152,11060,2,0,L|180:277,1,110,0|10,1:0|0:1,0:0:0:0:
173,361,11792,6,0,L|54:339,1,110,2|10,1:0|0:1,0:0:0:0:
20,334,12340,1,2,0:0:0:0:
20,334,12523,2,0,P|23:363|54:391,2,55,0|0|10,1:0|0:0|0:1,0:0:0:0:
71,249,13255,6,0,L|62:132,1,110,2|8,1:0|0:1,0:0:0:0:
56,89,13804,1,8,0:1:0:0:
56,89,13987,2,0,L|-2:85,2,55,8|8|4,0:3|0:3|0:3,0:0:0:0:
134,29,14718,6,0,B|175:14|175:14|187:17|187:17|232:3,2,82.5,8|8|8,0:1|0:1|0:1,0:0:0:0:
90,11,15450,1,14,0:1:0:0:
258,116,16182,5,6,1:2:0:0:
258,116,16365,2,0,P|270:171|240:230,1,110,0|8,0:0|0:1,0:0:0:0:
219,258,16914,2,0,L|139:262,2,55,0|0|8,1:0|0:0|0:1,0:0:0:0:
186,354,17645,1,8,0:1:0:0:
186,354,17828,2,0,L|319:360,2,110,0|8|0,0:0|0:1|0:0,0:0:0:0:
145,382,18743,1,8,0:1:0:0:
63,325,19109,6,0,L|61:258,1,55,8|0,0:1|0:0,0:0:0:0:
95,233,19474,1,0,1:0:0:0:
95,233,19657,2,0,L|97:166,2,55,8|0|0,0:1|1:0|0:0,0:0:0:0:
136,260,20206,1,8,0:1:0:0:
177,172,20572,1,8,0:1:0:0:
177,172,20755,2,0,P|233:162|294:193,2,110,0|8|0,0:0|0:1|0:0,0:0:0:0:
138,141,21670,1,12,0:1:0:0:
102,48,22035,6,0,L|168:44,1,55,12|0,1:2|0:0,0:0:0:0:
195,13,22401,2,0,L|261:17,2,55,0|8|0,1:0|0:1|1:0,0:0:0:0:
228,106,23133,1,8,0:1:0:0:
228,106,23316,2,0,L|233:173,1,55,0|8,0:0|0:1,0:0:0:0:
243,209,23682,2,0,P|216:196|134:206,2,110,0|8|0,0:0|0:1|0:0,0:0:0:0:
265,252,24596,1,0,1:0:0:0:
322,332,24962,6,0,L|441:337,1,110,10|0,0:1|1:0,0:0:0:0:
484,332,25511,1,14,0:1:0:0:
484,332,25694,2,0,P|510:286|502:230,1,110,0|0,1:0|1:0,0:0:0:0:
436,157,26426,1,14,0:1:0:0:
486,16,26974,2,0,B|433:2|433:2|368:17,1,110,14|2,0:1|1:2,0:0:0:0:
346,51,27523,1,10,0:1:0:0:
276,121,27889,6,0,L|280:247,1,110,4|8,1:2|0:1,0:0:0:0:
281,284,28438,1,2,0:0:0:0:
281,283,28621,2,0,P|255:331|204:347,1,110,2|8,1:0|0:1,0:0:0:0:
155,336,29170,1,2,0:0:0:0:
80,271,29535,2,0,L|78:208,1,55,2|8,0:0|0:1,0:0:0:0:
111,179,29901,1,2,0:0:0:0:
111,179,30084,2,0,L|112:124,1,55,2|2,1:0|0:0,0:0:0:0:
116,74,30450,1,8,0:1:0:0:
201,24,30816,6,0,P|251:8|311:30,1,110,0|8,1:0|0:1,0:0:0:0:
337,62,31365,1,2,0:0:0:0:
337,62,31548,2,0,P|392:79|446:57,1,110,2|8,1:0|0:1,0:0:0:0:
478,31,32096,1,2,0:0:0:0:
506,125,32462,2,0,L|508:183,2,55,2|8|2,0:0|0:1|0:0,0:0:0:0:
414,156,33194,1,8,0:1:0:0:
414,156,33377,1,8,0:1:0:0:
337,219,33743,6,0,L|332:344,1,110,4|8,1:2|0:1,0:0:0:0:
301,367,34292,1,2,0:0:0:0:
301,367,34474,2,0,L|174:375,1,110,2|8,1:0|0:1,0:0:0:0:
159,335,35023,2,0,P|117:326|59:362,2,110,2|2|2,0:0|0:0|0:0,0:0:0:0:
272,238,36304,2,0,L|275:180,2,55,8|2|0,0:1|0:0|1:0,0:0:0:0:
311,268,36853,5,8,0:1:0:0:
311,268,37035,2,0,L|377:271,1,55,8|0,0:1|0:0,0:0:0:0:
409,294,37401,2,0,P|454:276|473:211,1,110,8|4,0:3|0:3,0:0:0:0:
423,136,38133,2,0,B|368:122|368:149|313:136,1,110,10|0,0:1|1:0,0:0:0:0:
290,92,38682,2,0,P|247:73|242:164,1,165,10|0,0:1|1:0,0:0:0:0:
306,221,39596,6,0,L|301:332,1,110,4|2,1:2|0:0,0:0:0:0:
268,368,40145,1,8,0:1:0:0:
268,368,40328,2,0,P|211:380|157:364,1,110,0|8,0:0|0:1,0:0:0:0:
137,270,41060,2,0,B|102:284|102:284|90:297|90:297|48:314,2,82.5,0|0|12,1:0|1:0|0:1,0:0:0:0:
216,144,42157,2,0,L|219:83,1,55,8|0,0:1|0:0,0:0:0:0:
228,40,42523,6,0,P|277:17|332:19,1,110,8|0,0:1|1:0,0:0:0:0:
363,56,43072,1,12,0:1:0:0:
363,56,43255,2,0,B|420:68|420:68|482:54,1,110,2|8,0:0|0:1,0:0:0:0:
464,155,43987,1,8,0:1:0:0:
505,244,44353,1,8,0:1:0:0:
416,285,44718,1,8,0:1:0:0:
375,196,45084,1,8,0:1:0:0:
379,97,45450,6,0,P|327:106|282:145,1,110,12|0,0:0|1:0,0:0:0:0:
262,188,45999,1,8,0:1:0:0:
262,188,46182,2,0,L|266:253,1,55,0|0,1:0|1:0,0:0:0:0:
268,292,46548,1,8,0:1:0:0:
192,355,46914,2,8,P|130:367|77:355,1,110,8|0,0:1|1:0,0:0:0:0:
50,322,47462,2,8,L|54:203,1,110,8|0,0:1|1:0,0:0:0:0:
93,181,48011,2,0,L|95:125,1,55,8|0,0:1|0:0,0:0:0:0:
93,76,48377,5,0,1:0:0:0:
166,9,48743,2,0,L|228:9,1,55,8|8,0:1|0:1,0:0:0:0:
251,47,49109,2,0,L|313:47,2,55,8|8|8,0:1|0:1|0:1,0:0:0:0:
220,86,49657,2,0,L|226:207,1,115,0|8,1:0|0:1,0:0:0:0:
241,348,50571,5,8,0:1:0:0:
241,348,50754,1,8,0:1:0:0:
392,355,51304,6,0,P|400:298|382:239,1,110,6|10,1:2|0:1,0:0:0:0:
351,215,51852,1,2,0:0:0:0:
351,215,52035,2,0,L|353:96,1,110,2|10,1:0|0:1,0:0:0:0:
310,15,52767,2,0,P|351:6|390:15,2,82.5,2|10|10,1:0|0:1|0:1,0:0:0:0:
272,48,53499,2,0,L|212:45,2,55,2|0|8,1:0|0:0|0:1,0:0:0:0:
231,138,54230,6,0,L|111:144,1,110,0|10,1:0|0:1,0:0:0:0:
75,151,54779,1,2,0:0:0:0:
75,151,54962,2,0,P|60:208|77:260,1,110,2|10,1:0|0:1,0:0:0:0:
119,343,55694,2,0,L|25:348,2,82.5,2|8|10,1:0|0:1|0:1,0:0:0:0:
162,366,56425,1,2,1:0:0:0:
162,366,56608,2,0,L|223:374,1,55,8|10,0:1|0:1,0:0:0:0:
298,317,57157,6,0,L|294:190,1,110,6|10,1:2|0:1,0:0:0:0:
333,175,57706,1,2,0:0:0:0:
333,175,57889,2,0,P|384:190|437:169,1,110,2|10,1:0|0:1,0:0:0:0:
382,86,58621,2,0,L|469:83,2,82.5,2|10|10,1:0|0:1|0:1,0:0:0:0:
343,54,59352,2,0,L|285:52,2,55,2|0|8,1:0|0:0|0:1,0:0:0:0:
313,148,60084,6,0,P|323:206|305:271,1,110,0|10,1:0|0:1,0:0:0:0:
292,301,60633,1,2,0:0:0:0:
292,301,60816,2,0,L|165:306,1,110,2|10,1:0|0:1,0:0:0:0:
88,273,61547,2,0,L|93:364,2,82.5,2|8|10,1:0|0:1|0:1,0:0:0:0:
49,241,62279,2,0,L|50:178,1,55,10|8,0:1|0:1,0:0:0:0:
85,151,62645,2,0,L|84:88,1,55,8|8,0:1|0:1,0:0:0:0:
87,46,63011,6,0,L|178:45,2,82.5,6|8|10,1:2|0:1|0:1,0:0:0:0:
84,96,63743,2,0,L|-7:95,2,82.5,2|8|10,1:0|0:1|0:1,0:0:0:0:
85,145,64474,2,0,L|176:144,2,82.5,2|10|10,1:0|0:1|0:1,0:0:0:0:
56,185,65206,2,0,P|40:241|62:297,1,110,8|4,0:3|0:3,0:0:0:0:
152,284,65938,6,0,L|142:372,2,82.5,2|8|10,1:0|0:1|0:1,0:0:0:0:
190,252,66669,2,0,L|180:163,2,82.5,2|8|10,1:0|0:1|0:1,0:0:0:0:
235,271,67401,2,0,P|289:280|349:256,2,110,8|8|2,0:1|0:1|1:0,0:0:0:0:
282,184,68499,1,2,1:0:0:0:
334,100,68864,6,0,P|386:85|440:101,1,110,6|10,1:2|0:1,0:0:0:0:
473,134,69413,1,2,0:0:0:0:
473,134,69596,2,0,L|471:249,1,110,2|10,1:0|0:1,0:0:0:0:
390,301,70328,2,0,L|394:383,2,82.5,2|10|10,1:0|0:1|0:1,0:0:0:0:
350,270,71060,2,0,L|352:216,2,55,2|0|8,1:0|0:0|0:1,0:0:0:0:
266,322,71791,6,0,L|268:376,2,55,2|2|10,1:0|0:0|0:1,0:0:0:0:
229,288,72340,1,10,0:1:0:0:
229,288,72523,2,0,P|204:238|154:216,1,110,10|10,0:1|0:1,0:0:0:0:
115,241,73072,1,2,1:0:0:0:
115,241,73255,2,0,L|113:353,2,110,14|14|14,0:1|0:1|0:1,0:0:0:0:
47,168,74352,1,8,0:1:0:0:
114,95,74718,6,0,L|171:92,1,55,10|10,0:1|0:1,0:0:0:0:
209,63,75084,2,0,L|266:66,2,55,10|10|10,0:1|0:1|0:1,0:0:0:0:
189,23,75633,1,2,1:0:0:0:
189,23,75816,1,14,0:1:0:0:
114,95,76182,6,0,L|119:205,1,110,6|0,1:2|1:0,0:0:0:0:
98,251,76730,1,8,0:1:0:0:
98,251,76913,2,0,L|101:313,2,55,0|0|0,1:0|0:0|1:0,0:0:0:0:
204,280,77645,2,0,P|261:292|314:275,1,110,0|0,1:0|1:0,0:0:0:0:
330,234,78194,1,8,0:1:0:0:
330,234,78377,2,0,L|406:229,1,55,0|0,1:0|0:0,0:0:0:0:
421,263,78743,2,0,L|497:268,1,55,0|8,1:0|0:1,0:0:0:0:
502,224,79108,6,0,L|496:102,1,110,0|0,1:0|1:0,0:0:0:0:
461,79,79657,1,8,0:1:0:0:
461,79,79840,2,0,L|464:18,2,55,0|0|0,1:0|0:0|1:0,0:0:0:0:
368,115,80572,6,0,B|314:129|314:129|261:117,1,110,0|0,1:0|1:0,0:0:0:0:
214,100,81121,1,8,0:1:0:0:
214,100,81303,2,0,L|82:103,1,110,0|10,1:0|0:1,0:0:0:0:
5,114,82035,5,2,1:0:0:0:
84,250,83499,2,0,L|90:364,2,110,8|8|8,0:1|0:1|0:1,0:0:0:0:
139,168,84596,1,0,1:0:0:0:
197,88,84962,6,0,L|196:28,2,55,8|8|8,0:1|0:1|0:1,0:0:0:0:
229,126,85511,1,8,0:1:0:0:
229,126,85694,2,0,L|228:186,2,55,8|8|8,0:1|0:1|0:1,0:0:0:0:
275,105,86243,1,14,0:1:0:0:
