osu file format v14

[General]
AudioFilename: audio.mp3
AudioLeadIn: 0
PreviewTime: 50937
Countdown: 0
SampleSet: Soft
StackLeniency: 0.4
Mode: 0
LetterboxInBreaks: 0
WidescreenStoryboard: 1

[Editor]
DistanceSpacing: 0.4
BeatDivisor: 4
GridSize: 16
TimelineZoom: 2.5

[Metadata]
Title:Kagerou (TV Size)
TitleUnicode:カゲロウ (TV Size)
Artist:ReaL
ArtistUnicode:ЯeaL
Creator:Milar001
Version:Insane
Source:Gintama.
Tags:銀魂。 gintama season 5 2017 period full stop final terminal japanese anime opening op 18 リアル jrock j-rock rock 19. 19 mayfly
BeatmapID:2788250
BeatmapSetID:1104046

[Difficulty]
HPDrainRate:5.5
CircleSize:4.2
OverallDifficulty:8
ApproachRate:9
SliderMultiplier:1.8
SliderTickRate:1

[Events]
//Background and Video events
0,0,"cropped-1366-768-227339.jpg",0,0
//Break Periods
//Storyboard Layer 0 (Background)
//Storyboard Layer 1 (Fail)
//Storyboard Layer 2 (Pass)
//Storyboard Layer 3 (Foreground)
//Storyboard Layer 4 (Overlay)
//Storyboard Sound Samples

[TimingPoints]
1569,365.853658536585,4,2,1,20,1,0
3024,346.820809248555,4,2,1,70,1,0
3717,-400,4,2,1,40,0,0
4064,-133.333333333333,4,2,1,20,0,0
4475,365.853658536585,4,2,1,50,1,0
4475,-100,4,2,1,60,0,0
4840,-100,4,2,1,40,0,0
5206,-100,4,2,1,60,0,0
5572,-100,4,2,1,40,0,0
5938,-133.333333333333,4,2,1,50,0,0
8865,-83.3333333333333,4,2,1,50,0,0
9596,-100,4,2,1,50,0,0
10328,-100,4,2,1,70,0,0
13621,-66.6666666666667,4,2,1,70,0,0
13667,-66.6666666666667,4,2,1,5,0,0
13804,-66.6666666666667,4,2,1,70,0,0
13849,-66.6666666666667,4,2,1,5,0,0
13987,-100,4,2,1,60,0,0
14718,-83.3333333333333,4,2,1,70,0,0
16182,-117.647058823529,4,2,1,50,0,0
21944,-117.647058823529,4,2,1,5,0,0
22035,-117.647058823529,4,2,2,50,0,0
22218,-117.647058823529,4,2,1,50,0,0
24962,-100,4,2,1,60,0,0
33194,-66.6666666666667,4,2,1,60,0,0
33240,-66.6666666666667,4,2,1,5,0,0
33377,-66.6666666666667,4,2,1,60,0,0
33423,-66.6666666666667,4,2,1,5,0,0
33743,-100,4,2,1,60,0,0
36853,-66.6666666666667,4,2,1,60,0,0
36898,-66.6666666666667,4,2,1,5,0,0
37035,-66.6666666666667,4,2,1,60,0,0
37081,-66.6666666666667,4,2,1,5,0,0
37218,-200,4,2,1,50,0,0
37310,-117.647058823529,4,2,1,5,0,0
37401,-117.647058823529,4,2,1,50,0,0
38042,-117.647058823529,4,2,1,5,0,0
38133,-117.647058823529,4,2,1,50,0,0
39505,-117.647058823529,4,2,1,5,0,0
39596,-117.647058823529,4,2,1,50,0,0
41060,-100,4,2,1,60,0,0
41106,-100,4,2,1,5,0,0
41334,-100,4,2,1,60,0,0
41380,-100,4,2,1,5,0,0
41609,-100,4,2,1,60,0,0
42157,-117.647058823529,4,2,1,50,0,0
43987,-100,4,2,1,40,0,0
45450,-100,4,2,2,60,0,0
45542,-100,4,2,1,60,0,0
48377,-83.3333333333333,4,2,1,70,0,0
49954,346.820809248555,4,2,1,70,1,0
50206,365.853658536585,4,2,1,60,1,0
50571,-100,4,2,1,70,0,0
51304,365.853658536585,4,2,1,80,1,1
51304,-83.3333333333333,4,2,1,80,0,1
51578,-83.3333333333333,4,2,1,5,0,1
51669,-83.3333333333333,4,2,1,80,0,1
54139,-83.3333333333333,4,2,1,5,0,1
54230,-83.3333333333333,4,2,1,80,0,1
56608,-66.6666666666667,4,2,1,80,0,1
56654,-66.6666666666667,4,2,1,5,0,1
56792,-66.6666666666667,4,2,1,80,0,1
56837,-66.6666666666667,4,2,1,5,0,1
56974,-200,4,2,1,80,0,0
57066,-200,4,2,1,5,0,0
57157,-83.3333333333333,4,2,1,80,0,1
57432,-83.3333333333333,4,2,1,5,0,1
57523,-83.3333333333333,4,2,1,80,0,1
59993,-83.3333333333333,4,2,1,5,0,1
60084,-83.3333333333333,4,2,1,80,0,1
62828,-83.3333333333333,4,2,1,80,0,0
63011,-83.3333333333333,4,2,1,80,0,1
68133,-100,4,2,1,60,0,0
68864,-83.3333333333333,4,2,1,80,0,1
69139,-83.3333333333333,4,2,1,5,0,1
69230,-83.3333333333333,4,2,1,80,0,1
71700,-83.3333333333333,4,2,1,5,0,1
71791,-83.3333333333333,4,2,1,80,0,1
76090,-83.3333333333333,4,2,1,5,0,1
76182,-83.3333333333333,4,2,1,70,0,0
82035,-100,4,2,1,60,0,0
83499,-83.3333333333333,4,2,1,70,0,0
84230,-100,4,2,1,60,0,0
84962,-83.3333333333333,4,2,1,70,0,0
86243,-200,4,2,1,70,0,0
86974,-200,4,2,1,40,0,0

[Colours]
Combo1 : 255,128,0
Combo2 : 255,0,128
Combo3 : 0,128,64

[HitObjects]
256,192,1569,12,0,2666,0:0:0:0:
229,21,3024,5,8,0:1:0:0:
230,32,3110,1,8,0:1:0:0:
231,43,3197,1,8,0:1:0:0:
231,54,3284,1,8,0:1:0:0:
232,65,3370,1,8,0:1:0:0:
232,77,3457,1,8,0:1:0:0:
233,88,3544,1,8,0:1:0:0:
233,99,3630,1,8,0:1:0:0:
249,120,3717,6,0,L|247:169,1,45,2|0,1:0|1:0,0:0:0:0:
123,318,4475,6,0,B|217:329|198:261|292:272,1,180,6|2,1:2|0:0,0:0:0:0:
103,241,5206,2,0,P|28:223|42:298,1,180,6|2,1:2|0:0,0:0:0:0:
271,358,5938,6,0,P|310:361|348:364,1,67.5000025749208,4|0,1:2|0:0,0:0:0:0:
460,243,6304,2,0,P|421:246|383:249,1,67.5000025749208,0|0,1:0|0:0,0:0:0:0:
312,182,6670,2,0,P|317:142|321:108,1,67.5000025749208,4|0,1:2|0:0,0:0:0:0:
201,234,7035,2,0,P|206:274|210:308,1,67.5000025749208,0|0,1:0|0:0,0:0:0:0:
93,131,7401,6,0,B|141:143|141:143|171:126|171:126|220:139,2,135.000005149842,6|2|4,1:2|1:0|1:2,0:0:0:0:
8,207,8316,1,0,0:0:0:0:
99,289,8499,2,0,P|93:250|90:208,1,67.5000025749208,0|0,1:0|0:0,0:0:0:0:
273,265,8865,6,0,P|269:298|265:333,1,53.9999983520508,8|0,0:1|0:0,0:0:0:0:
354,156,9139,2,0,P|379:145|404:134,1,53.9999983520508,8|0,0:1|0:0,0:0:0:0:
219,139,9414,2,0,P|198:123|176:107,1,53.9999983520508,8|0,0:1|0:0,0:0:0:0:
282,187,9596,5,14,0:1:0:0:
409,89,10328,6,0,P|454:94|500:99,1,90,6|0,1:2|0:0,0:0:0:0:
352,16,10694,1,8,0:1:0:0:
341,194,10877,2,0,P|386:189|432:184,1,90,2|0,0:0|1:0,0:0:0:0:
462,183,11151,1,8,0:1:0:0:
462,183,11243,1,0,0:0:0:0:
399,299,11426,1,10,0:1:0:0:
409,89,11609,1,0,0:0:0:0:
205,159,11792,6,0,P|211:216|216:252,1,90,2|0,1:0|0:0,0:0:0:0:
149,360,12157,1,10,0:1:0:0:
7,205,12340,2,0,P|36:208|110:218,1,90,2|0,0:0|1:0,0:0:0:0:
128,220,12614,1,8,0:1:0:0:
128,220,12706,1,0,0:0:0:0:
86,85,12889,1,10,0:1:0:0:
48,295,13072,1,0,0:0:0:0:
243,317,13255,6,0,P|249:268|254:220,1,90,2|0,1:0|0:0,0:0:0:0:
205,105,13621,6,0,P|223:103|241:101,1,33.7500012874604,8|0,0:1|0:0,0:0:0:0:
311,22,13804,2,0,P|329:24|347:26,1,33.7500012874604,8|0,0:1|0:0,0:0:0:0:
512,114,13987,5,8,0:3:0:0:
509,133,14170,1,8,0:3:0:0:
506,153,14353,1,4,0:3:0:0:
279,323,14718,6,0,P|285:296|289:270,1,53.9999983520508,8|0,0:1|0:0,0:0:0:0:
205,105,14993,2,0,P|225:123|245:141,1,53.9999983520508,8|0,0:1|0:0,0:0:0:0:
431,150,15267,2,0,P|405:158|379:167,1,53.9999983520508,8|0,0:1|0:0,0:0:0:0:
305,193,15450,5,14,0:1:0:0:
94,112,16182,6,0,P|160:78|234:91,1,153.000002918243,6|0,1:2|1:0,0:0:0:0:
119,203,16731,1,8,0:1:0:0:
119,203,16914,2,0,P|76:200|37:197,1,76.5000014591217,0|0,1:0|0:0,0:0:0:0:
204,276,17279,2,0,P|247:273|286:270,1,76.5000014591217,8|0,0:1|0:0,0:0:0:0:
415,376,17645,6,0,B|401:320|401:320|420:286|420:286|405:230,1,153.000002918243,8|0,0:1|1:0,0:0:0:0:
341,137,18194,1,8,0:1:0:0:
341,137,18377,2,0,P|375:117|420:121,1,76.5000014591217,0|0,1:0|0:0,0:0:0:0:
313,273,18743,2,0,P|273:270|233:266,1,76.5000014591217,8|0,0:1|0:0,0:0:0:0:
82,234,19109,6,0,P|83:272|86:310,1,76.5000014591217,8|0,0:1|0:0,0:0:0:0:
189,184,19474,1,0,1:0:0:0:
99,99,19657,1,8,0:1:0:0:
99,99,19840,2,0,B|63:95|63:95|26:109,1,76.5000014591217,0|0,1:0|0:0,0:0:0:0:
189,184,20206,2,0,P|243:180|282:176,1,76.5000014591217,8|0,0:1|0:0,0:0:0:0:
421,236,20572,6,0,B|411:316|469:300|460:381,1,153.000002918243,8|0,0:1|1:0,0:0:0:0:
344,327,21121,1,8,0:1:0:0:
344,327,21304,2,0,P|290:323|251:319,1,76.5000014591217,0|0,1:0|0:0,0:0:0:0:
252,188,21670,2,0,P|306:171|361:184,1,114.750002188683,12|0,0:1|0:0,0:0:0:0:
451,157,22035,6,0,P|447:212|445:251,1,76.5000014591217,12|0,1:2|0:0,0:0:0:0:
512,72,22401,1,0,1:0:0:0:
407,9,22584,1,8,0:1:0:0:
407,9,22767,2,0,B|369:-1|369:-1|331:6,1,76.5000014591217,0|0,1:0|0:0,0:0:0:0:
251,142,23133,2,0,P|297:145|332:147,1,76.5000014591217,8|0,0:1|0:0,0:0:0:0:
136,11,23499,6,0,P|140:53|144:95,1,76.5000014591217,8|0,0:1|0:0,0:0:0:0:
216,209,23865,1,0,1:0:0:0:
300,37,24048,1,8,0:1:0:0:
300,37,24231,2,0,P|262:39|224:42,1,76.5000014591217,0|0,1:0|0:0,0:0:0:0:
414,110,24596,5,0,1:0:0:0:
412,127,24779,1,0,0:0:0:0:
216,209,24962,5,10,0:1:0:0:
205,124,25145,1,0,0:0:0:0:
195,39,25328,1,0,1:0:0:0:
399,241,25511,5,14,0:1:0:0:
412,127,25694,1,0,1:0:0:0:
425,14,25877,1,0,0:0:0:0:
279,63,26060,5,0,1:0:0:0:
297,60,26243,1,0,0:0:0:0:
317,302,26426,6,0,B|301:238|301:238|324:198|324:198|307:133,1,180,14|0,0:1|0:0,0:0:0:0:
497,262,26974,2,0,P|442:256|397:253,1,90,14|0,0:1|0:0,0:0:0:0:
370,367,27340,2,0,P|392:365|414:362,1,45,2|0,1:2|0:0,0:0:0:0:
229,276,27523,1,10,0:1:0:0:
206,278,27615,1,8,0:1:0:0:
184,279,27706,1,10,0:1:0:0:
161,280,27798,1,8,0:1:0:0:
136,262,27889,6,0,P|89:259|35:257,1,90,4|0,1:2|0:0,0:0:0:0:
258,144,28255,2,0,P|301:132|343:141,1,90,8|2,0:1|0:0,0:0:0:0:
153,90,28621,1,2,1:0:0:0:
153,90,28712,1,2,0:0:0:0:
153,90,28804,1,2,0:0:0:0:
16,8,28987,2,0,B|7:54|7:54|28:91,1,90,8|2,0:1|0:0,0:0:0:0:
193,13,29353,6,0,P|239:9|286:5,1,90,0|2,1:0|0:0,0:0:0:0:
347,65,29627,1,2,0:0:0:0:
347,65,29718,2,0,P|393:69|440:73,1,90,8|2,0:1|0:0,0:0:0:0:
258,144,30084,2,0,L|256:93,2,45,2|2|2,1:0|0:0|0:0,0:0:0:0:
386,217,30450,2,0,P|399:265|386:309,1,90,8|2,0:1|0:0,0:0:0:0:
179,264,30816,6,0,P|226:261|277:259,1,90,0|2,1:0|0:0,0:0:0:0:
169,126,31182,2,0,P|121:123|71:121,1,90,8|2,0:1|0:0,0:0:0:0:
284,24,31548,1,2,1:0:0:0:
284,24,31639,1,2,0:0:0:0:
284,24,31731,1,2,0:0:0:0:
346,152,31914,2,0,P|306:172|262:169,1,90,8|2,0:1|0:0,0:0:0:0:
463,115,32279,6,0,L|459:208,1,90,0|2,1:0|0:0,0:0:0:0:
335,360,32645,1,8,0:1:0:0:
287,267,32828,2,0,B|332:255|332:255|383:266,1,90,2|0,0:0|1:0,0:0:0:0:
164,347,33194,6,0,L|162:312,1,33.7500012874604,8|0,0:1|0:0,0:0:0:0:
96,239,33377,2,0,L|98:204,1,33.7500012874604,8|0,0:1|0:0,0:0:0:0:
103,32,33743,6,0,P|56:20|5:36,1,90,4|2,1:2|0:0,0:0:0:0:
152,153,34109,2,0,P|201:156|245:159,1,90,8|2,0:1|0:0,0:0:0:0:
14,188,34474,1,2,1:0:0:0:
14,188,34566,1,2,0:0:0:0:
14,188,34657,1,2,0:0:0:0:
98,328,34840,2,0,P|147:325|191:322,1,90,8|2,0:1|0:0,0:0:0:0:
273,229,35206,6,0,P|279:178|285:134,1,90,0|2,1:0|0:0,0:0:0:0:
431,256,35572,2,0,P|437:307|443:351,1,90,8|2,0:1|0:0,0:0:0:0:
452,138,35938,2,0,P|425:137|398:135,2,45,2|2|2,1:0|0:0|0:0,0:0:0:0:
301,58,36304,1,8,0:1:0:0:
357,213,36487,1,2,0:0:0:0:
458,3,36670,5,0,1:0:0:0:
323,134,36853,6,0,P|302:135|281:137,1,33.7500012874604,8|0,0:1|0:0,0:0:0:0:
206,56,37035,2,0,P|185:55|164:53,1,33.7500012874604,8|0,0:1|0:0,0:0:0:0:
76,39,37218,6,0,L|74:9,1,22.5
8,155,37401,5,8,0:3:0:0:
13,174,37584,1,8,0:3:0:0:
18,193,37767,1,4,0:3:0:0:
39,272,37950,2,0,L|-1:269,1,38.2500007295609
169,298,38133,6,0,B|261:282|261:282|282:305|275:343,1,153.000002918243,10|0,0:1|1:0,0:0:0:0:
349,231,38682,2,0,P|353:177|355:145,1,76.5000014591217,10|0,0:1|1:0,0:0:0:0:
202,178,39048,1,0,0:0:0:0:
274,0,39231,2,0,P|279:72|282:115,1,114.750002188683,0|0,1:0|0:0,0:0:0:0:
354,154,39596,6,0,P|417:115|490:131,1,153.000002918243,4|2,1:2|0:0,0:0:0:0:
446,296,40145,2,0,P|438:236|435:205,1,76.5000014591217,8|0,0:1|0:0,0:0:0:0:
510,359,40511,1,0,1:0:0:0:
363,247,40694,2,0,P|318:244|281:241,1,76.5000014591217,8|2,0:1|0:0,0:0:0:0:
115,289,41060,6,0,P|111:301|107:314,1,22.5,0|0,1:0|0:0,0:0:0:0:
94,201,41334,2,0,P|84:190|76:182,1,22.5,0|0,1:0|0:0,0:0:0:0:
180,226,41609,2,0,P|262:206|354:184,1,180,12|0,0:1|1:0,0:0:0:0:
401,53,42157,2,0,P|362:44|323:56,1,76.5000014591217,8|0,0:1|0:0,0:0:0:0:
465,269,42523,6,0,B|451:213|451:213|470:178|470:178|455:122,1,153.000002918243,8|0,0:1|1:0,0:0:0:0:
355,184,43072,1,12,0:1:0:0:
401,53,43255,2,0,P|441:48|477:43,1,76.5000014591217,2|0,0:0|1:0,0:0:0:0:
322,98,43529,1,0,1:0:0:0:
322,98,43621,2,0,P|282:93|246:88,1,76.5000014591217,8|0,0:1|1:0,0:0:0:0:
122,195,43987,5,8,0:1:0:0:
122,195,44353,1,8,0:1:0:0:
122,195,44718,1,8,0:1:0:0:
122,195,45084,1,8,0:1:0:0:
49,304,45450,5,12,0:0:0:0:
89,322,45542,1,0,1:0:0:0:
134,324,45633,1,0,1:0:0:0:
176,308,45724,1,0,1:0:0:0:
209,278,45816,1,0,1:0:0:0:
248,256,45907,1,0,1:0:0:0:
292,256,45999,6,8,P|290:287|289:312,5,45,8|0|0|0|0|0,0:1|1:0|1:0|1:0|1:0|1:0,0:0:0:0:
393,361,46548,6,8,P|391:330|390:305,1,45,8|0,0:1|1:0,0:0:0:0:
459,235,46731,1,0,1:0:0:0:
459,235,46822,1,0,1:0:0:0:
459,235,46914,6,8,P|461:204|462:179,5,45,8|0|0|0|0|0,0:1|1:0|1:0|1:0|1:0|1:0,0:0:0:0:
339,96,47462,2,8,P|342:126|344:154,1,45,8|0,0:1|1:0,0:0:0:0:
210,224,47645,5,0,1:0:0:0:
172,249,47736,1,0,1:0:0:0:
129,258,47827,1,0,1:0:0:0:
85,249,47919,1,0,1:0:0:0:
48,224,48011,2,0,P|50:173|53:132,1,90,8|0,0:1|0:0,0:0:0:0:
286,194,48377,6,0,P|288:253|291:301,1,107.999996704102,0|0,1:0|0:0,0:0:0:0:
383,79,48743,5,8,0:1:0:0:
254,32,48926,1,8,0:1:0:0:
442,15,49109,5,8,0:1:0:0:
238,108,49292,1,8,0:1:0:0:
34,201,49474,1,8,0:1:0:0:
36,212,49566,1,8,0:1:0:0:
38,223,49657,1,0,1:0:0:0:
251,338,49954,1,8,0:1:0:0:
251,338,50040,6,8,P|231:338|202:340,1,45,8|8,0:1|0:1,0:1:0:0:
131,282,50206,1,0,1:0:0:0:
118,280,50297,1,0,1:0:0:0:
105,278,50388,1,0,1:0:0:0:
48,341,50571,5,8,0:1:0:0:
308,136,50754,1,8,0:1:0:0:
308,136,51304,6,0,B|224:127|241:188|157:178,1,161.999995056153,6|0,1:2|0:0,0:0:0:0:
157,177,51669,2,0,P|136:139|183:152,1,107.999996704102,10|2,0:1|0:0,0:0:0:0:
295,256,52035,1,2,1:0:0:0:
294,282,52126,1,0,0:0:0:0:
294,309,52217,1,0,0:0:0:0:
419,192,52401,2,0,P|437:139|425:74,1,107.999996704102,10|2,0:1|0:0,0:0:0:0:
255,34,52767,6,0,P|201:40|148:45,1,107.999996704102,2|0,1:0|0:0,0:0:0:0:
288,33,53041,1,10,0:1:0:0:
288,33,53133,1,2,1:0:0:0:
157,177,53316,1,10,0:1:0:0:
39,103,53499,2,0,B|24:51|24:51|43:-10,1,107.999996704102,2|0,1:0|0:0,0:0:0:0:
259,115,53864,2,0,P|257:197|254:284,1,161.999995056153,8|0,0:1|0:0,0:0:0:0:
202,358,54230,6,0,P|253:373|305:360,1,107.999996704102,0|2,1:0|0:0,0:0:0:0:
460,191,54596,2,8,P|405:194|348:199,1,107.999996704102,10|2,0:1|0:0,0:0:0:0:
512,307,54962,1,2,1:0:0:0:
511,333,55053,1,0,0:0:0:0:
510,360,55144,1,2,0:0:0:0:
352,198,55328,1,10,0:1:0:0:
352,198,55511,1,2,0:0:0:0:
201,331,55694,6,0,P|196:272|192:224,1,107.999996704102,2|2,1:0|0:0,0:0:0:0:
208,360,55968,1,8,0:1:0:0:
208,360,56060,1,2,1:0:0:0:
42,298,56243,1,10,0:1:0:0:
76,217,56425,1,2,1:0:0:0:
15,99,56608,6,0,L|55:95,1,33.7500012874604,8|0,0:1|0:0,0:0:0:0:
120,26,56791,2,0,L|160:30,1,33.7500012874604,10|0,0:1|0:0,0:0:0:0:
251,33,56974,6,0,L|252:11,1,22.5,2|0,0:0|0:0,0:0:0:0:
338,117,57157,6,0,B|321:177|321:177|339:208|339:208|323:269,1,161.999995056153,6|0,1:2|0:0,0:0:0:0:
323,269,57523,2,0,P|288:276|308:224,1,107.999996704102,10|2,0:1|0:0,0:0:0:0:
473,266,57889,1,2,1:0:0:0:
474,292,57980,1,0,0:0:0:0:
476,319,58071,1,0,0:0:0:0:
411,161,58255,2,0,P|463:141|515:155,1,107.999996704102,10|2,0:1|0:0,0:0:0:0:
308,363,58621,6,0,P|256:366|188:371,1,107.999996704102,2|0,1:0|0:0,0:0:0:0:
336,366,58895,1,10,0:1:0:0:
336,366,58986,1,2,1:0:0:0:
252,193,59169,1,10,0:1:0:0:
72,265,59352,2,0,P|129:268|192:273,1,107.999996704102,2|0,1:0|0:0,0:0:0:0:
329,123,59718,2,0,B|251:99|251:99|166:125,1,161.999995056153,8|0,0:1|0:0,0:0:0:0:
72,109,60084,6,0,P|69:48|67:-14,1,107.999996704102,0|2,1:0|0:0,0:0:0:0:
252,193,60450,2,0,P|249:254|247:316,1,107.999996704102,10|2,0:1|0:0,0:0:0:0:
72,264,60816,1,2,1:0:0:0:
45,266,60907,1,0,0:0:0:0:
18,269,60999,1,2,0:0:0:0:
174,122,61182,1,10,0:1:0:0:
174,122,61364,1,2,0:0:0:0:
247,300,61547,6,0,P|300:299|354:296,1,107.999996704102,2|2,1:0|0:0,0:0:0:0:
218,304,61822,1,8,0:1:0:0:
218,304,61913,1,2,1:0:0:0:
298,179,62096,1,10,0:1:0:0:
443,354,62279,1,10,0:1:0:0:
458,331,62371,1,8,0:1:0:0:
463,305,62462,1,8,0:1:0:0:
463,278,62553,1,8,0:1:0:0:
458,252,62645,1,8,0:1:0:0:
414,221,62736,1,8,0:1:0:0:
390,174,62828,1,8,0:1:0:0:
390,121,62919,1,8,0:1:0:0:
416,74,63011,6,0,P|360:78|294:83,1,107.999996704102,6|0,1:2|0:0,0:0:0:0:
450,74,63285,1,8,0:1:0:0:
450,74,63377,1,2,1:0:0:0:
298,179,63560,1,10,0:1:0:0:
168,129,63743,6,0,P|164:73|159:7,1,107.999996704102,2|0,1:0|0:0,0:0:0:0:
173,159,64017,1,8,0:1:0:0:
173,159,64108,1,2,1:0:0:0:
36,92,64291,1,10,0:1:0:0:
28,246,64474,6,0,P|85:242|149:238,1,107.999996704102,2|0,1:0|0:0,0:0:0:0:
0,253,64749,1,10,0:1:0:0:
0,253,64840,1,2,1:0:0:0:
124,342,65023,1,10,0:1:0:0:
199,296,65206,5,8,0:3:0:0:
218,298,65389,1,8,0:3:0:0:
237,300,65572,1,4,0:3:0:0:
256,302,65755,1,4,0:3:0:0:
351,362,65938,6,0,P|409:357|461:354,1,107.999996704102,2|2,1:0|0:0,0:0:0:0:
323,369,66212,1,8,0:1:0:0:
323,369,66303,1,2,1:0:0:0:
387,221,66486,1,10,0:1:0:0:
247,194,66669,6,0,P|252:255|257:316,1,107.999996704102,2|0,1:0|0:0,0:0:0:0:
247,167,66944,1,8,0:1:0:0:
247,167,67035,1,2,1:0:0:0:
361,68,67218,1,10,0:1:0:0:
208,14,67401,5,8,0:1:0:0:
157,1,67493,1,8,0:1:0:0:
114,31,67584,1,8,0:1:0:0:
109,84,67675,1,8,0:1:0:0:
145,121,67767,1,8,0:1:0:0:
167,167,67858,1,8,0:1:0:0:
137,209,67950,1,8,0:1:0:0:
40,180,68133,5,2,1:0:0:0:
40,180,68499,1,2,1:0:0:0:
122,332,68864,6,0,B|206:341|189:280|273:290,1,161.999995056153,6|0,1:2|0:0,0:0:0:0:
272,289,69230,2,0,P|293:330|247:332,1,107.999996704102,10|2,0:1|0:0,0:0:0:0:
137,209,69596,1,2,1:0:0:0:
138,182,69687,1,0,0:0:0:0:
139,155,69778,1,0,0:0:0:0:
276,41,69962,2,0,P|290:96|272:161,1,107.999996704102,10|2,0:1|0:0,0:0:0:0:
247,332,70328,6,0,P|306:334|356:337,1,107.999996704102,2|0,1:0|0:0,0:0:0:0:
220,332,70602,1,10,0:1:0:0:
220,332,70694,1,2,1:0:0:0:
334,199,70877,1,10,0:1:0:0:
507,256,71060,2,0,P|448:258|398:261,1,107.999996704102,2|0,1:0|0:0,0:0:0:0:
233,126,71425,2,0,P|227:58|289:86,1,161.999995056153,8|0,0:1|0:0,0:0:0:0:
334,199,71791,6,0,P|273:202|220:204,1,107.999996704102,2|2,1:0|0:0,0:0:0:0:
155,298,72157,1,10,0:1:0:0:
78,96,72340,1,10,0:1:0:0:
40,360,72523,1,10,0:1:0:0:
126,195,72706,1,10,0:1:0:0:
212,30,72889,1,10,0:1:0:0:
225,28,72980,1,8,0:1:0:0:
238,26,73072,1,2,1:0:0:0:
318,83,73255,5,14,0:1:0:0:
318,83,73621,1,14,0:1:0:0:
318,83,73986,1,14,0:1:0:0:
260,156,74352,1,8,0:1:0:0:
262,169,74444,1,8,0:1:0:0:
264,182,74535,1,2,1:0:0:0:
291,293,74718,5,10,0:1:0:0:
60,345,74901,1,10,0:1:0:0:
8,114,75084,1,10,0:1:0:0:
239,62,75267,1,10,0:1:0:0:
151,198,75450,1,10,0:1:0:0:
133,201,75633,1,2,1:0:0:0:
77,56,75816,2,0,P|195:61|259:63,1,161.999995056153,14|0,0:1|0:0,0:0:0:0:
322,99,76182,6,0,P|325:151|331:217,1,107.999996704102,6|0,1:2|0:0,0:0:0:0:
321,69,76456,1,8,0:1:0:0:
321,69,76547,1,0,1:0:0:0:
443,140,76730,1,8,0:1:0:0:
224,177,76913,6,0,P|221:234|215:295,1,107.999996704102,0|0,1:0|0:0,0:0:0:0:
228,150,77188,1,8,0:1:0:0:
228,150,77279,1,0,1:0:0:0:
197,28,77462,1,8,0:1:0:0:
39,156,77645,6,0,P|108:152|151:151,1,107.999996704102,0|0,1:0|0:0,0:0:0:0:
12,160,77919,1,8,0:1:0:0:
12,160,78011,1,0,1:0:0:0:
98,267,78194,1,8,0:1:0:0:
197,28,78377,6,0,P|266:32|309:33,1,107.999996704102,0|0,1:0|0:0,0:0:0:0:
168,29,78651,1,8,0:1:0:0:
168,29,78743,1,0,1:0:0:0:
87,73,78925,1,8,0:1:0:0:
224,177,79108,6,0,P|227:240|230:287,1,107.999996704102,0|0,1:0|0:0,0:0:0:0:
225,147,79383,1,8,0:1:0:0:
225,147,79474,1,0,1:0:0:0:
333,220,79657,1,8,0:1:0:0:
309,31,79840,6,0,P|306:94|303:141,1,107.999996704102,0|0,1:0|0:0,0:0:0:0:
313,0,80114,1,8,0:1:0:0:
313,0,80206,1,0,1:0:0:0:
168,29,80389,1,8,0:1:0:0:
333,220,80572,6,0,P|391:222|454:225,1,107.999996704102,0|0,1:0|0:0,0:0:0:0:
303,222,80846,1,8,0:1:0:0:
303,222,80938,1,0,1:0:0:0:
225,147,81121,1,8,0:1:0:0:
287,327,81303,1,0,1:0:0:0:
158,252,81486,1,8,0:1:0:0:
158,252,81578,1,8,0:1:0:0:
158,252,81669,2,0,P|107:234|44:247,1,107.999996704102,10|2,0:1|0:0,0:0:0:0:
0,306,82035,5,2,1:0:0:0:
170,367,83316,2,0,P|169:332|168:305,1,60,2|0,1:0|1:0,0:0:0:0:
138,289,83499,5,8,0:1:0:0:
190,279,83590,1,8,0:1:0:0:
226,241,83682,1,8,0:1:0:0:
232,188,83773,1,8,0:1:0:0:
204,142,83864,1,8,0:1:0:0:
184,93,83956,1,8,0:1:0:0:
206,45,84047,1,8,0:1:0:0:
256,29,84139,1,8,0:1:0:0:
301,56,84230,5,8,0:1:0:0:
390,0,84413,1,0,1:0:0:0:
473,139,84596,1,0,1:0:0:0:
384,83,84779,1,0,1:0:0:0:
394,268,84962,5,8,0:1:0:0:
462,58,85145,1,8,0:1:0:0:
232,188,85328,5,8,0:1:0:0:
467,310,85511,1,8,0:1:0:0:
384,83,85694,5,8,0:1:0:0:
269,314,85877,1,8,0:1:0:0:
473,139,86060,5,8,0:1:0:0:
232,188,86243,2,0,P|141:177|34:163,1,180,14|0,0:1|0:0,0:0:0:0:
