osu file format v14

[General]
AudioFilename: audio.mp3
AudioLeadIn: 0
PreviewTime: 49848
Countdown: 0
SampleSet: None
StackLeniency: 0.7
Mode: 0
LetterboxInBreaks: 0
WidescreenStoryboard: 1

[Editor]
DistanceSpacing: 1.2
BeatDivisor: 4
GridSize: 4
TimelineZoom: 1.8

[Metadata]
Title:Kagerou
TitleUnicode:カゲロウ
Artist:ReaL
ArtistUnicode:ЯeaL
Creator:Momojean
Version:Insane
Source:
Tags:
BeatmapID:1251302
BeatmapSetID:558035

[Difficulty]
HPDrainRate:6
CircleSize:4.1
OverallDifficulty:7.6
ApproachRate:9
SliderMultiplier:1.9
SliderTickRate:1

[Events]
//Background and Video events
0,0,"bg.jpg",0,0
//Break Periods
//Storyboard Layer 0 (Background)
//Storyboard Layer 1 (Fail)
//Storyboard Layer 2 (Pass)
//Storyboard Layer 3 (Foreground)
//Storyboard Sound Samples

[TimingPoints]
417,365.853658536585,4,1,1,50,1,0
1880,-100,4,1,1,50,0,0
8923,-90.9090909090909,4,1,1,50,0,0
13587,-66.6666666666667,4,1,1,50,0,0
14685,-100,4,1,1,50,0,0
26758,-86.9565217391304,4,1,1,50,0,0
38099,-100,4,1,1,50,0,0
49807,-83.3333333333333,4,1,1,50,0,1
53282,-86.9565217391304,4,1,1,50,0,1
55660,-83.3333333333333,4,1,1,50,0,1
59136,-86.9565217391304,4,1,1,50,0,1
61331,-83.3333333333333,4,1,1,50,0,1
73587,-66.6666666666667,4,1,1,50,0,1
75051,-83.3333333333333,4,1,1,50,0,1
80538,-90.9090909090909,4,1,1,50,0,0
83831,-83.3333333333333,4,1,1,50,0,0
85112,-200,4,1,1,50,0,0

[HitObjects]
214,238,1880,6,0,L|274:298,3,47.5
212,188,2246,2,0,L|178:154,3,47.5
257,66,3343,5,0,0:0:0:0:
108,271,4075,5,0,0:0:0:0:
379,274,4807,5,0,0:0:0:0:
168,146,5173,5,0,0:0:0:0:
257,280,5538,5,0,0:0:0:0:
327,151,5904,5,0,0:0:0:0:
121,276,6270,5,0,0:0:0:0:
257,70,6636,5,0,0:0:0:0:
386,280,7002,5,0,0:0:0:0:
256,192,7368,5,0,0:0:0:0:
256,192,7734,6,0,B|322:157|322:157|382:192,1,142.5
380,341,8282,1,0,0:0:0:0:
251,339,8465,1,0,0:0:0:0:
66,53,9197,6,0,P|135:37|177:57,1,104.500003189087
313,164,9563,1,0,0:0:0:0:
187,170,9746,1,0,0:0:0:0:
159,94,9929,1,0,0:0:0:0:
159,94,10020,1,0,0:0:0:0:
159,94,10112,1,0,0:0:0:0:
250,179,10295,2,0,L|321:262,1,104.500003189087
461,348,10660,6,0,P|496:295|470:254,1,104.500003189087
346,129,11026,1,0,0:0:0:0:
399,242,11209,1,0,0:0:0:0:
438,122,11392,1,0,0:0:0:0:
339,200,11575,1,0,0:0:0:0:
464,201,11758,1,0,0:0:0:0:
346,129,11941,1,0,0:0:0:0:
298,60,12124,6,0,P|369:15|421:32,1,104.500003189087
504,56,12490,1,0,0:0:0:0:
323,106,12673,1,0,0:0:0:0:
500,156,12856,2,0,P|447:211|395:216,1,104.500003189087
300,187,13221,1,0,0:0:0:0:
62,330,13587,5,0,0:0:0:0:
207,172,13862,1,0,0:0:0:0:
88,236,14136,1,0,0:0:0:0:
194,301,14319,2,0,P|289:244|256:72,1,285.000010871888
273,87,15051,5,0,0:0:0:0:
183,119,15234,2,0,B|124:140|124:140|98:193,1,95
322,150,15599,5,0,0:0:0:0:
232,182,15782,2,0,B|173:203|173:203|147:256,1,95
213,310,16148,1,0,0:0:0:0:
432,299,16514,5,0,0:0:0:0:
456,207,16697,2,0,B|471:142|471:142|442:111,1,95
347,319,17063,5,0,0:0:0:0:
371,227,17246,2,0,B|386:162|386:162|357:131,1,95
291,82,17612,1,0,0:0:0:0:
197,246,17977,5,0,0:0:0:0:
189,258,18160,1,0,0:0:0:0:
182,272,18343,1,0,0:0:0:0:
89,292,18526,2,0,B|27:260|27:260|27:195,1,95
31,131,18892,2,0,B|31:80|31:80|88:36,1,95
180,52,19258,1,0,0:0:0:0:
216,136,19441,5,0,0:0:0:0:
213,229,19624,2,0,B|248:277|248:277|298:300,1,95
282,86,19990,5,0,0:0:0:0:
282,181,20173,2,0,B|317:229|317:229|367:252,1,95
464,236,20538,1,0,0:0:0:0:
376,66,20904,5,0,0:0:0:0:
282,82,21087,2,0,B|215:94|215:94|167:140,1,95
407,136,21453,5,0,0:0:0:0:
313,152,21636,2,0,B|246:164|246:164|198:210,1,95
168,280,22002,1,0,0:0:0:0:
352,328,22368,5,0,0:0:0:0:
419,261,22551,2,0,B|462:202|462:202|461:153,1,95
272,309,22916,5,0,0:0:0:0:
339,242,23099,2,0,B|382:183|382:183|381:134,1,95
380,48,23465,1,0,0:0:0:0:
272,8,23648,1,0,0:0:0:0:
156,60,23831,6,0,P|68:123|56:203,1,190
128,288,24380,1,0,0:0:0:0:
220,352,24563,2,0,P|335:358|385:291,1,190
397,112,25295,6,0,B|319:46|319:46|219:49,1,190
120,76,25843,2,0,P|48:128|43:153,1,95
72,216,26209,1,0,0:0:0:0:
103,306,26392,1,0,0:0:0:0:
112,317,26484,1,0,0:0:0:0:
120,328,26575,1,0,0:0:0:0:
128,339,26666,1,0,0:0:0:0:
135,348,26758,6,0,P|214:380|344:349,1,218.500004167557
420,248,27307,1,0,0:0:0:0:
484,132,27490,1,0,0:0:0:0:
500,262,27673,1,0,0:0:0:0:
386,195,27856,2,0,L|260:194,1,109.250002083778
201,105,28221,5,0,0:0:0:0:
152,224,28404,1,0,0:0:0:0:
163,103,28587,2,0,P|122:56|146:1,1,109.250002083778
241,18,28953,5,0,0:0:0:0:
288,140,29136,1,0,0:0:0:0:
358,27,29319,2,0,L|468:79,1,109.250002083778
388,210,29685,5,0,0:0:0:0:
464,320,29868,1,0,0:0:0:0:
339,245,30051,2,0,L|227:166,1,109.250002083778
189,273,30417,5,0,0:0:0:0:
68,320,30599,1,0,0:0:0:0:
171,228,30782,2,0,P|214:175|265:175,1,109.250002083778
381,152,31148,1,0,0:0:0:0:
259,101,31331,1,0,0:0:0:0:
376,240,31514,2,0,L|446:146,1,109.250002083778
229,50,32063,5,0,0:0:0:0:
114,209,32246,1,0,0:0:0:0:
421,208,32612,5,0,0:0:0:0:
316,129,32795,1,0,0:0:0:0:
333,258,32978,2,0,L|403:164,1,109.250002083778
212,237,33343,5,0,0:0:0:0:
117,146,33526,1,0,0:0:0:0:
246,168,33709,2,0,L|381:206,1,109.250002083778
196,320,34075,5,0,0:0:0:0:
296,235,34258,1,0,0:0:0:0:
256,360,34441,2,0,L|396:296,1,109.250002083778
437,135,34807,5,0,0:0:0:0:
325,65,34990,1,0,0:0:0:0:
456,61,35173,2,0,L|310:107,1,109.250002083778
221,139,35538,1,0,0:0:0:0:
324,219,35721,1,0,0:0:0:0:
324,219,35904,1,0,0:0:0:0:
258,324,36087,6,0,L|412:295,1,109.250002083778
374,302,36362,1,0,0:0:0:0:
382,301,36453,1,0,0:0:0:0:
390,300,36545,1,0,0:0:0:0:
397,298,36636,1,0,0:0:0:0:
430,86,37002,6,0,P|249:86|191:111,1,218.500004167557
323,176,37551,1,0,0:0:0:0:
334,190,37734,1,0,0:0:0:0:
342,203,37916,1,0,0:0:0:0:
446,157,38099,1,0,0:0:0:0:
270,117,38465,6,0,P|156:180|115:235,1,190
236,242,39014,6,0,P|173:128|118:87,1,190
74,183,39563,2,0,P|149:150|178:150,1,95
275,151,39929,2,0,L|311:135,1,23.75
365,196,40203,2,0,L|306:220,1,47.5
317,294,40477,2,0,L|417:250,1,95
300,51,41026,6,0,L|200:83,1,95
129,42,41392,6,0,P|180:177|213:220,1,190
123,194,41941,6,0,P|258:143|301:110,1,190
370,31,42490,1,0,0:0:0:0:
379,292,42856,5,0,0:0:0:0:
101,228,43221,1,0,0:0:0:0:
389,133,43587,1,0,0:0:0:0:
111,69,43952,1,0,0:0:0:0:
389,133,44319,1,0,0:0:0:0:
394,140,44410,1,0,0:0:0:0:
398,148,44502,1,0,0:0:0:0:
401,156,44593,1,0,0:0:0:0:
402,165,44685,1,0,0:0:0:0:
402,174,44776,1,0,0:0:0:0:
401,183,44868,6,0,L|371:237,5,47.5
339,217,45416,2,0,L|309:271,5,47.5
307,263,45965,5,0,0:0:0:0:
298,267,46057,1,0,0:0:0:0:
289,270,46148,1,0,0:0:0:0:
279,272,46240,1,0,0:0:0:0:
269,273,46331,1,0,0:0:0:0:
259,272,46423,2,0,L|200:246,5,47.5
167,149,47063,1,0,0:0:0:0:
263,87,47246,6,0,P|325:65|366:82,1,95
438,146,47612,1,0,0:0:0:0:
272,225,47795,1,0,0:0:0:0:
469,154,47977,1,0,0:0:0:0:
243,211,48160,1,0,0:0:0:0:
314,121,48343,2,0,L|378:101,2,47.5
387,276,48801,1,0,0:0:0:0:
374,283,48893,1,0,0:0:0:0:
362,290,48984,1,0,0:0:0:0:
153,95,49441,5,0,0:0:0:0:
103,258,49624,1,0,0:0:0:0:
