osu file format v14

[General]
AudioFilename: audio.mp3
AudioLeadIn: 0
PreviewTime: 69790
Countdown: 0
SampleSet: Normal
StackLeniency: 0.7
Mode: 1
LetterboxInBreaks: 0
WidescreenStoryboard: 1

[Editor]
Bookmarks: 602,6790,17290,27790,45790,57790,69790,80290,90790
DistanceSpacing: 3
BeatDivisor: 4
GridSize: 32
TimelineZoom: 2.4

[Metadata]
Title:Magnetism
TitleUnicode:Magnetism
Artist:ReX
ArtistUnicode:ReX
Creator:Quorum
Version:Muzukashii
Source:Project FX
Tags:shin dong whi 申東輝 video game classical electronic instrumental bor lego man M2U sphazer infinity poly RedEye chaos star light
BeatmapID:2502633
BeatmapSetID:1200938

[Difficulty]
HPDrainRate:6
CircleSize:5
OverallDifficulty:5
ApproachRate:5
SliderMultiplier:1.4
SliderTickRate:1

[Events]
//Background and Video events
0,0,"image.jpg",0,80
//Break Periods
//Storyboard Layer 0 (Background)
//Storyboard Layer 1 (Fail)
//Storyboard Layer 2 (Pass)
//Storyboard Layer 3 (Foreground)
//Storyboard Layer 4 (Overlay)
//Storyboard Sound Samples

[TimingPoints]
846,375,4,1,0,80,1,0
846,-100,4,1,0,80,0,0
6846,-111.111111111111,4,1,0,80,0,0
17908,-125,4,1,0,60,0,0
21846,-125,4,1,0,60,0,0
21939,-120.996441281139,4,1,0,60,0,0
22033,-119.802677942213,4,1,0,60,0,0
22127,-118.632240055827,4,1,0,60,0,0
22221,-117.484450587422,4,1,0,60,0,0
22314,-116.358658453114,4,1,0,60,0,0
22408,-115.254237288136,4,1,0,60,0,0
22502,-114.170584284755,4,1,0,60,0,0
22596,-113.107119095143,4,1,0,60,0,0
22689,-112.06328279499,4,1,0,60,0,0
22783,-111.038536903984,4,1,0,60,0,0
22877,-110.032362459547,4,1,0,60,0,0
22971,-109.044259140475,4,1,0,60,0,0
23064,-108.073744437381,4,1,0,60,0,0
23158,-107.120352867045,4,1,0,60,0,0
23252,-106.183635227983,4,1,0,60,0,0
23346,-105.263157894737,4,1,0,80,0,0
28033,-133.333333333333,4,1,0,50,0,0
45846,-111.111111111111,4,1,0,80,0,0
50908,-111.111111111111,4,1,0,80,0,0
51096,-108.695652173913,4,1,0,80,0,0
51283,-106.382978723404,4,1,0,80,0,0
51471,-104.166666666667,4,1,0,80,0,0
51658,-102.040816326531,4,1,0,80,0,0
51846,-100,4,1,0,80,0,1
56346,-100,4,1,0,80,0,0
57096,-125,4,1,0,80,0,0
57846,-125,4,1,0,50,0,0
69846,-111.111111111111,4,1,0,80,0,0
80908,-125,4,1,0,60,0,0
84846,-125,4,1,0,60,0,0
84939,-120.996441281139,4,1,0,60,0,0
85033,-119.802677942213,4,1,0,60,0,0
85127,-118.632240055827,4,1,0,60,0,0
85221,-117.484450587422,4,1,0,60,0,0
85314,-116.358658453114,4,1,0,60,0,0
85408,-115.254237288136,4,1,0,60,0,0
85502,-114.170584284755,4,1,0,60,0,0
85596,-113.107119095143,4,1,0,60,0,0
85689,-112.06328279499,4,1,0,60,0,0
85783,-111.038536903984,4,1,0,60,0,0
85877,-110.032362459547,4,1,0,60,0,0
85971,-109.044259140475,4,1,0,60,0,0
86064,-108.073744437381,4,1,0,60,0,0
86158,-107.120352867045,4,1,0,60,0,0
86252,-106.183635227983,4,1,0,60,0,0
86346,-105.263157894737,4,1,0,80,0,0
90846,-100,4,1,0,80,0,1
96471,-100,4,1,0,80,0,0

[HitObjects]
256,192,846,5,0,0:0:0:0:
256,192,1033,1,8,0:0:0:0:
256,192,1221,1,8,0:0:0:0:
256,192,1408,1,0,0:0:0:0:
256,192,1783,1,0,0:0:0:0:
256,192,1971,1,8,0:0:0:0:
256,192,2158,1,8,0:0:0:0:
256,192,2346,1,0,0:0:0:0:
256,192,2533,1,8,0:0:0:0:
256,192,2721,1,8,0:0:0:0:
256,192,2908,1,0,0:0:0:0:
256,192,3283,1,8,0:0:0:0:
256,192,3471,1,8,0:0:0:0:
256,192,3846,1,8,0:0:0:0:
256,192,4033,1,0,0:0:0:0:
256,192,4221,1,0,0:0:0:0:
256,192,4408,1,8,0:0:0:0:
256,192,4783,1,0,0:0:0:0:
256,192,4971,1,8,0:0:0:0:
256,192,5158,1,8,0:0:0:0:
256,192,5346,1,0,0:0:0:0:
256,192,6096,1,8,0:0:0:0:
256,192,6283,1,0,0:0:0:0:
256,192,6471,1,8,0:0:0:0:
256,192,6846,1,0,0:0:0:0:
256,192,7033,1,8,0:0:0:0:
256,192,7127,1,8,0:0:0:0:
256,192,7221,1,8,0:0:0:0:
256,192,7408,1,0,0:0:0:0:
256,192,7783,1,0,0:0:0:0:
256,192,7971,1,8,0:0:0:0:
256,192,8346,1,8,0:0:0:0:
256,192,8533,1,0,0:0:0:0:
256,192,8627,1,0,0:0:0:0:
256,192,8721,1,0,0:0:0:0:
256,192,8908,1,8,0:0:0:0:
256,192,9096,1,0,0:0:0:0:
256,192,9283,1,0,0:0:0:0:
256,192,9658,1,0,0:0:0:0:
256,192,9846,1,8,0:0:0:0:
256,192,10033,1,0,0:0:0:0:
256,192,10127,1,0,0:0:0:0:
256,192,10221,1,0,0:0:0:0:
256,192,10408,1,8,0:0:0:0:
256,192,10783,1,8,0:0:0:0:
256,192,10971,1,0,0:0:0:0:
256,192,11346,1,8,0:0:0:0:
256,192,11533,1,0,0:0:0:0:
256,192,11721,1,0,0:0:0:0:
256,192,11908,1,8,0:0:0:0:
256,192,12471,1,8,0:0:0:0:
256,192,12846,1,0,0:0:0:0:
256,192,13033,1,0,0:0:0:0:
256,192,13127,1,0,0:0:0:0:
256,192,13221,1,0,0:0:0:0:
256,192,13408,1,8,0:0:0:0:
256,192,13783,1,0,0:0:0:0:
256,192,13971,1,8,0:0:0:0:
256,192,14346,1,8,0:0:0:0:
256,192,14533,1,0,0:0:0:0:
256,192,14721,1,0,0:0:0:0:
256,192,14908,1,8,0:0:0:0:
256,192,15096,1,8,0:0:0:0:
256,192,15189,1,8,0:0:0:0:
256,192,15283,1,8,0:0:0:0:
256,192,15471,1,0,0:0:0:0:
256,192,15846,1,8,0:0:0:0:
256,192,16033,1,0,0:0:0:0:
256,192,16221,1,0,0:0:0:0:
256,192,16408,1,8,0:0:0:0:
256,192,16783,1,0,0:0:0:0:
256,192,16971,1,8,0:0:0:0:
256,192,17158,1,0,0:0:0:0:
256,192,17346,1,0,0:0:0:0:
256,192,17908,1,0,0:0:0:0:
256,192,18096,1,8,0:0:0:0:
256,192,18283,1,0,0:0:0:0:
256,192,18471,1,0,0:0:0:0:
256,192,18846,1,8,0:0:0:0:
256,192,19033,1,0,0:0:0:0:
256,192,19221,1,0,0:0:0:0:
256,192,19408,1,8,0:0:0:0:
256,192,19596,1,8,0:0:0:0:
256,192,19783,1,0,0:0:0:0:
256,192,19971,1,8,0:0:0:0:
256,192,20346,1,8,0:0:0:0:
256,192,20533,1,0,0:0:0:0:
256,192,20721,1,0,0:0:0:0:
256,192,20908,1,0,0:0:0:0:
256,192,21096,1,8,0:0:0:0:
256,192,21471,1,0,0:0:0:0:
256,192,21658,1,0,0:0:0:0:
256,192,21846,1,8,0:0:0:0:
256,192,22408,1,0,0:0:0:0:
256,192,22596,1,8,0:0:0:0:
256,192,23346,1,8,0:0:0:0:
256,192,23533,1,0,0:0:0:0:
256,192,23627,1,0,0:0:0:0:
256,192,23721,1,0,0:0:0:0:
256,192,23908,1,8,0:0:0:0:
256,192,24096,1,0,0:0:0:0:
256,192,24283,1,0,0:0:0:0:
256,192,24658,1,8,0:0:0:0:
256,192,24846,1,0,0:0:0:0:
256,192,25033,1,8,0:0:0:0:
256,192,25127,1,8,0:0:0:0:
256,192,25221,1,8,0:0:0:0:
256,192,25408,1,0,0:0:0:0:
256,192,25596,1,8,0:0:0:0:
256,192,25971,1,0,0:0:0:0:
256,192,26346,1,8,0:0:0:0:
256,192,26533,1,8,0:0:0:0:
256,192,26721,1,0,0:0:0:0:
256,192,26908,1,8,0:0:0:0:
256,192,27096,1,8,0:0:0:0:
256,192,27189,1,8,0:0:0:0:
256,192,27283,1,8,0:0:0:0:
256,192,27471,1,0,0:0:0:0:
256,192,27846,1,0,0:0:0:0:
256,192,28596,1,0,0:0:0:0:
256,192,28971,1,8,0:0:0:0:
256,192,29346,1,0,0:0:0:0:
480,352,29908,1,0,0:0:0:0:
256,192,30096,1,0,0:0:0:0:
256,192,30471,1,8,0:0:0:0:
256,192,30846,1,0,0:0:0:0:
256,192,31408,1,8,0:0:0:0:
256,192,31596,1,0,0:0:0:0:
256,192,31971,1,8,0:0:0:0:
256,192,32158,1,0,0:0:0:0:
256,192,32346,1,8,0:0:0:0:
256,192,32721,1,0,0:0:0:0:
256,192,33096,1,8,0:0:0:0:
256,192,33471,1,0,0:0:0:0:
256,192,33846,1,8,0:0:0:0:
256,192,34596,1,8,0:0:0:0:
256,192,34971,1,0,0:0:0:0:
256,192,35158,1,8,0:0:0:0:
256,192,35346,1,0,0:0:0:0:
256,192,36096,1,0,0:0:0:0:
256,192,36471,1,8,0:0:0:0:
256,192,36846,1,8,0:0:0:0:
256,192,37221,1,8,0:0:0:0:
256,192,37596,1,8,0:0:0:0:
256,192,37971,1,0,0:0:0:0:
256,192,38346,1,8,0:0:0:0:
256,192,38908,1,0,0:0:0:0:
256,192,39002,1,0,0:0:0:0:
256,192,39096,1,0,0:0:0:0:
256,192,39283,1,8,0:0:0:0:
256,192,39471,1,8,0:0:0:0:
256,192,39658,1,0,0:0:0:0:
256,192,39846,1,8,0:0:0:0:
256,192,40221,1,0,0:0:0:0:
256,192,40409,1,8,0:0:0:0:
256,192,40596,1,0,0:0:0:0:
256,192,40971,1,8,0:0:0:0:
256,192,41346,1,8,0:0:0:0:
256,192,41721,1,8,0:0:0:0:
256,192,41908,1,0,0:0:0:0:
256,192,42096,1,8,0:0:0:0:
256,192,42471,1,0,0:0:0:0:
256,192,42846,1,0,0:0:0:0:
256,192,43596,1,8,0:0:0:0:
256,192,44158,1,0,0:0:0:0:
256,192,44346,1,8,0:0:0:0:
256,192,44721,1,8,0:0:0:0:
256,192,44908,1,0,0:0:0:0:
256,192,45096,1,0,0:0:0:0:
256,192,45283,1,0,0:0:0:0:
256,192,45471,1,8,0:0:0:0:
256,192,45846,1,0,0:0:0:0:
256,192,46033,1,8,0:0:0:0:
256,192,46221,1,0,0:0:0:0:
256,192,46408,1,8,0:0:0:0:
256,192,46596,1,8,0:0:0:0:
256,192,46783,1,0,0:0:0:0:
256,192,46971,1,8,0:0:0:0:
256,192,47346,1,0,0:0:0:0:
256,192,47533,1,8,0:0:0:0:
256,192,47721,1,8,0:0:0:0:
256,192,47908,1,0,0:0:0:0:
256,192,48096,1,0,0:0:0:0:
256,192,48283,1,0,0:0:0:0:
256,192,48471,1,8,0:0:0:0:
256,192,48846,1,8,0:0:0:0:
256,192,49408,1,0,0:0:0:0:
256,192,49596,1,8,0:0:0:0:
256,192,49783,1,0,0:0:0:0:
256,192,49971,1,8,0:0:0:0:
256,192,50064,1,8,0:0:0:0:
256,192,50158,1,8,0:0:0:0:
256,192,50346,1,0,0:0:0:0:
256,192,50721,1,8,0:0:0:0:
256,192,50908,1,0,0:0:0:0:
256,192,51471,1,8,0:0:0:0:
256,192,51658,1,0,0:0:0:0:
256,192,51846,1,8,0:0:0:0:
256,192,52033,1,0,0:0:0:0:
256,192,52127,1,0,0:0:0:0:
256,192,52221,1,0,0:0:0:0:
256,192,52408,1,8,0:0:0:0:
256,192,52596,1,0,0:0:0:0:
256,192,52783,1,0,0:0:0:0:
256,192,52971,1,8,0:0:0:0:
256,192,53533,1,8,0:0:0:0:
256,192,53721,1,8,0:0:0:0:
256,192,53908,1,0,0:0:0:0:
256,192,54002,1,0,0:0:0:0:
256,192,54096,1,0,0:0:0:0:
256,192,54283,1,8,0:0:0:0:
256,192,54471,1,0,0:0:0:0:
256,192,54846,1,0,0:0:0:0:
256,192,55033,1,8,0:0:0:0:
256,192,55127,1,8,0:0:0:0:
256,192,55221,1,8,0:0:0:0:
256,192,55408,1,0,0:0:0:0:
256,192,55596,1,8,0:0:0:0:
256,192,55783,1,8,0:0:0:0:
256,192,55971,1,0,0:0:0:0:
256,192,56346,1,8,0:0:0:0:
256,192,57096,2,0,L|448:192,1,168
256,192,57846,1,0,0:0:0:0:
256,192,58408,1,0,0:0:0:0:
256,192,58596,1,8,0:0:0:0:
256,192,58971,1,0,0:0:0:0:
256,192,59346,1,0,0:0:0:0:
256,192,59721,1,8,0:0:0:0:
256,192,59908,1,8,0:0:0:0:
256,192,60096,1,0,0:0:0:0:
256,192,60471,1,0,0:0:0:0:
256,192,60846,1,0,0:0:0:0:
256,192,61221,1,0,0:0:0:0:
256,192,61408,1,0,0:0:0:0:
256,192,61596,1,8,0:0:0:0:
256,192,61971,1,8,0:0:0:0:
256,192,62158,1,0,0:0:0:0:
256,192,62346,1,8,0:0:0:0:
256,192,62721,1,0,0:0:0:0:
256,192,62908,1,0,0:0:0:0:
256,192,63096,1,8,0:0:0:0:
256,192,63471,1,0,0:0:0:0:
256,192,63846,1,0,0:0:0:0:
256,192,64408,1,0,0:0:0:0:
256,192,64596,1,8,0:0:0:0:
256,192,64971,1,0,0:0:0:0:
256,192,65346,1,0,0:0:0:0:
256,192,65721,1,8,0:0:0:0:
256,192,65908,1,0,0:0:0:0:
256,192,66096,1,0,0:0:0:0:
256,192,66471,1,8,0:0:0:0:
256,192,66846,1,0,0:0:0:0:
256,192,67221,1,8,0:0:0:0:
256,192,67408,1,0,0:0:0:0:
256,192,67596,1,8,0:0:0:0:
256,192,67971,1,0,0:0:0:0:
256,192,68158,1,0,0:0:0:0:
256,192,68346,1,8,0:0:0:0:
256,192,68721,1,8,0:0:0:0:
256,192,68908,1,0,0:0:0:0:
256,192,69096,1,0,0:0:0:0:
256,192,69283,1,0,0:0:0:0:
256,192,69471,1,8,0:0:0:0:
256,192,69846,1,0,0:0:0:0:
256,192,70033,1,8,0:0:0:0:
256,192,70127,1,8,0:0:0:0:
256,192,70221,1,8,0:0:0:0:
256,192,70408,1,0,0:0:0:0:
256,192,70783,1,0,0:0:0:0:
256,192,70971,1,8,0:0:0:0:
256,192,71346,1,8,0:0:0:0:
256,192,71533,1,0,0:0:0:0:
256,192,71627,1,0,0:0:0:0:
256,192,71721,1,0,0:0:0:0:
256,192,71908,1,8,0:0:0:0:
256,192,72096,1,0,0:0:0:0:
256,192,72283,1,0,0:0:0:0:
256,192,72658,1,0,0:0:0:0:
256,192,72846,1,8,0:0:0:0:
256,192,73033,1,0,0:0:0:0:
256,192,73127,1,0,0:0:0:0:
256,192,73221,1,0,0:0:0:0:
256,192,73408,1,8,0:0:0:0:
256,192,73783,1,8,0:0:0:0:
256,192,73971,1,0,0:0:0:0:
256,192,74346,1,8,0:0:0:0:
256,192,74533,1,0,0:0:0:0:
256,192,74627,1,0,0:0:0:0:
256,192,74721,1,0,0:0:0:0:
256,192,74908,1,8,0:0:0:0:
256,192,75471,1,8,0:0:0:0:
256,192,75846,1,0,0:0:0:0:
256,192,76033,1,0,0:0:0:0:
256,192,76127,1,0,0:0:0:0:
256,192,76221,1,0,0:0:0:0:
256,192,76408,1,8,0:0:0:0:
256,192,76783,1,0,0:0:0:0:
256,192,76971,1,8,0:0:0:0:
256,192,77346,1,8,0:0:0:0:
256,192,77533,1,0,0:0:0:0:
256,192,77721,1,0,0:0:0:0:
256,192,77908,1,8,0:0:0:0:
256,192,78096,1,8,0:0:0:0:
256,192,78189,1,8,0:0:0:0:
256,192,78283,1,8,0:0:0:0:
256,192,78471,1,0,0:0:0:0:
256,192,78846,1,8,0:0:0:0:
256,192,79033,1,0,0:0:0:0:
256,192,79221,1,0,0:0:0:0:
256,192,79408,1,8,0:0:0:0:
256,192,79783,1,0,0:0:0:0:
256,192,79971,1,8,0:0:0:0:
256,192,80158,1,0,0:0:0:0:
256,192,80346,1,0,0:0:0:0:
256,192,80908,1,0,0:0:0:0:
256,192,81096,1,8,0:0:0:0:
256,192,81283,1,0,0:0:0:0:
256,192,81471,1,0,0:0:0:0:
256,192,81846,1,8,0:0:0:0:
256,192,82033,1,0,0:0:0:0:
256,192,82221,1,0,0:0:0:0:
256,192,82408,1,8,0:0:0:0:
256,192,82596,1,8,0:0:0:0:
256,192,82783,1,0,0:0:0:0:
256,192,82971,1,8,0:0:0:0:
256,192,83346,1,8,0:0:0:0:
256,192,83533,1,8,0:0:0:0:
256,192,83721,1,0,0:0:0:0:
256,192,83908,1,0,0:0:0:0:
256,192,84096,1,8,0:0:0:0:
256,192,84471,1,0,0:0:0:0:
256,192,84658,1,0,0:0:0:0:
256,192,84846,1,8,0:0:0:0:
256,192,85408,1,0,0:0:0:0:
256,192,85596,1,8,0:0:0:0:
256,192,86346,1,8,0:0:0:0:
256,192,86533,1,0,0:0:0:0:
256,192,86627,1,0,0:0:0:0:
256,192,86721,1,0,0:0:0:0:
256,192,86908,1,8,0:0:0:0:
256,192,87096,1,0,0:0:0:0:
256,192,87283,1,0,0:0:0:0:
256,192,87658,1,8,0:0:0:0:
256,192,87846,1,0,0:0:0:0:
256,192,88033,1,8,0:0:0:0:
256,192,88127,1,8,0:0:0:0:
256,192,88221,1,8,0:0:0:0:
256,192,88408,1,0,0:0:0:0:
256,192,88596,1,8,0:0:0:0:
256,192,88971,1,0,0:0:0:0:
256,192,89346,1,8,0:0:0:0:
256,192,89533,1,8,0:0:0:0:
256,192,89721,5,0,0:0:0:0:
256,192,89908,1,8,0:0:0:0:
256,192,90096,1,8,0:0:0:0:
256,192,90189,1,8,0:0:0:0:
256,192,90283,1,8,0:0:0:0:
256,192,90471,1,0,0:0:0:0:
256,192,90846,1,0,0:0:0:0:
256,192,91033,1,8,0:0:0:0:
256,192,91127,1,8,0:0:0:0:
256,192,91221,1,8,0:0:0:0:
256,192,91408,1,0,0:0:0:0:
256,192,91783,1,0,0:0:0:0:
256,192,91971,1,8,0:0:0:0:
256,192,92158,1,8,0:0:0:0:
256,192,92346,1,0,0:0:0:0:
256,192,92533,1,8,0:0:0:0:
256,192,92627,1,8,0:0:0:0:
256,192,92721,1,8,0:0:0:0:
256,192,92908,1,0,0:0:0:0:
256,192,93283,1,8,0:0:0:0:
256,192,93471,1,8,0:0:0:0:
256,192,93658,1,8,0:0:0:0:
256,192,93846,1,0,0:0:0:0:
256,192,94033,1,8,0:0:0:0:
256,192,94127,1,8,0:0:0:0:
256,192,94221,1,8,0:0:0:0:
256,192,94408,1,0,0:0:0:0:
256,192,94783,1,8,0:0:0:0:
256,192,94971,1,0,0:0:0:0:
256,192,95158,1,0,0:0:0:0:
256,192,95346,1,8,0:0:0:0:
256,192,95533,1,8,0:0:0:0:
256,192,95627,1,8,0:0:0:0:
256,192,95721,1,8,0:0:0:0:
256,192,95908,1,0,0:0:0:0:
256,192,96283,1,4,0:0:0:0:
256,192,96471,1,12,0:0:0:0:
