osu file format v14

[General]
AudioFilename: audio.mp3
AudioLeadIn: 0
PreviewTime: 69790
Countdown: 0
SampleSet: Normal
StackLeniency: 0.7
Mode: 1
LetterboxInBreaks: 0
WidescreenStoryboard: 1

[Editor]
Bookmarks: 602,6790,17290,27790,45790,57790,69790,80290,90790
DistanceSpacing: 3
BeatDivisor: 2
GridSize: 32
TimelineZoom: 2.699999

[Metadata]
Title:Magnetism
TitleUnicode:Magnetism
Artist:ReX
ArtistUnicode:ReX
Creator:Quorum
Version:Kantan
Source:Project FX
Tags:shin dong whi 申東輝 video game classical electronic instrumental bor lego man M2U sphazer infinity poly RedEye chaos star light
BeatmapID:2517551
BeatmapSetID:1200938

[Difficulty]
HPDrainRate:8
CircleSize:5
OverallDifficulty:3
ApproachRate:5
SliderMultiplier:1.4
SliderTickRate:1

[Events]
//Background and Video events
0,0,"image.jpg",0,80
//Break Periods
//Storyboard Layer 0 (Background)
//Storyboard Layer 1 (Fail)
//Storyboard Layer 2 (Pass)
//Storyboard Layer 3 (Foreground)
//Storyboard Layer 4 (Overlay)
//Storyboard Sound Samples

[TimingPoints]
846,375,4,1,0,80,1,0
846,-100,4,1,0,80,0,0
17908,-100,4,1,0,60,0,0
23346,-100,4,1,0,80,0,0
28033,-111.111111111111,4,1,0,50,0,0
45846,-100,4,1,0,80,0,0
51846,-100,4,1,0,80,0,1
56346,-100,4,1,0,80,0,0
57096,-105.263157894737,4,1,0,80,0,0
57846,-105.263157894737,4,1,0,50,0,0
69846,-100,4,1,0,80,0,0
80908,-100,4,1,0,60,0,0
86346,-100,4,1,0,80,0,0
90846,-100,4,1,0,80,0,1
96471,-100,4,1,0,80,0,0

[HitObjects]
256,192,846,5,0,0:0:0:0:
256,192,1408,1,8,0:0:0:0:
256,192,1971,1,0,0:0:0:0:
256,192,2346,1,0,0:0:0:0:
256,192,2908,1,8,0:0:0:0:
256,192,3846,1,0,0:0:0:0:
256,192,4408,1,8,0:0:0:0:
256,192,4971,1,0,0:0:0:0:
256,192,5346,1,8,0:0:0:0:
256,192,6846,1,0,0:0:0:0:
256,192,7408,1,0,0:0:0:0:
256,192,7971,1,8,0:0:0:0:
256,192,8346,1,8,0:0:0:0:
256,192,8908,1,8,0:0:0:0:
256,192,9846,1,8,0:0:0:0:
256,192,10408,1,8,0:0:0:0:
256,192,10971,1,0,0:0:0:0:
256,192,11346,1,8,0:0:0:0:
256,192,12471,1,8,0:0:0:0:
256,192,12846,1,0,0:0:0:0:
256,192,13408,1,0,0:0:0:0:
256,192,13971,1,0,0:0:0:0:
256,192,14346,1,8,0:0:0:0:
256,192,14908,1,8,0:0:0:0:
256,192,15471,1,0,0:0:0:0:
256,192,15846,1,8,0:0:0:0:
256,192,16408,1,8,0:0:0:0:
256,192,17346,1,0,0:0:0:0:
256,192,18096,1,8,0:0:0:0:
256,192,18846,1,0,0:0:0:0:
256,192,19221,1,8,0:0:0:0:
256,192,19596,1,0,0:0:0:0:
256,192,19971,1,0,0:0:0:0:
256,192,20346,1,0,0:0:0:0:
256,192,21096,1,8,0:0:0:0:
256,192,21846,1,8,0:0:0:0:
256,192,23346,1,8,0:0:0:0:
256,192,23908,1,8,0:0:0:0:
256,192,24471,1,0,0:0:0:0:
256,192,24846,1,8,0:0:0:0:
256,192,25408,1,0,0:0:0:0:
256,192,25971,1,0,0:0:0:0:
256,192,26346,1,8,0:0:0:0:
256,192,26908,1,8,0:0:0:0:
256,192,27471,1,8,0:0:0:0:
256,192,27846,1,0,0:0:0:0:
256,192,29346,1,0,0:0:0:0:
256,192,30846,1,0,0:0:0:0:
256,192,32346,1,8,0:0:0:0:
256,192,33846,1,8,0:0:0:0:
256,192,35346,1,0,0:0:0:0:
256,192,36846,1,8,0:0:0:0:
256,192,38346,1,8,0:0:0:0:
256,192,39846,1,8,0:0:0:0:
256,192,41346,1,8,0:0:0:0:
256,192,42096,1,8,0:0:0:0:
256,192,42846,1,0,0:0:0:0:
256,192,44346,1,8,0:0:0:0:
256,192,45846,1,0,0:0:0:0:
256,192,46408,1,8,0:0:0:0:
256,192,46971,1,8,0:0:0:0:
256,192,47346,1,0,0:0:0:0:
256,192,47908,1,8,0:0:0:0:
256,192,48471,1,8,0:0:0:0:
256,192,48846,1,0,0:0:0:0:
256,192,49408,1,0,0:0:0:0:
256,192,49971,1,8,0:0:0:0:
256,192,50346,1,0,0:0:0:0:
256,192,51471,1,0,0:0:0:0:
256,192,51846,1,8,0:0:0:0:
256,192,52408,1,8,0:0:0:0:
256,192,52971,1,8,0:0:0:0:
256,192,53346,1,0,0:0:0:0:
256,192,53908,1,8,0:0:0:0:
256,192,54471,1,8,0:0:0:0:
256,192,54846,1,0,0:0:0:0:
256,192,55408,1,0,0:0:0:0:
256,192,55971,1,0,0:0:0:0:
256,192,56346,1,8,0:0:0:0:
256,192,57096,2,0,L|480:192,1,199.499994672775
256,192,57846,1,0,0:0:0:0:
256,192,59346,1,0,0:0:0:0:
256,192,60846,1,0,0:0:0:0:
256,192,62346,1,8,0:0:0:0:
256,192,63846,1,0,0:0:0:0:
256,192,65346,1,0,0:0:0:0:
256,192,66846,1,0,0:0:0:0:
256,192,68346,1,8,0:0:0:0:
256,192,69471,1,8,0:0:0:0:
256,192,69846,1,0,0:0:0:0:
256,192,70408,1,0,0:0:0:0:
256,192,70971,1,8,0:0:0:0:
256,192,71346,1,8,0:0:0:0:
256,192,71908,1,8,0:0:0:0:
256,192,72846,1,8,0:0:0:0:
256,192,73408,1,8,0:0:0:0:
256,192,73971,1,0,0:0:0:0:
256,192,74346,1,8,0:0:0:0:
256,192,75471,1,8,0:0:0:0:
256,192,75846,1,0,0:0:0:0:
256,192,76408,1,0,0:0:0:0:
256,192,76971,1,0,0:0:0:0:
256,192,77346,1,8,0:0:0:0:
256,192,77908,1,8,0:0:0:0:
256,192,78471,1,0,0:0:0:0:
256,192,78846,1,8,0:0:0:0:
256,192,79408,1,8,0:0:0:0:
256,192,79971,1,8,0:0:0:0:
256,192,80346,5,0,0:0:0:0:
256,192,81096,5,8,0:0:0:0:
256,192,81846,1,0,0:0:0:0:
256,192,82221,1,8,0:0:0:0:
256,192,82596,1,0,0:0:0:0:
256,192,82971,1,0,0:0:0:0:
256,192,83346,1,8,0:0:0:0:
256,192,84096,1,8,0:0:0:0:
256,192,84846,1,0,0:0:0:0:
256,192,86346,1,8,0:0:0:0:
256,192,86908,1,8,0:0:0:0:
256,192,87471,1,0,0:0:0:0:
256,192,87846,1,8,0:0:0:0:
256,192,88408,1,0,0:0:0:0:
256,192,88971,1,0,0:0:0:0:
256,192,89346,1,8,0:0:0:0:
256,192,90471,1,8,0:0:0:0:
256,192,90846,1,0,0:0:0:0:
256,192,91408,1,8,0:0:0:0:
256,192,91971,1,0,0:0:0:0:
256,192,92346,1,0,0:0:0:0:
256,192,92908,1,8,0:0:0:0:
256,192,93846,1,0,0:0:0:0:
256,192,94408,1,8,0:0:0:0:
256,192,94971,1,0,0:0:0:0:
256,192,95346,1,8,0:0:0:0:
256,192,96096,1,0,0:0:0:0:
256,192,96471,1,12,0:0:0:0:
